  0
SECTION
  2
HEADER
  9
$ACADVER
  1
AC1018
  9
$ACADMAINTVER
 70
     0
  9
$DWGCODEPAGE
  3
ANSI_1252
  9
$INSBASE
 10
0.0
 20
0.0
 30
0.0
  9
$EXTMIN
 10
-10.00000000000034
 20
-4.438348972101267
 30
-0.0734818749126873
  9
$EXTMAX
 10
1222.44033797353
 20
913.7845766827191
 30
0.0000000000005684
  9
$LIMMIN
 10
0.0
 20
0.0
  9
$LIMMAX
 10
12.0
 20
9.0
  9
$ORTHOMODE
 70
     0
  9
$REGENMODE
 70
     1
  9
$FILLMODE
 70
     1
  9
$QTEXTMODE
 70
     0
  9
$MIRRTEXT
 70
     1
  9
$LTSCALE
 40
1.0
  9
$ATTMODE
 70
     1
  9
$TEXTSIZE
 40
0.2
  9
$TRACEWID
 40
0.05
  9
$TEXTSTYLE
  7
Standard
  9
$CLAYER
  8
2D
  9
$CELTYPE
  6
ByLayer
  9
$CECOLOR
 62
   256
  9
$CELTSCALE
 40
1.0
  9
$DISPSILH
 70
     0
  9
$DIMSCALE
 40
1.0
  9
$DIMASZ
 40
0.18
  9
$DIMEXO
 40
0.0625
  9
$DIMDLI
 40
0.38
  9
$DIMRND
 40
0.0
  9
$DIMDLE
 40
0.0
  9
$DIMEXE
 40
0.18
  9
$DIMTP
 40
0.0
  9
$DIMTM
 40
0.0
  9
$DIMTXT
 40
0.18
  9
$DIMCEN
 40
0.09
  9
$DIMTSZ
 40
0.0
  9
$DIMTOL
 70
     0
  9
$DIMLIM
 70
     0
  9
$DIMTIH
 70
     1
  9
$DIMTOH
 70
     1
  9
$DIMSE1
 70
     0
  9
$DIMSE2
 70
     0
  9
$DIMTAD
 70
     0
  9
$DIMZIN
 70
     0
  9
$DIMBLK
  1

  9
$DIMASO
 70
     1
  9
$DIMSHO
 70
     1
  9
$DIMPOST
  1

  9
$DIMAPOST
  1

  9
$DIMALT
 70
     0
  9
$DIMALTD
 70
     2
  9
$DIMALTF
 40
25.4
  9
$DIMLFAC
 40
1.0
  9
$DIMTOFL
 70
     0
  9
$DIMTVP
 40
0.0
  9
$DIMTIX
 70
     0
  9
$DIMSOXD
 70
     0
  9
$DIMSAH
 70
     0
  9
$DIMBLK1
  1

  9
$DIMBLK2
  1

  9
$DIMSTYLE
  2
Standard
  9
$DIMCLRD
 70
     0
  9
$DIMCLRE
 70
     0
  9
$DIMCLRT
 70
     0
  9
$DIMTFAC
 40
1.0
  9
$DIMGAP
 40
0.09
  9
$DIMJUST
 70
     0
  9
$DIMSD1
 70
     0
  9
$DIMSD2
 70
     0
  9
$DIMTOLJ
 70
     1
  9
$DIMTZIN
 70
     0
  9
$DIMALTZ
 70
     0
  9
$DIMALTTZ
 70
     0
  9
$DIMUPT
 70
     0
  9
$DIMDEC
 70
     4
  9
$DIMTDEC
 70
     4
  9
$DIMALTU
 70
     2
  9
$DIMALTTD
 70
     2
  9
$DIMTXSTY
  7
Standard
  9
$DIMAUNIT
 70
     0
  9
$DIMADEC
 70
     0
  9
$DIMALTRND
 40
0.0
  9
$DIMAZIN
 70
     0
  9
$DIMDSEP
 70
    46
  9
$DIMATFIT
 70
     3
  9
$DIMFRAC
 70
     0
  9
$DIMLDRBLK
  1

  9
$DIMLUNIT
 70
     2
  9
$DIMLWD
 70
    -2
  9
$DIMLWE
 70
    -2
  9
$DIMTMOVE
 70
     2
  9
$LUNITS
 70
     2
  9
$LUPREC
 70
     3
  9
$SKETCHINC
 40
0.1
  9
$FILLETRAD
 40
0.5
  9
$AUNITS
 70
     0
  9
$AUPREC
 70
     0
  9
$MENU
  1
.
  9
$ELEVATION
 40
0.0
  9
$PELEVATION
 40
0.0
  9
$THICKNESS
 40
0.0
  9
$LIMCHECK
 70
     0
  9
$CHAMFERA
 40
0.5
  9
$CHAMFERB
 40
0.5
  9
$CHAMFERC
 40
1.0
  9
$CHAMFERD
 40
0.0
  9
$SKPOLY
 70
     0
  9
$TDCREATE
 40
2457197.678131227
  9
$TDUCREATE
 40
2457197.594797893
  9
$TDUPDATE
 40
2457197.678150544
  9
$TDUUPDATE
 40
2457197.59481721
  9
$TDINDWG
 40
0.0000000116
  9
$TDUSRTIMER
 40
0.0000000116
  9
$USRTIMER
 70
     1
  9
$ANGBASE
 50
0.0
  9
$ANGDIR
 70
     0
  9
$PDMODE
 70
     0
  9
$PDSIZE
 40
0.0
  9
$PLINEWID
 40
0.0
  9
$SPLFRAME
 70
     0
  9
$SPLINETYPE
 70
     6
  9
$SPLINESEGS
 70
     8
  9
$HANDSEED
  5
718
  9
$SURFTAB1
 70
     6
  9
$SURFTAB2
 70
     6
  9
$SURFTYPE
 70
     6
  9
$SURFU
 70
     6
  9
$SURFV
 70
     6
  9
$UCSBASE
  2

  9
$UCSNAME
  2

  9
$UCSORG
 10
0.0
 20
0.0
 30
0.0
  9
$UCSXDIR
 10
1.0
 20
0.0
 30
0.0
  9
$UCSYDIR
 10
0.0
 20
1.0
 30
0.0
  9
$UCSORTHOREF
  2

  9
$UCSORTHOVIEW
 70
     0
  9
$UCSORGTOP
 10
0.0
 20
0.0
 30
0.0
  9
$UCSORGBOTTOM
 10
0.0
 20
0.0
 30
0.0
  9
$UCSORGLEFT
 10
0.0
 20
0.0
 30
0.0
  9
$UCSORGRIGHT
 10
0.0
 20
0.0
 30
0.0
  9
$UCSORGFRONT
 10
0.0
 20
0.0
 30
0.0
  9
$UCSORGBACK
 10
0.0
 20
0.0
 30
0.0
  9
$PUCSBASE
  2

  9
$PUCSNAME
  2

  9
$PUCSORG
 10
0.0
 20
0.0
 30
0.0
  9
$PUCSXDIR
 10
1.0
 20
0.0
 30
0.0
  9
$PUCSYDIR
 10
0.0
 20
1.0
 30
0.0
  9
$PUCSORTHOREF
  2

  9
$PUCSORTHOVIEW
 70
     0
  9
$PUCSORGTOP
 10
0.0
 20
0.0
 30
0.0
  9
$PUCSORGBOTTOM
 10
0.0
 20
0.0
 30
0.0
  9
$PUCSORGLEFT
 10
0.0
 20
0.0
 30
0.0
  9
$PUCSORGRIGHT
 10
0.0
 20
0.0
 30
0.0
  9
$PUCSORGFRONT
 10
0.0
 20
0.0
 30
0.0
  9
$PUCSORGBACK
 10
0.0
 20
0.0
 30
0.0
  9
$USERI1
 70
     0
  9
$USERI2
 70
     0
  9
$USERI3
 70
     0
  9
$USERI4
 70
     0
  9
$USERI5
 70
     0
  9
$USERR1
 40
0.0
  9
$USERR2
 40
0.0
  9
$USERR3
 40
0.0
  9
$USERR4
 40
0.0
  9
$USERR5
 40
0.0
  9
$WORLDVIEW
 70
     1
  9
$SHADEDGE
 70
     3
  9
$SHADEDIF
 70
    70
  9
$TILEMODE
 70
     1
  9
$MAXACTVP
 70
    64
  9
$PINSBASE
 10
0.0
 20
0.0
 30
0.0
  9
$PLIMCHECK
 70
     0
  9
$PEXTMIN
 10
1.000000000000000E+20
 20
1.000000000000000E+20
 30
1.000000000000000E+20
  9
$PEXTMAX
 10
-1.000000000000000E+20
 20
-1.000000000000000E+20
 30
-1.000000000000000E+20
  9
$PLIMMIN
 10
0.0
 20
0.0
  9
$PLIMMAX
 10
12.0
 20
9.0
  9
$UNITMODE
 70
     0
  9
$VISRETAIN
 70
     1
  9
$PLINEGEN
 70
     0
  9
$PSLTSCALE
 70
     1
  9
$TREEDEPTH
 70
  3020
  9
$CMLSTYLE
  2
Standard
  9
$CMLJUST
 70
     0
  9
$CMLSCALE
 40
1.0
  9
$PROXYGRAPHICS
 70
     1
  9
$MEASUREMENT
 70
     0
  9
$CELWEIGHT
370
    -1
  9
$ENDCAPS
280
     0
  9
$JOINSTYLE
280
     0
  9
$LWDISPLAY
290
     0
  9
$INSUNITS
 70
     4
  9
$HYPERLINKBASE
  1

  9
$STYLESHEET
  1

  9
$XEDIT
290
     1
  9
$CEPSNTYPE
380
     0
  9
$PSTYLEMODE
290
     1
  9
$FINGERPRINTGUID
  2
{EF9DA58C-967E-4F7B-8720-F0FBF922CEA6}
  9
$VERSIONGUID
  2
{FAEB1C32-E019-11D5-929B-00C0DF256EC4}
  9
$EXTNAMES
290
     1
  9
$PSVPSCALE
 40
0.0
  9
$OLESTARTUP
290
     0
  9
$SORTENTS
280
   127
  9
$INDEXCTL
280
     0
  9
$HIDETEXT
280
     1
  9
$XCLIPFRAME
290
     0
  9
$HALOGAP
280
     0
  9
$OBSCOLOR
 70
   257
  9
$OBSLTYPE
280
     0
  9
$INTERSECTIONDISPLAY
280
     0
  9
$INTERSECTIONCOLOR
 70
   257
  9
$DIMASSOC
280
     2
  9
$PROJECTNAME
  1

  0
ENDSEC
  0
SECTION
  2
CLASSES
  0
CLASS
  1
ACDBDICTIONARYWDFLT
  2
AcDbDictionaryWithDefault
  3
ObjectDBX Classes
 90
        0
 91
        4
280
     0
281
     0
  0
CLASS
  1
VISUALSTYLE
  2
AcDbVisualStyle
  3
ObjectDBX Classes
 90
     4095
 91
        4
280
     0
281
     0
  0
CLASS
  1
MATERIAL
  2
AcDbMaterial
  3
ObjectDBX Classes
 90
     1153
 91
        4
280
     0
281
     0
  0
CLASS
  1
SUN
  2
AcDbSun
  3
SCENEOE
 90
     1024
 91
        4
280
     0
281
     0
  0
ENDSEC
  0
SECTION
  2
TABLES
  0
TABLE
  2
VPORT
  5
8
330
0
100
AcDbSymbolTable
 70
     1
  0
VPORT
  5
29
330
8
100
AcDbSymbolTableRecord
100
AcDbViewportTableRecord
  2
*Active
 70
     0
 10
0.0
 20
0.0
 11
1.0
 21
1.0
 12
606.2201689867649
 22
454.6731138553089
 13
0.0
 23
0.0
 14
0.5
 24
0.5
 15
0.5
 25
0.5
 16
0.0
 26
0.0
 36
1.0
 17
0.0
 27
0.0
 37
0.0
 40
936.5873841679169
 41
1.342201663168701
 42
50.0
 43
0.0
 44
0.0
 50
0.0
 51
0.0
 71
     0
 72
   100
 73
     1
 74
     3
 75
     0
 76
     0
 77
     0
 78
     0
281
     0
 65
     1
110
0.0
120
0.0
130
0.0
111
1.0
121
0.0
131
0.0
112
0.0
122
1.0
132
0.0
 79
     0
146
0.0
  0
ENDTAB
  0
TABLE
  2
LTYPE
  5
5
330
0
100
AcDbSymbolTable
 70
     1
  0
LTYPE
  5
14
330
5
100
AcDbSymbolTableRecord
100
AcDbLinetypeTableRecord
  2
ByBlock
 70
     0
  3

 72
    65
 73
     0
 40
0.0
  0
LTYPE
  5
15
330
5
100
AcDbSymbolTableRecord
100
AcDbLinetypeTableRecord
  2
ByLayer
 70
     0
  3

 72
    65
 73
     0
 40
0.0
  0
LTYPE
  5
16
330
5
100
AcDbSymbolTableRecord
100
AcDbLinetypeTableRecord
  2
Continuous
 70
     0
  3
Solid line
 72
    65
 73
     0
 40
0.0
  0
ENDTAB
  0
TABLE
  2
LAYER
  5
2
330
0
100
AcDbSymbolTable
 70
     6
  0
LAYER
  5
10
330
2
100
AcDbSymbolTableRecord
100
AcDbLayerTableRecord
  2
0
 70
     0
 62
     7
  6
Continuous
370
    -3
390
F
  0
LAYER
  5
40
330
2
100
AcDbSymbolTableRecord
100
AcDbLayerTableRecord
  2
2D$cuna
 70
     0
 62
    18
420
        0
  6
Continuous
370
    -3
390
F
  0
LAYER
  5
66
330
2
100
AcDbSymbolTableRecord
100
AcDbLayerTableRecord
  2
2D$cuna$Interiores
 70
     0
 62
     5
420
      255
  6
Continuous
370
    -3
390
F
  0
LAYER
  5
150
330
2
100
AcDbSymbolTableRecord
100
AcDbLayerTableRecord
  2
2D$cuna$rebaje 5mm
 70
     0
 62
     1
420
 16711680
  6
Continuous
370
    -3
390
F
  0
LAYER
  5
6D2
330
2
100
AcDbSymbolTableRecord
100
AcDbLayerTableRecord
  2
2D
 70
     0
 62
    18
420
        0
  6
Continuous
370
    -3
390
F
  0
LAYER
  5
6D6
330
2
100
AcDbSymbolTableRecord
100
AcDbLayerTableRecord
  2
Defpoints
 70
     0
 62
     7
  6
Continuous
290
     0
370
    -3
390
F
  0
ENDTAB
  0
TABLE
  2
STYLE
  5
3
330
0
100
AcDbSymbolTable
 70
     2
  0
STYLE
  5
11
330
3
100
AcDbSymbolTableRecord
100
AcDbTextStyleTableRecord
  2
Standard
 70
     0
 40
0.0
 41
1.0
 50
0.0
 71
     0
 42
0.2
  3
txt
  4

  0
STYLE
  5
6D3
330
3
100
AcDbSymbolTableRecord
100
AcDbTextStyleTableRecord
  2
Arial
 70
     0
 40
0.0
 41
1.0
 50
0.0
 71
     0
 42
0.0
  3
arial.ttf
  4

1001
ACAD
1000
Arial
1071
      256
  0
ENDTAB
  0
TABLE
  2
VIEW
  5
6
330
0
100
AcDbSymbolTable
 70
     0
  0
ENDTAB
  0
TABLE
  2
UCS
  5
7
330
0
100
AcDbSymbolTable
 70
     0
  0
ENDTAB
  0
TABLE
  2
APPID
  5
9
330
0
100
AcDbSymbolTable
 70
     1
  0
APPID
  5
12
330
9
100
AcDbSymbolTableRecord
100
AcDbRegAppTableRecord
  2
ACAD
 70
     0
  0
ENDTAB
  0
TABLE
  2
DIMSTYLE
  5
A
330
0
100
AcDbSymbolTable
 70
     2
100
AcDbDimStyleTable
  0
DIMSTYLE
105
27
330
A
100
AcDbSymbolTableRecord
100
AcDbDimStyleTableRecord
  2
Standard
 70
     0
178
     0
340
11
  0
DIMSTYLE
105
6D4
102
{ACAD_REACTORS
330
6D5
330
6E3
102
}
330
A
100
AcDbSymbolTableRecord
100
AcDbDimStyleTableRecord
  2
Default
 70
     0
 41
1.0
 42
0.5
 44
0.5
 73
     0
 77
     1
 78
     1
140
1.0
141
0.5
147
0.25
172
     1
174
     1
178
     0
179
     2
271
     2
279
     1
284
     1
340
6D3
  0
ENDTAB
  0
TABLE
  2
BLOCK_RECORD
  5
1
330
0
100
AcDbSymbolTable
 70
     3
  0
BLOCK_RECORD
  5
1F
330
1
100
AcDbSymbolTableRecord
100
AcDbBlockTableRecord
  2
*Model_Space
340
22
  0
BLOCK_RECORD
  5
1B
330
1
100
AcDbSymbolTableRecord
100
AcDbBlockTableRecord
  2
*Paper_Space
340
1E
  0
BLOCK_RECORD
  5
23
330
1
100
AcDbSymbolTableRecord
100
AcDbBlockTableRecord
  2
*Paper_Space0
340
26
  0
BLOCK_RECORD
  5
6D7
330
1
100
AcDbSymbolTableRecord
100
AcDbBlockTableRecord
  2
*D1
340
0
  0
BLOCK_RECORD
  5
6E4
330
1
100
AcDbSymbolTableRecord
100
AcDbBlockTableRecord
  2
*D2
340
0
  0
ENDTAB
  0
ENDSEC
  0
SECTION
  2
BLOCKS
  0
BLOCK
  5
20
330
1F
100
AcDbEntity
  8
0
100
AcDbBlockBegin
  2
*Model_Space
 70
     0
 10
0.0
 20
0.0
 30
0.0
  3
*Model_Space
  1

  0
ENDBLK
  5
21
330
1F
100
AcDbEntity
  8
0
100
AcDbBlockEnd
  0
BLOCK
  5
1C
330
1B
100
AcDbEntity
 67
     1
  8
0
100
AcDbBlockBegin
  2
*Paper_Space
 70
     0
 10
0.0
 20
0.0
 30
0.0
  3
*Paper_Space
  1

  0
ENDBLK
  5
1D
330
1B
100
AcDbEntity
 67
     1
  8
0
100
AcDbBlockEnd
  0
BLOCK
  5
24
330
23
100
AcDbEntity
  8
0
100
AcDbBlockBegin
  2
*Paper_Space0
 70
     0
 10
0.0
 20
0.0
 30
0.0
  3
*Paper_Space0
  1

  0
ENDBLK
  5
25
330
23
100
AcDbEntity
  8
0
100
AcDbBlockEnd
  0
BLOCK
  5
6D8
330
6D7
100
AcDbEntity
  8
0
100
AcDbBlockBegin
  2
*D1
 70
     1
 10
0.0
 20
0.0
 30
0.0
  3
*D1
  1

  0
LINE
  5
6DA
330
6D7
100
AcDbEntity
  8
2D
 62
     0
370
    -2
100
AcDbLine
 10
480.3370212043001
 20
335.0
 30
0.0
 11
472.3370212043001
 21
335.0
 31
0.0
  0
LINE
  5
6DB
330
6D7
100
AcDbEntity
  8
2D
 62
     0
370
    -2
100
AcDbLine
 10
480.3370212043001
 20
320.0
 30
0.0
 11
472.3370212043001
 21
320.0
 31
0.0
  0
LINE
  5
6DC
330
6D7
100
AcDbEntity
  8
2D
 62
     0
370
    -2
100
AcDbLine
 10
472.8370212043001
 20
334.0
 30
0.0
 11
472.8370212043001
 21
321.0
 31
0.0
  0
SOLID
  5
6DD
330
6D7
100
AcDbEntity
  8
2D
 62
     0
100
AcDbTrace
 10
473.0036878709668
 20
334.0
 30
0.0
 11
472.6703545376334
 21
334.0
 31
0.0
 12
472.8370212043001
 22
335.0
 32
0.0
 13
472.8370212043001
 23
335.0
 33
0.0
  0
SOLID
  5
6DE
330
6D7
100
AcDbEntity
  8
2D
 62
     0
100
AcDbTrace
 10
472.6703545376334
 20
321.0
 30
0.0
 11
473.0036878709668
 21
321.0
 31
0.0
 12
472.8370212043001
 22
320.0
 32
0.0
 13
472.8370212043001
 23
320.0
 33
0.0
  0
MTEXT
  5
6DF
330
6D7
100
AcDbEntity
  8
2D
 62
     0
100
AcDbMText
 10
472.0765212043001
 20
327.5
 30
0.0
 40
1.0
 41
0.0
 71
     5
 72
     1
  1
\A1;15.00
  7
Arial
 11
0.0
 21
1.0
 31
0.0
 73
     1
 44
1.0
  0
POINT
  5
6E0
330
6D7
100
AcDbEntity
  8
Defpoints
 62
     0
100
AcDbPoint
 10
480.8370212043001
 20
335.0
 30
0.0
  0
POINT
  5
6E1
330
6D7
100
AcDbEntity
  8
Defpoints
 62
     0
100
AcDbPoint
 10
480.8370212043001
 20
320.0
 30
0.0
  0
POINT
  5
6E2
330
6D7
100
AcDbEntity
  8
Defpoints
 62
     0
100
AcDbPoint
 10
472.8370212043001
 20
320.0
 30
0.0
  0
ENDBLK
  5
6D9
330
6D7
100
AcDbEntity
  8
0
100
AcDbBlockEnd
  0
BLOCK
  5
6E5
330
6E4
100
AcDbEntity
  8
0
100
AcDbBlockBegin
  2
*D2
 70
     1
 10
0.0
 20
0.0
 30
0.0
  3
*D2
  1

  0
LINE
  5
6E7
330
6E4
100
AcDbEntity
  8
2D
 62
     0
370
    -2
100
AcDbLine
 10
510.8370212043001
 20
324.5
 30
0.0
 11
510.8370212043001
 21
309.5
 31
0.0
  0
LINE
  5
6E8
330
6E4
100
AcDbEntity
  8
2D
 62
     0
370
    -2
100
AcDbLine
 10
530.8370212043001
 20
324.5
 30
0.0
 11
530.8370212043001
 21
309.5
 31
0.0
  0
LINE
  5
6E9
330
6E4
100
AcDbEntity
  8
2D
 62
     0
370
    -2
100
AcDbLine
 10
511.8370212043001
 20
310.0
 30
0.0
 11
529.8370212043001
 21
310.0
 31
0.0
  0
SOLID
  5
6EA
330
6E4
100
AcDbEntity
  8
2D
 62
     0
100
AcDbTrace
 10
511.8370212043001
 20
310.1666666666667
 30
0.0
 11
511.8370212043001
 21
309.8333333333333
 31
0.0
 12
510.8370212043001
 22
310.0
 32
0.0
 13
510.8370212043001
 23
310.0
 33
0.0
  0
SOLID
  5
6EB
330
6E4
100
AcDbEntity
  8
2D
 62
     0
100
AcDbTrace
 10
529.8370212043001
 20
309.8333333333333
 30
0.0
 11
529.8370212043001
 21
310.1666666666667
 31
0.0
 12
530.8370212043001
 22
310.0
 32
0.0
 13
530.8370212043001
 23
310.0
 33
0.0
  0
MTEXT
  5
6EC
330
6E4
100
AcDbEntity
  8
2D
 62
     0
100
AcDbMText
 10
520.8370212043001
 20
310.7605
 30
0.0
 40
1.0
 41
0.0
 71
     5
 72
     1
  1
\A1;20.00
  7
Arial
 73
     1
 44
1.0
  0
POINT
  5
6ED
330
6E4
100
AcDbEntity
  8
Defpoints
 62
     0
100
AcDbPoint
 10
510.8370212043001
 20
325.0
 30
0.0
  0
POINT
  5
6EE
330
6E4
100
AcDbEntity
  8
Defpoints
 62
     0
100
AcDbPoint
 10
530.8370212043001
 20
325.0
 30
0.0
  0
POINT
  5
6EF
330
6E4
100
AcDbEntity
  8
Defpoints
 62
     0
100
AcDbPoint
 10
530.8370212043001
 20
310.0
 30
0.0
  0
ENDBLK
  5
6E6
330
6E4
100
AcDbEntity
  8
0
100
AcDbBlockEnd
  0
ENDSEC
  0
SECTION
  2
ENTITIES
  0
POLYLINE
  5
41
330
1F
100
AcDbEntity
  8
2D$cuna
100
AcDb2dPolyline
 66
     1
 10
0.0
 20
0.0
 30
0.0000000000005684
  0
VERTEX
  5
42
330
41
100
AcDbEntity
  8
2D$cuna
100
AcDbVertex
100
AcDb2dVertex
 10
1222.44033797353
 20
903.7845766827191
 30
0.0000000000005684
  0
VERTEX
  5
43
330
41
100
AcDbEntity
  8
2D$cuna
100
AcDbVertex
100
AcDb2dVertex
 10
1222.44033797353
 20
481.7845766827191
 30
0.0000000000005684
  0
VERTEX
  5
44
330
41
100
AcDbEntity
  8
2D$cuna
100
AcDbVertex
100
AcDb2dVertex
 10
1222.44033797353
 20
471.7845766827191
 30
0.0000000000005684
  0
VERTEX
  5
45
330
41
100
AcDbEntity
  8
2D$cuna
100
AcDbVertex
100
AcDb2dVertex
 10
1172.54033797353
 20
471.7845766827191
 30
0.0000000000005684
  0
VERTEX
  5
46
330
41
100
AcDbEntity
  8
2D$cuna
100
AcDbVertex
100
AcDb2dVertex
 10
1172.54033797353
 20
481.7845766827191
 30
0.0000000000005684
  0
VERTEX
  5
47
330
41
100
AcDbEntity
  8
2D$cuna
100
AcDbVertex
100
AcDb2dVertex
 10
1122.34033797353
 20
481.7845766827191
 30
0.0000000000005684
  0
VERTEX
  5
48
330
41
100
AcDbEntity
  8
2D$cuna
100
AcDbVertex
100
AcDb2dVertex
 10
1122.34033797353
 20
471.7845766827191
 30
0.0000000000005684
  0
VERTEX
  5
49
330
41
100
AcDbEntity
  8
2D$cuna
100
AcDbVertex
100
AcDb2dVertex
 10
1072.54033797353
 20
471.7845766827191
 30
0.0000000000005684
  0
VERTEX
  5
4A
330
41
100
AcDbEntity
  8
2D$cuna
100
AcDbVertex
100
AcDb2dVertex
 10
1072.54033797353
 20
481.7845766827191
 30
0.0000000000005684
  0
VERTEX
  5
4B
330
41
100
AcDbEntity
  8
2D$cuna
100
AcDbVertex
100
AcDb2dVertex
 10
1022.34033797353
 20
481.7845766827191
 30
0.0000000000005684
  0
VERTEX
  5
4C
330
41
100
AcDbEntity
  8
2D$cuna
100
AcDbVertex
100
AcDb2dVertex
 10
1022.34033797353
 20
471.7845766827191
 30
0.0000000000005684
  0
VERTEX
  5
4D
330
41
100
AcDbEntity
  8
2D$cuna
100
AcDbVertex
100
AcDb2dVertex
 10
972.5403379735301
 20
471.7845766827191
 30
0.0000000000005684
  0
VERTEX
  5
4E
330
41
100
AcDbEntity
  8
2D$cuna
100
AcDbVertex
100
AcDb2dVertex
 10
972.5403379735301
 20
481.7845766827191
 30
0.0000000000005684
  0
VERTEX
  5
4F
330
41
100
AcDbEntity
  8
2D$cuna
100
AcDbVertex
100
AcDb2dVertex
 10
922.34033797353
 20
481.7845766827191
 30
0.0000000000005684
  0
VERTEX
  5
50
330
41
100
AcDbEntity
  8
2D$cuna
100
AcDbVertex
100
AcDb2dVertex
 10
922.34033797353
 20
471.7845766827191
 30
0.0000000000005684
  0
VERTEX
  5
51
330
41
100
AcDbEntity
  8
2D$cuna
100
AcDbVertex
100
AcDb2dVertex
 10
872.5403379735301
 20
471.7845766827191
 30
0.0000000000005684
  0
VERTEX
  5
52
330
41
100
AcDbEntity
  8
2D$cuna
100
AcDbVertex
100
AcDb2dVertex
 10
872.5403379735301
 20
481.7845766827191
 30
0.0000000000005684
  0
VERTEX
  5
53
330
41
100
AcDbEntity
  8
2D$cuna
100
AcDbVertex
100
AcDb2dVertex
 10
822.4403379735302
 20
481.7845766827191
 30
0.0000000000005684
  0
VERTEX
  5
54
330
41
100
AcDbEntity
  8
2D$cuna
100
AcDbVertex
100
AcDb2dVertex
 10
822.4403379735302
 20
903.7845766827191
 30
0.0000000000005684
  0
VERTEX
  5
55
330
41
100
AcDbEntity
  8
2D$cuna
100
AcDbVertex
100
AcDb2dVertex
 10
872.5403379735301
 20
903.7845766827191
 30
0.0000000000005684
  0
VERTEX
  5
56
330
41
100
AcDbEntity
  8
2D$cuna
100
AcDbVertex
100
AcDb2dVertex
 10
872.5403379735301
 20
913.7845766827191
 30
0.0000000000005684
  0
VERTEX
  5
57
330
41
100
AcDbEntity
  8
2D$cuna
100
AcDbVertex
100
AcDb2dVertex
 10
922.34033797353
 20
913.7845766827191
 30
0.0000000000005684
  0
VERTEX
  5
58
330
41
100
AcDbEntity
  8
2D$cuna
100
AcDbVertex
100
AcDb2dVertex
 10
922.34033797353
 20
903.7845766827191
 30
0.0000000000005684
  0
VERTEX
  5
59
330
41
100
AcDbEntity
  8
2D$cuna
100
AcDbVertex
100
AcDb2dVertex
 10
972.5403379735301
 20
903.7845766827191
 30
0.0000000000005684
  0
VERTEX
  5
5A
330
41
100
AcDbEntity
  8
2D$cuna
100
AcDbVertex
100
AcDb2dVertex
 10
972.5403379735301
 20
913.7845766827191
 30
0.0000000000005684
  0
VERTEX
  5
5B
330
41
100
AcDbEntity
  8
2D$cuna
100
AcDbVertex
100
AcDb2dVertex
 10
1022.34033797353
 20
913.7845766827191
 30
0.0000000000005684
  0
VERTEX
  5
5C
330
41
100
AcDbEntity
  8
2D$cuna
100
AcDbVertex
100
AcDb2dVertex
 10
1022.34033797353
 20
903.7845766827191
 30
0.0000000000005684
  0
VERTEX
  5
5D
330
41
100
AcDbEntity
  8
2D$cuna
100
AcDbVertex
100
AcDb2dVertex
 10
1072.54033797353
 20
903.7845766827191
 30
0.0000000000005684
  0
VERTEX
  5
5E
330
41
100
AcDbEntity
  8
2D$cuna
100
AcDbVertex
100
AcDb2dVertex
 10
1072.54033797353
 20
913.7845766827191
 30
0.0000000000005684
  0
VERTEX
  5
5F
330
41
100
AcDbEntity
  8
2D$cuna
100
AcDbVertex
100
AcDb2dVertex
 10
1122.34033797353
 20
913.7845766827191
 30
0.0000000000005684
  0
VERTEX
  5
60
330
41
100
AcDbEntity
  8
2D$cuna
100
AcDbVertex
100
AcDb2dVertex
 10
1122.34033797353
 20
903.7845766827191
 30
0.0000000000005684
  0
VERTEX
  5
61
330
41
100
AcDbEntity
  8
2D$cuna
100
AcDbVertex
100
AcDb2dVertex
 10
1172.54033797353
 20
903.7845766827191
 30
0.0000000000005684
  0
VERTEX
  5
62
330
41
100
AcDbEntity
  8
2D$cuna
100
AcDbVertex
100
AcDb2dVertex
 10
1172.54033797353
 20
913.7845766827191
 30
0.0000000000005684
  0
VERTEX
  5
63
330
41
100
AcDbEntity
  8
2D$cuna
100
AcDbVertex
100
AcDb2dVertex
 10
1222.44033797353
 20
913.7845766827191
 30
0.0000000000005684
  0
VERTEX
  5
64
330
41
100
AcDbEntity
  8
2D$cuna
100
AcDbVertex
100
AcDb2dVertex
 10
1222.44033797353
 20
903.7845766827191
 30
0.0000000000005684
  0
SEQEND
  5
65
330
41
100
AcDbEntity
  8
2D$cuna
  0
POLYLINE
  5
67
330
1F
100
AcDbEntity
  8
2D$cuna$Interiores
100
AcDb2dPolyline
 66
     1
 10
0.0
 20
0.0
 30
0.0000000000004547
  0
VERTEX
  5
68
330
67
100
AcDbEntity
  8
2D$cuna$Interiores
100
AcDbVertex
100
AcDb2dVertex
 10
1102.44033797353
 20
576.7845766827195
 30
0.0000000000004547
  0
VERTEX
  5
69
330
67
100
AcDbEntity
  8
2D$cuna$Interiores
100
AcDbVertex
100
AcDb2dVertex
 10
1102.44033797353
 20
808.7845766827191
 30
0.0000000000004547
  0
SEQEND
  5
6A
330
67
100
AcDbEntity
  8
2D$cuna$Interiores
  0
POLYLINE
  5
6B
330
1F
100
AcDbEntity
  8
2D$cuna$Interiores
100
AcDb2dPolyline
 66
     1
 10
0.0
 20
0.0
 30
0.0000000000004243
  0
VERTEX
  5
6C
330
6B
100
AcDbEntity
  8
2D$cuna$Interiores
100
AcDbVertex
100
AcDb2dVertex
 10
1102.44033797353
 20
808.7845766827191
 30
0.0000000000004243
  0
VERTEX
  5
6D
330
6B
100
AcDbEntity
  8
2D$cuna$Interiores
100
AcDbVertex
100
AcDb2dVertex
 10
1102.411189091839
 20
810.4916321920175
 30
0.0000000000004243
  0
VERTEX
  5
6E
330
6B
100
AcDbEntity
  8
2D$cuna$Interiores
100
AcDbVertex
100
AcDb2dVertex
 10
1102.323776433057
 20
812.1966973509527
 30
0.0000000000004243
  0
VERTEX
  5
6F
330
6B
100
AcDbEntity
  8
2D$cuna$Interiores
100
AcDbVertex
100
AcDb2dVertex
 10
1102.178201916435
 20
813.8977841298208
 30
0.0000000000004243
  0
VERTEX
  5
70
330
6B
100
AcDbEntity
  8
2D$cuna$Interiores
100
AcDbVertex
100
AcDb2dVertex
 10
1101.974635275347
 20
815.5929091375315
 30
0.0000000000004243
  0
VERTEX
  5
71
330
6B
100
AcDbEntity
  8
2D$cuna$Interiores
100
AcDbVertex
100
AcDb2dVertex
 10
1101.71331385939
 20
817.2800959341524
 30
0.0000000000004243
  0
VERTEX
  5
72
330
6B
100
AcDbEntity
  8
2D$cuna$Interiores
100
AcDbVertex
100
AcDb2dVertex
 10
1101.394542357646
 20
818.9573773353508
 30
0.0000000000004243
  0
VERTEX
  5
73
330
6B
100
AcDbEntity
  8
2D$cuna$Interiores
100
AcDbVertex
100
AcDb2dVertex
 10
1101.018692443427
 20
820.6227977060414
 30
0.0000000000004243
  0
VERTEX
  5
74
330
6B
100
AcDbEntity
  8
2D$cuna$Interiores
100
AcDbVertex
100
AcDb2dVertex
 10
1100.58620234092
 20
822.2744152405703
 30
0.0000000000004243
  0
VERTEX
  5
75
330
6B
100
AcDbEntity
  8
2D$cuna$Interiores
100
AcDbVertex
100
AcDb2dVertex
 10
1100.097576314238
 20
823.910304226773
 30
0.0000000000004243
  0
VERTEX
  5
76
330
6B
100
AcDbEntity
  8
2D$cuna$Interiores
100
AcDbVertex
100
AcDb2dVertex
 10
1099.553384079471
 20
825.5285572912684
 30
0.0000000000004243
  0
VERTEX
  5
77
330
6B
100
AcDbEntity
  8
2D$cuna$Interiores
100
AcDbVertex
100
AcDb2dVertex
 10
1098.954260140422
 20
827.1272876233719
 30
0.0000000000004243
  0
VERTEX
  5
78
330
6B
100
AcDbEntity
  8
2D$cuna$Interiores
100
AcDbVertex
100
AcDb2dVertex
 10
1098.300903048803
 20
828.7046311750312
 30
0.0000000000004243
  0
VERTEX
  5
79
330
6B
100
AcDbEntity
  8
2D$cuna$Interiores
100
AcDbVertex
100
AcDb2dVertex
 10
1097.594074589757
 20
830.2587488342232
 30
0.0000000000004243
  0
VERTEX
  5
7A
330
6B
100
AcDbEntity
  8
2D$cuna$Interiores
100
AcDbVertex
100
AcDb2dVertex
 10
1096.834598893649
 20
831.7878285692767
 30
0.0000000000004243
  0
VERTEX
  5
7B
330
6B
100
AcDbEntity
  8
2D$cuna$Interiores
100
AcDbVertex
100
AcDb2dVertex
 10
1096.023361475168
 20
833.29008754162
 30
0.0000000000004243
  0
VERTEX
  5
7C
330
6B
100
AcDbEntity
  8
2D$cuna$Interiores
100
AcDbVertex
100
AcDb2dVertex
 10
1095.161308200855
 20
834.7637741844908
 30
0.0000000000004243
  0
VERTEX
  5
7D
330
6B
100
AcDbEntity
  8
2D$cuna$Interiores
100
AcDbVertex
100
AcDb2dVertex
 10
1094.249444186266
 20
836.207170245185
 30
0.0000000000004243
  0
VERTEX
  5
7E
330
6B
100
AcDbEntity
  8
2D$cuna$Interiores
100
AcDbVertex
100
AcDb2dVertex
 10
1093.288832624052
 20
837.6185927884625
 30
0.0000000000004243
  0
VERTEX
  5
7F
330
6B
100
AcDbEntity
  8
2D$cuna$Interiores
100
AcDbVertex
100
AcDb2dVertex
 10
1092.280593544325
 20
838.9963961587738
 30
0.0000000000004243
  0
VERTEX
  5
80
330
6B
100
AcDbEntity
  8
2D$cuna$Interiores
100
AcDbVertex
100
AcDb2dVertex
 10
1091.225902508751
 20
840.3389738990218
 30
0.0000000000004243
  0
VERTEX
  5
81
330
6B
100
AcDbEntity
  8
2D$cuna$Interiores
100
AcDbVertex
100
AcDb2dVertex
 10
1090.125989239898
 20
841.6447606236177
 30
0.0000000000004243
  0
VERTEX
  5
82
330
6B
100
AcDbEntity
  8
2D$cuna$Interiores
100
AcDbVertex
100
AcDb2dVertex
 10
1088.982136187436
 20
842.9122338436518
 30
0.0000000000004243
  0
VERTEX
  5
83
330
6B
100
AcDbEntity
  8
2D$cuna$Interiores
100
AcDbVertex
100
AcDb2dVertex
 10
1087.795677032858
 20
844.1399157420465
 30
0.0000000000004243
  0
VERTEX
  5
84
330
6B
100
AcDbEntity
  8
2D$cuna$Interiores
100
AcDbVertex
100
AcDb2dVertex
 10
1086.567995134463
 20
845.3263748966253
 30
0.0000000000004243
  0
VERTEX
  5
85
330
6B
100
AcDbEntity
  8
2D$cuna$Interiores
100
AcDbVertex
100
AcDb2dVertex
 10
1085.300521914429
 20
846.4702279490872
 30
0.0000000000004243
  0
VERTEX
  5
86
330
6B
100
AcDbEntity
  8
2D$cuna$Interiores
100
AcDbVertex
100
AcDb2dVertex
 10
1083.994735189833
 20
847.5701412179401
 30
0.0000000000004243
  0
VERTEX
  5
87
330
6B
100
AcDbEntity
  8
2D$cuna$Interiores
100
AcDbVertex
100
AcDb2dVertex
 10
1082.652157449585
 20
848.6248322535143
 30
0.0000000000004243
  0
VERTEX
  5
88
330
6B
100
AcDbEntity
  8
2D$cuna$Interiores
100
AcDbVertex
100
AcDb2dVertex
 10
1081.274354079274
 20
849.6330713332412
 30
0.0000000000004243
  0
VERTEX
  5
89
330
6B
100
AcDbEntity
  8
2D$cuna$Interiores
100
AcDbVertex
100
AcDb2dVertex
 10
1079.862931535996
 20
850.5936828954547
 30
0.0000000000004243
  0
VERTEX
  5
8A
330
6B
100
AcDbEntity
  8
2D$cuna$Interiores
100
AcDbVertex
100
AcDb2dVertex
 10
1078.419535475302
 20
851.5055469100436
 30
0.0000000000004243
  0
VERTEX
  5
8B
330
6B
100
AcDbEntity
  8
2D$cuna$Interiores
100
AcDbVertex
100
AcDb2dVertex
 10
1076.945848832431
 20
852.3676001843567
 30
0.0000000000004243
  0
VERTEX
  5
8C
330
6B
100
AcDbEntity
  8
2D$cuna$Interiores
100
AcDbVertex
100
AcDb2dVertex
 10
1075.443589860088
 20
853.1788376028378
 30
0.0000000000004243
  0
VERTEX
  5
8D
330
6B
100
AcDbEntity
  8
2D$cuna$Interiores
100
AcDbVertex
100
AcDb2dVertex
 10
1073.914510125034
 20
853.9383132989458
 30
0.0000000000004243
  0
VERTEX
  5
8E
330
6B
100
AcDbEntity
  8
2D$cuna$Interiores
100
AcDbVertex
100
AcDb2dVertex
 10
1072.360392465842
 20
854.6451417579917
 30
0.0000000000004243
  0
VERTEX
  5
8F
330
6B
100
AcDbEntity
  8
2D$cuna$Interiores
100
AcDbVertex
100
AcDb2dVertex
 10
1070.783048914183
 20
855.2984988496107
 30
0.0000000000004243
  0
VERTEX
  5
90
330
6B
100
AcDbEntity
  8
2D$cuna$Interiores
100
AcDbVertex
100
AcDb2dVertex
 10
1069.18431858208
 20
855.8976227886601
 30
0.0000000000004243
  0
VERTEX
  5
91
330
6B
100
AcDbEntity
  8
2D$cuna$Interiores
100
AcDbVertex
100
AcDb2dVertex
 10
1067.566065517584
 20
856.4418150234271
 30
0.0000000000004243
  0
VERTEX
  5
92
330
6B
100
AcDbEntity
  8
2D$cuna$Interiores
100
AcDbVertex
100
AcDb2dVertex
 10
1065.930176531381
 20
856.930441050109
 30
0.0000000000004243
  0
VERTEX
  5
93
330
6B
100
AcDbEntity
  8
2D$cuna$Interiores
100
AcDbVertex
100
AcDb2dVertex
 10
1064.278558996853
 20
857.3629311526162
 30
0.0000000000004243
  0
VERTEX
  5
94
330
6B
100
AcDbEntity
  8
2D$cuna$Interiores
100
AcDbVertex
100
AcDb2dVertex
 10
1062.613138626162
 20
857.7387810668353
 30
0.0000000000004243
  0
VERTEX
  5
95
330
6B
100
AcDbEntity
  8
2D$cuna$Interiores
100
AcDbVertex
100
AcDb2dVertex
 10
1060.935857224964
 20
858.057552568579
 30
0.0000000000004243
  0
VERTEX
  5
96
330
6B
100
AcDbEntity
  8
2D$cuna$Interiores
100
AcDbVertex
100
AcDb2dVertex
 10
1059.248670428343
 20
858.3188739845357
 30
0.0000000000004243
  0
VERTEX
  5
97
330
6B
100
AcDbEntity
  8
2D$cuna$Interiores
100
AcDbVertex
100
AcDb2dVertex
 10
1057.553545420632
 20
858.5224406256239
 30
0.0000000000004243
  0
VERTEX
  5
98
330
6B
100
AcDbEntity
  8
2D$cuna$Interiores
100
AcDbVertex
100
AcDb2dVertex
 10
1055.852458641764
 20
858.6680151422461
 30
0.0000000000004243
  0
VERTEX
  5
99
330
6B
100
AcDbEntity
  8
2D$cuna$Interiores
100
AcDbVertex
100
AcDb2dVertex
 10
1054.147393482829
 20
858.7554278010278
 30
0.0000000000004243
  0
VERTEX
  5
9A
330
6B
100
AcDbEntity
  8
2D$cuna$Interiores
100
AcDbVertex
100
AcDb2dVertex
 10
1052.44033797353
 20
858.7845766827191
 30
0.0000000000004243
  0
SEQEND
  5
9B
330
6B
100
AcDbEntity
  8
2D$cuna$Interiores
  0
POLYLINE
  5
9C
330
1F
100
AcDbEntity
  8
2D$cuna$Interiores
100
AcDb2dPolyline
 66
     1
 10
0.0
 20
0.0
 30
0.0000000000003411
  0
VERTEX
  5
9D
330
9C
100
AcDbEntity
  8
2D$cuna$Interiores
100
AcDbVertex
100
AcDb2dVertex
 10
1052.44033797353
 20
858.7845766827191
 30
0.0000000000003411
  0
VERTEX
  5
9E
330
9C
100
AcDbEntity
  8
2D$cuna$Interiores
100
AcDbVertex
100
AcDb2dVertex
 10
902.44033797353
 20
858.7845766827191
 30
0.0000000000003411
  0
SEQEND
  5
9F
330
9C
100
AcDbEntity
  8
2D$cuna$Interiores
  0
POLYLINE
  5
A0
330
1F
100
AcDbEntity
  8
2D$cuna$Interiores
100
AcDb2dPolyline
 66
     1
 10
0.0
 20
0.0
 30
0.0000000000001137
  0
VERTEX
  5
A1
330
A0
100
AcDbEntity
  8
2D$cuna$Interiores
100
AcDbVertex
100
AcDb2dVertex
 10
902.44033797353
 20
858.7845766827191
 30
0.0000000000001137
  0
VERTEX
  5
A2
330
A0
100
AcDbEntity
  8
2D$cuna$Interiores
100
AcDbVertex
100
AcDb2dVertex
 10
900.7332824642316
 20
858.7554278010278
 30
0.0000000000001137
  0
VERTEX
  5
A3
330
A0
100
AcDbEntity
  8
2D$cuna$Interiores
100
AcDbVertex
100
AcDb2dVertex
 10
899.0282173052964
 20
858.6680151422461
 30
0.0000000000001137
  0
VERTEX
  5
A4
330
A0
100
AcDbEntity
  8
2D$cuna$Interiores
100
AcDbVertex
100
AcDb2dVertex
 10
897.3271305264283
 20
858.5224406256239
 30
0.0000000000001137
  0
VERTEX
  5
A5
330
A0
100
AcDbEntity
  8
2D$cuna$Interiores
100
AcDbVertex
100
AcDb2dVertex
 10
895.6320055187176
 20
858.3188739845357
 30
0.0000000000001137
  0
VERTEX
  5
A6
330
A0
100
AcDbEntity
  8
2D$cuna$Interiores
100
AcDbVertex
100
AcDb2dVertex
 10
893.9448187220967
 20
858.057552568579
 30
0.0000000000001137
  0
VERTEX
  5
A7
330
A0
100
AcDbEntity
  8
2D$cuna$Interiores
100
AcDbVertex
100
AcDb2dVertex
 10
892.2675373208982
 20
857.7387810668353
 30
0.0000000000001137
  0
VERTEX
  5
A8
330
A0
100
AcDbEntity
  8
2D$cuna$Interiores
100
AcDbVertex
100
AcDb2dVertex
 10
890.6021169502076
 20
857.3629311526162
 30
0.0000000000001137
  0
VERTEX
  5
A9
330
A0
100
AcDbEntity
  8
2D$cuna$Interiores
100
AcDbVertex
100
AcDb2dVertex
 10
888.9504994156788
 20
856.9304410501092
 30
0.0000000000001137
  0
VERTEX
  5
AA
330
A0
100
AcDbEntity
  8
2D$cuna$Interiores
100
AcDbVertex
100
AcDb2dVertex
 10
887.3146104294761
 20
856.4418150234272
 30
0.0000000000001137
  0
VERTEX
  5
AB
330
A0
100
AcDbEntity
  8
2D$cuna$Interiores
100
AcDbVertex
100
AcDb2dVertex
 10
885.6963573649806
 20
855.8976227886602
 30
0.0000000000001137
  0
VERTEX
  5
AC
330
A0
100
AcDbEntity
  8
2D$cuna$Interiores
100
AcDbVertex
100
AcDb2dVertex
 10
884.0976270328771
 20
855.2984988496108
 30
0.0000000000001137
  0
VERTEX
  5
AD
330
A0
100
AcDbEntity
  8
2D$cuna$Interiores
100
AcDbVertex
100
AcDb2dVertex
 10
882.5202834812179
 20
854.6451417579918
 30
0.0000000000001137
  0
VERTEX
  5
AE
330
A0
100
AcDbEntity
  8
2D$cuna$Interiores
100
AcDbVertex
100
AcDb2dVertex
 10
880.9661658220259
 20
853.9383132989458
 30
0.0000000000001137
  0
VERTEX
  5
AF
330
A0
100
AcDbEntity
  8
2D$cuna$Interiores
100
AcDbVertex
100
AcDb2dVertex
 10
879.4370860869724
 20
853.1788376028379
 30
0.0000000000001137
  0
VERTEX
  5
B0
330
A0
100
AcDbEntity
  8
2D$cuna$Interiores
100
AcDbVertex
100
AcDb2dVertex
 10
877.9348271146291
 20
852.3676001843567
 30
0.0000000000001137
  0
VERTEX
  5
B1
330
A0
100
AcDbEntity
  8
2D$cuna$Interiores
100
AcDbVertex
100
AcDb2dVertex
 10
876.4611404717583
 20
851.5055469100436
 30
0.0000000000001137
  0
VERTEX
  5
B2
330
A0
100
AcDbEntity
  8
2D$cuna$Interiores
100
AcDbVertex
100
AcDb2dVertex
 10
875.017744411064
 20
850.5936828954547
 30
0.0000000000001137
  0
VERTEX
  5
B3
330
A0
100
AcDbEntity
  8
2D$cuna$Interiores
100
AcDbVertex
100
AcDb2dVertex
 10
873.6063218677866
 20
849.6330713332412
 30
0.0000000000001137
  0
VERTEX
  5
B4
330
A0
100
AcDbEntity
  8
2D$cuna$Interiores
100
AcDbVertex
100
AcDb2dVertex
 10
872.2285184974752
 20
848.6248322535143
 30
0.0000000000001137
  0
VERTEX
  5
B5
330
A0
100
AcDbEntity
  8
2D$cuna$Interiores
100
AcDbVertex
100
AcDb2dVertex
 10
870.8859407572273
 20
847.5701412179401
 30
0.0000000000001137
  0
VERTEX
  5
B6
330
A0
100
AcDbEntity
  8
2D$cuna$Interiores
100
AcDbVertex
100
AcDb2dVertex
 10
869.5801540326313
 20
846.4702279490872
 30
0.0000000000001137
  0
VERTEX
  5
B7
330
A0
100
AcDbEntity
  8
2D$cuna$Interiores
100
AcDbVertex
100
AcDb2dVertex
 10
868.3126808125973
 20
845.3263748966253
 30
0.0000000000001137
  0
VERTEX
  5
B8
330
A0
100
AcDbEntity
  8
2D$cuna$Interiores
100
AcDbVertex
100
AcDb2dVertex
 10
867.0849989142026
 20
844.1399157420465
 30
0.0000000000001137
  0
VERTEX
  5
B9
330
A0
100
AcDbEntity
  8
2D$cuna$Interiores
100
AcDbVertex
100
AcDb2dVertex
 10
865.8985397596238
 20
842.9122338436518
 30
0.0000000000001137
  0
VERTEX
  5
BA
330
A0
100
AcDbEntity
  8
2D$cuna$Interiores
100
AcDbVertex
100
AcDb2dVertex
 10
864.7546867071619
 20
841.6447606236178
 30
0.0000000000001137
  0
VERTEX
  5
BB
330
A0
100
AcDbEntity
  8
2D$cuna$Interiores
100
AcDbVertex
100
AcDb2dVertex
 10
863.654773438309
 20
840.3389738990218
 30
0.0000000000001137
  0
VERTEX
  5
BC
330
A0
100
AcDbEntity
  8
2D$cuna$Interiores
100
AcDbVertex
100
AcDb2dVertex
 10
862.6000824027348
 20
838.9963961587739
 30
0.0000000000001137
  0
VERTEX
  5
BD
330
A0
100
AcDbEntity
  8
2D$cuna$Interiores
100
AcDbVertex
100
AcDb2dVertex
 10
861.5918433230079
 20
837.6185927884625
 30
0.0000000000001137
  0
VERTEX
  5
BE
330
A0
100
AcDbEntity
  8
2D$cuna$Interiores
100
AcDbVertex
100
AcDb2dVertex
 10
860.6312317607944
 20
836.2071702451851
 30
0.0000000000001137
  0
VERTEX
  5
BF
330
A0
100
AcDbEntity
  8
2D$cuna$Interiores
100
AcDbVertex
100
AcDb2dVertex
 10
859.7193677462055
 20
834.7637741844908
 30
0.0000000000001137
  0
VERTEX
  5
C0
330
A0
100
AcDbEntity
  8
2D$cuna$Interiores
100
AcDbVertex
100
AcDb2dVertex
 10
858.8573144718924
 20
833.29008754162
 30
0.0000000000001137
  0
VERTEX
  5
C1
330
A0
100
AcDbEntity
  8
2D$cuna$Interiores
100
AcDbVertex
100
AcDb2dVertex
 10
858.0460770534112
 20
831.7878285692767
 30
0.0000000000001137
  0
VERTEX
  5
C2
330
A0
100
AcDbEntity
  8
2D$cuna$Interiores
100
AcDbVertex
100
AcDb2dVertex
 10
857.2866013573033
 20
830.2587488342233
 30
0.0000000000001137
  0
VERTEX
  5
C3
330
A0
100
AcDbEntity
  8
2D$cuna$Interiores
100
AcDbVertex
100
AcDb2dVertex
 10
856.5797728982573
 20
828.7046311750312
 30
0.0000000000001137
  0
VERTEX
  5
C4
330
A0
100
AcDbEntity
  8
2D$cuna$Interiores
100
AcDbVertex
100
AcDb2dVertex
 10
855.9264158066383
 20
827.127287623372
 30
0.0000000000001137
  0
VERTEX
  5
C5
330
A0
100
AcDbEntity
  8
2D$cuna$Interiores
100
AcDbVertex
100
AcDb2dVertex
 10
855.3272918675889
 20
825.5285572912685
 30
0.0000000000001137
  0
VERTEX
  5
C6
330
A0
100
AcDbEntity
  8
2D$cuna$Interiores
100
AcDbVertex
100
AcDb2dVertex
 10
854.7830996328219
 20
823.910304226773
 30
0.0000000000001137
  0
VERTEX
  5
C7
330
A0
100
AcDbEntity
  8
2D$cuna$Interiores
100
AcDbVertex
100
AcDb2dVertex
 10
854.29447360614
 20
822.2744152405703
 30
0.0000000000001137
  0
VERTEX
  5
C8
330
A0
100
AcDbEntity
  8
2D$cuna$Interiores
100
AcDbVertex
100
AcDb2dVertex
 10
853.8619835036329
 20
820.6227977060415
 30
0.0000000000001137
  0
VERTEX
  5
C9
330
A0
100
AcDbEntity
  8
2D$cuna$Interiores
100
AcDbVertex
100
AcDb2dVertex
 10
853.4861335894138
 20
818.9573773353509
 30
0.0000000000001137
  0
VERTEX
  5
CA
330
A0
100
AcDbEntity
  8
2D$cuna$Interiores
100
AcDbVertex
100
AcDb2dVertex
 10
853.1673620876701
 20
817.2800959341525
 30
0.0000000000001137
  0
VERTEX
  5
CB
330
A0
100
AcDbEntity
  8
2D$cuna$Interiores
100
AcDbVertex
100
AcDb2dVertex
 10
852.9060406717134
 20
815.5929091375315
 30
0.0000000000001137
  0
VERTEX
  5
CC
330
A0
100
AcDbEntity
  8
2D$cuna$Interiores
100
AcDbVertex
100
AcDb2dVertex
 10
852.7024740306252
 20
813.8977841298208
 30
0.0000000000001137
  0
VERTEX
  5
CD
330
A0
100
AcDbEntity
  8
2D$cuna$Interiores
100
AcDbVertex
100
AcDb2dVertex
 10
852.556899514003
 20
812.1966973509527
 30
0.0000000000001137
  0
VERTEX
  5
CE
330
A0
100
AcDbEntity
  8
2D$cuna$Interiores
100
AcDbVertex
100
AcDb2dVertex
 10
852.4694868552212
 20
810.4916321920175
 30
0.0000000000001137
  0
VERTEX
  5
CF
330
A0
100
AcDbEntity
  8
2D$cuna$Interiores
100
AcDbVertex
100
AcDb2dVertex
 10
852.44033797353
 20
808.7845766827191
 30
0.0000000000001137
  0
SEQEND
  5
D0
330
A0
100
AcDbEntity
  8
2D$cuna$Interiores
  0
POLYLINE
  5
D1
330
1F
100
AcDbEntity
  8
2D$cuna$Interiores
100
AcDb2dPolyline
 66
     1
 10
0.0
 20
0.0
 30
0.0
  0
VERTEX
  5
D2
330
D1
100
AcDbEntity
  8
2D$cuna$Interiores
100
AcDbVertex
100
AcDb2dVertex
 10
852.44033797353
 20
808.7845766827191
 30
0.0
  0
VERTEX
  5
D3
330
D1
100
AcDbEntity
  8
2D$cuna$Interiores
100
AcDbVertex
100
AcDb2dVertex
 10
852.4403379735302
 20
576.7845766827193
 30
0.0
  0
SEQEND
  5
D4
330
D1
100
AcDbEntity
  8
2D$cuna$Interiores
  0
POLYLINE
  5
D5
330
1F
100
AcDbEntity
  8
2D$cuna$Interiores
100
AcDb2dPolyline
 66
     1
 10
0.0
 20
0.0
 30
0.0000000000000304
  0
VERTEX
  5
D6
330
D5
100
AcDbEntity
  8
2D$cuna$Interiores
100
AcDbVertex
100
AcDb2dVertex
 10
852.4403379735302
 20
576.7845766827191
 30
0.0000000000000304
  0
VERTEX
  5
D7
330
D5
100
AcDbEntity
  8
2D$cuna$Interiores
100
AcDbVertex
100
AcDb2dVertex
 10
852.4694868552215
 20
575.0775211734208
 30
0.0000000000000304
  0
VERTEX
  5
D8
330
D5
100
AcDbEntity
  8
2D$cuna$Interiores
100
AcDbVertex
100
AcDb2dVertex
 10
852.5568995140032
 20
573.3724560144856
 30
0.0000000000000304
  0
VERTEX
  5
D9
330
D5
100
AcDbEntity
  8
2D$cuna$Interiores
100
AcDbVertex
100
AcDb2dVertex
 10
852.7024740306255
 20
571.6713692356175
 30
0.0000000000000304
  0
VERTEX
  5
DA
330
D5
100
AcDbEntity
  8
2D$cuna$Interiores
100
AcDbVertex
100
AcDb2dVertex
 10
852.9060406717136
 20
569.9762442279068
 30
0.0000000000000304
  0
VERTEX
  5
DB
330
D5
100
AcDbEntity
  8
2D$cuna$Interiores
100
AcDbVertex
100
AcDb2dVertex
 10
853.1673620876703
 20
568.2890574312858
 30
0.0000000000000304
  0
VERTEX
  5
DC
330
D5
100
AcDbEntity
  8
2D$cuna$Interiores
100
AcDbVertex
100
AcDb2dVertex
 10
853.4861335894141
 20
566.6117760300874
 30
0.0000000000000304
  0
VERTEX
  5
DD
330
D5
100
AcDbEntity
  8
2D$cuna$Interiores
100
AcDbVertex
100
AcDb2dVertex
 10
853.8619835036332
 20
564.9463556593968
 30
0.0000000000000304
  0
VERTEX
  5
DE
330
D5
100
AcDbEntity
  8
2D$cuna$Interiores
100
AcDbVertex
100
AcDb2dVertex
 10
854.2944736061402
 20
563.2947381248679
 30
0.0000000000000304
  0
VERTEX
  5
DF
330
D5
100
AcDbEntity
  8
2D$cuna$Interiores
100
AcDbVertex
100
AcDb2dVertex
 10
854.7830996328221
 20
561.6588491386653
 30
0.0000000000000304
  0
VERTEX
  5
E0
330
D5
100
AcDbEntity
  8
2D$cuna$Interiores
100
AcDbVertex
100
AcDb2dVertex
 10
855.3272918675891
 20
560.0405960741698
 30
0.0000000000000304
  0
VERTEX
  5
E1
330
D5
100
AcDbEntity
  8
2D$cuna$Interiores
100
AcDbVertex
100
AcDb2dVertex
 10
855.9264158066385
 20
558.4418657420663
 30
0.0000000000000304
  0
VERTEX
  5
E2
330
D5
100
AcDbEntity
  8
2D$cuna$Interiores
100
AcDbVertex
100
AcDb2dVertex
 10
856.5797728982575
 20
556.8645221904071
 30
0.0000000000000304
  0
VERTEX
  5
E3
330
D5
100
AcDbEntity
  8
2D$cuna$Interiores
100
AcDbVertex
100
AcDb2dVertex
 10
857.2866013573035
 20
555.310404531215
 30
0.0000000000000304
  0
VERTEX
  5
E4
330
D5
100
AcDbEntity
  8
2D$cuna$Interiores
100
AcDbVertex
100
AcDb2dVertex
 10
858.0460770534114
 20
553.7813247961616
 30
0.0000000000000304
  0
VERTEX
  5
E5
330
D5
100
AcDbEntity
  8
2D$cuna$Interiores
100
AcDbVertex
100
AcDb2dVertex
 10
858.8573144718927
 20
552.2790658238183
 30
0.0000000000000304
  0
VERTEX
  5
E6
330
D5
100
AcDbEntity
  8
2D$cuna$Interiores
100
AcDbVertex
100
AcDb2dVertex
 10
859.7193677462058
 20
550.8053791809475
 30
0.0000000000000304
  0
VERTEX
  5
E7
330
D5
100
AcDbEntity
  8
2D$cuna$Interiores
100
AcDbVertex
100
AcDb2dVertex
 10
860.6312317607947
 20
549.3619831202532
 30
0.0000000000000304
  0
VERTEX
  5
E8
330
D5
100
AcDbEntity
  8
2D$cuna$Interiores
100
AcDbVertex
100
AcDb2dVertex
 10
861.5918433230081
 20
547.9505605769758
 30
0.0000000000000304
  0
VERTEX
  5
E9
330
D5
100
AcDbEntity
  8
2D$cuna$Interiores
100
AcDbVertex
100
AcDb2dVertex
 10
862.600082402735
 20
546.5727572066644
 30
0.0000000000000304
  0
VERTEX
  5
EA
330
D5
100
AcDbEntity
  8
2D$cuna$Interiores
100
AcDbVertex
100
AcDb2dVertex
 10
863.6547734383092
 20
545.2301794664165
 30
0.0000000000000304
  0
VERTEX
  5
EB
330
D5
100
AcDbEntity
  8
2D$cuna$Interiores
100
AcDbVertex
100
AcDb2dVertex
 10
864.7546867071621
 20
543.9243927418205
 30
0.0000000000000304
  0
VERTEX
  5
EC
330
D5
100
AcDbEntity
  8
2D$cuna$Interiores
100
AcDbVertex
100
AcDb2dVertex
 10
865.898539759624
 20
542.6569195217864
 30
0.0000000000000304
  0
VERTEX
  5
ED
330
D5
100
AcDbEntity
  8
2D$cuna$Interiores
100
AcDbVertex
100
AcDb2dVertex
 10
867.0849989142029
 20
541.4292376233917
 30
0.0000000000000304
  0
VERTEX
  5
EE
330
D5
100
AcDbEntity
  8
2D$cuna$Interiores
100
AcDbVertex
100
AcDb2dVertex
 10
868.3126808125975
 20
540.242778468813
 30
0.0000000000000304
  0
VERTEX
  5
EF
330
D5
100
AcDbEntity
  8
2D$cuna$Interiores
100
AcDbVertex
100
AcDb2dVertex
 10
869.5801540326315
 20
539.0989254163511
 30
0.0000000000000304
  0
VERTEX
  5
F0
330
D5
100
AcDbEntity
  8
2D$cuna$Interiores
100
AcDbVertex
100
AcDb2dVertex
 10
870.8859407572276
 20
537.9990121474982
 30
0.0000000000000304
  0
VERTEX
  5
F1
330
D5
100
AcDbEntity
  8
2D$cuna$Interiores
100
AcDbVertex
100
AcDb2dVertex
 10
872.2285184974754
 20
536.944321111924
 30
0.0000000000000304
  0
VERTEX
  5
F2
330
D5
100
AcDbEntity
  8
2D$cuna$Interiores
100
AcDbVertex
100
AcDb2dVertex
 10
873.6063218677868
 20
535.9360820321971
 30
0.0000000000000304
  0
VERTEX
  5
F3
330
D5
100
AcDbEntity
  8
2D$cuna$Interiores
100
AcDbVertex
100
AcDb2dVertex
 10
875.0177444110643
 20
534.9754704699836
 30
0.0000000000000304
  0
VERTEX
  5
F4
330
D5
100
AcDbEntity
  8
2D$cuna$Interiores
100
AcDbVertex
100
AcDb2dVertex
 10
876.4611404717585
 20
534.0636064553947
 30
0.0000000000000304
  0
VERTEX
  5
F5
330
D5
100
AcDbEntity
  8
2D$cuna$Interiores
100
AcDbVertex
100
AcDb2dVertex
 10
877.9348271146293
 20
533.2015531810815
 30
0.0000000000000304
  0
VERTEX
  5
F6
330
D5
100
AcDbEntity
  8
2D$cuna$Interiores
100
AcDbVertex
100
AcDb2dVertex
 10
879.4370860869726
 20
532.3903157626004
 30
0.0000000000000304
  0
VERTEX
  5
F7
330
D5
100
AcDbEntity
  8
2D$cuna$Interiores
100
AcDbVertex
100
AcDb2dVertex
 10
880.9661658220261
 20
531.6308400664925
 30
0.0000000000000304
  0
VERTEX
  5
F8
330
D5
100
AcDbEntity
  8
2D$cuna$Interiores
100
AcDbVertex
100
AcDb2dVertex
 10
882.5202834812181
 20
530.9240116074465
 30
0.0000000000000304
  0
VERTEX
  5
F9
330
D5
100
AcDbEntity
  8
2D$cuna$Interiores
100
AcDbVertex
100
AcDb2dVertex
 10
884.0976270328774
 20
530.2706545158275
 30
0.0000000000000304
  0
VERTEX
  5
FA
330
D5
100
AcDbEntity
  8
2D$cuna$Interiores
100
AcDbVertex
100
AcDb2dVertex
 10
885.6963573649809
 20
529.6715305767781
 30
0.0000000000000304
  0
VERTEX
  5
FB
330
D5
100
AcDbEntity
  8
2D$cuna$Interiores
100
AcDbVertex
100
AcDb2dVertex
 10
887.3146104294764
 20
529.1273383420111
 30
0.0000000000000304
  0
VERTEX
  5
FC
330
D5
100
AcDbEntity
  8
2D$cuna$Interiores
100
AcDbVertex
100
AcDb2dVertex
 10
888.950499415679
 20
528.6387123153291
 30
0.0000000000000304
  0
VERTEX
  5
FD
330
D5
100
AcDbEntity
  8
2D$cuna$Interiores
100
AcDbVertex
100
AcDb2dVertex
 10
890.6021169502079
 20
528.206222212822
 30
0.0000000000000304
  0
VERTEX
  5
FE
330
D5
100
AcDbEntity
  8
2D$cuna$Interiores
100
AcDbVertex
100
AcDb2dVertex
 10
892.2675373208986
 20
527.830372298603
 30
0.0000000000000304
  0
VERTEX
  5
FF
330
D5
100
AcDbEntity
  8
2D$cuna$Interiores
100
AcDbVertex
100
AcDb2dVertex
 10
893.9448187220969
 20
527.5116007968593
 30
0.0000000000000304
  0
VERTEX
  5
100
330
D5
100
AcDbEntity
  8
2D$cuna$Interiores
100
AcDbVertex
100
AcDb2dVertex
 10
895.6320055187178
 20
527.2502793809026
 30
0.0000000000000304
  0
VERTEX
  5
101
330
D5
100
AcDbEntity
  8
2D$cuna$Interiores
100
AcDbVertex
100
AcDb2dVertex
 10
897.3271305264285
 20
527.0467127398144
 30
0.0000000000000304
  0
VERTEX
  5
102
330
D5
100
AcDbEntity
  8
2D$cuna$Interiores
100
AcDbVertex
100
AcDb2dVertex
 10
899.0282173052967
 20
526.9011382231922
 30
0.0000000000000304
  0
VERTEX
  5
103
330
D5
100
AcDbEntity
  8
2D$cuna$Interiores
100
AcDbVertex
100
AcDb2dVertex
 10
900.7332824642318
 20
526.8137255644104
 30
0.0000000000000304
  0
VERTEX
  5
104
330
D5
100
AcDbEntity
  8
2D$cuna$Interiores
100
AcDbVertex
100
AcDb2dVertex
 10
902.4403379735302
 20
526.7845766827191
 30
0.0000000000000304
  0
SEQEND
  5
105
330
D5
100
AcDbEntity
  8
2D$cuna$Interiores
  0
POLYLINE
  5
106
330
1F
100
AcDbEntity
  8
2D$cuna$Interiores
100
AcDb2dPolyline
 66
     1
 10
0.0
 20
0.0
 30
0.0000000000001137
  0
VERTEX
  5
107
330
106
100
AcDbEntity
  8
2D$cuna$Interiores
100
AcDbVertex
100
AcDb2dVertex
 10
902.4403379735302
 20
526.7845766827191
 30
0.0000000000001137
  0
VERTEX
  5
108
330
106
100
AcDbEntity
  8
2D$cuna$Interiores
100
AcDbVertex
100
AcDb2dVertex
 10
1052.44033797353
 20
526.7845766827191
 30
0.0000000000001137
  0
SEQEND
  5
109
330
106
100
AcDbEntity
  8
2D$cuna$Interiores
  0
POLYLINE
  5
10A
330
1F
100
AcDbEntity
  8
2D$cuna$Interiores
100
AcDb2dPolyline
 66
     1
 10
0.0
 20
0.0
 30
0.0000000000003411
  0
VERTEX
  5
10B
330
10A
100
AcDbEntity
  8
2D$cuna$Interiores
100
AcDbVertex
100
AcDb2dVertex
 10
1052.44033797353
 20
526.7845766827191
 30
0.0000000000003411
  0
VERTEX
  5
10C
330
10A
100
AcDbEntity
  8
2D$cuna$Interiores
100
AcDbVertex
100
AcDb2dVertex
 10
1054.147393482828
 20
526.8137255644104
 30
0.0000000000003411
  0
VERTEX
  5
10D
330
10A
100
AcDbEntity
  8
2D$cuna$Interiores
100
AcDbVertex
100
AcDb2dVertex
 10
1055.852458641763
 20
526.9011382231922
 30
0.0000000000003411
  0
VERTEX
  5
10E
330
10A
100
AcDbEntity
  8
2D$cuna$Interiores
100
AcDbVertex
100
AcDb2dVertex
 10
1057.553545420632
 20
527.0467127398144
 30
0.0000000000003411
  0
VERTEX
  5
10F
330
10A
100
AcDbEntity
  8
2D$cuna$Interiores
100
AcDbVertex
100
AcDb2dVertex
 10
1059.248670428342
 20
527.2502793809026
 30
0.0000000000003411
  0
VERTEX
  5
110
330
10A
100
AcDbEntity
  8
2D$cuna$Interiores
100
AcDbVertex
100
AcDb2dVertex
 10
1060.935857224963
 20
527.5116007968593
 30
0.0000000000003411
  0
VERTEX
  5
111
330
10A
100
AcDbEntity
  8
2D$cuna$Interiores
100
AcDbVertex
100
AcDb2dVertex
 10
1062.613138626162
 20
527.830372298603
 30
0.0000000000003411
  0
VERTEX
  5
112
330
10A
100
AcDbEntity
  8
2D$cuna$Interiores
100
AcDbVertex
100
AcDb2dVertex
 10
1064.278558996852
 20
528.2062222128221
 30
0.0000000000003411
  0
VERTEX
  5
113
330
10A
100
AcDbEntity
  8
2D$cuna$Interiores
100
AcDbVertex
100
AcDb2dVertex
 10
1065.930176531381
 20
528.6387123153293
 30
0.0000000000003411
  0
VERTEX
  5
114
330
10A
100
AcDbEntity
  8
2D$cuna$Interiores
100
AcDbVertex
100
AcDb2dVertex
 10
1067.566065517584
 20
529.1273383420112
 30
0.0000000000003411
  0
VERTEX
  5
115
330
10A
100
AcDbEntity
  8
2D$cuna$Interiores
100
AcDbVertex
100
AcDb2dVertex
 10
1069.184318582079
 20
529.6715305767781
 30
0.0000000000003411
  0
VERTEX
  5
116
330
10A
100
AcDbEntity
  8
2D$cuna$Interiores
100
AcDbVertex
100
AcDb2dVertex
 10
1070.783048914183
 20
530.2706545158275
 30
0.0000000000003411
  0
VERTEX
  5
117
330
10A
100
AcDbEntity
  8
2D$cuna$Interiores
100
AcDbVertex
100
AcDb2dVertex
 10
1072.360392465842
 20
530.9240116074465
 30
0.0000000000003411
  0
VERTEX
  5
118
330
10A
100
AcDbEntity
  8
2D$cuna$Interiores
100
AcDbVertex
100
AcDb2dVertex
 10
1073.914510125034
 20
531.6308400664924
 30
0.0000000000003411
  0
VERTEX
  5
119
330
10A
100
AcDbEntity
  8
2D$cuna$Interiores
100
AcDbVertex
100
AcDb2dVertex
 10
1075.443589860088
 20
532.3903157626004
 30
0.0000000000003411
  0
VERTEX
  5
11A
330
10A
100
AcDbEntity
  8
2D$cuna$Interiores
100
AcDbVertex
100
AcDb2dVertex
 10
1076.945848832431
 20
533.2015531810815
 30
0.0000000000003411
  0
VERTEX
  5
11B
330
10A
100
AcDbEntity
  8
2D$cuna$Interiores
100
AcDbVertex
100
AcDb2dVertex
 10
1078.419535475302
 20
534.0636064553947
 30
0.0000000000003411
  0
VERTEX
  5
11C
330
10A
100
AcDbEntity
  8
2D$cuna$Interiores
100
AcDbVertex
100
AcDb2dVertex
 10
1079.862931535996
 20
534.9754704699836
 30
0.0000000000003411
  0
VERTEX
  5
11D
330
10A
100
AcDbEntity
  8
2D$cuna$Interiores
100
AcDbVertex
100
AcDb2dVertex
 10
1081.274354079274
 20
535.9360820321971
 30
0.0000000000003411
  0
VERTEX
  5
11E
330
10A
100
AcDbEntity
  8
2D$cuna$Interiores
100
AcDbVertex
100
AcDb2dVertex
 10
1082.652157449585
 20
536.944321111924
 30
0.0000000000003411
  0
VERTEX
  5
11F
330
10A
100
AcDbEntity
  8
2D$cuna$Interiores
100
AcDbVertex
100
AcDb2dVertex
 10
1083.994735189833
 20
537.9990121474982
 30
0.0000000000003411
  0
VERTEX
  5
120
330
10A
100
AcDbEntity
  8
2D$cuna$Interiores
100
AcDbVertex
100
AcDb2dVertex
 10
1085.300521914429
 20
539.0989254163511
 30
0.0000000000003411
  0
VERTEX
  5
121
330
10A
100
AcDbEntity
  8
2D$cuna$Interiores
100
AcDbVertex
100
AcDb2dVertex
 10
1086.567995134463
 20
540.242778468813
 30
0.0000000000003411
  0
VERTEX
  5
122
330
10A
100
AcDbEntity
  8
2D$cuna$Interiores
100
AcDbVertex
100
AcDb2dVertex
 10
1087.795677032857
 20
541.4292376233918
 30
0.0000000000003411
  0
VERTEX
  5
123
330
10A
100
AcDbEntity
  8
2D$cuna$Interiores
100
AcDbVertex
100
AcDb2dVertex
 10
1088.982136187436
 20
542.6569195217864
 30
0.0000000000003411
  0
VERTEX
  5
124
330
10A
100
AcDbEntity
  8
2D$cuna$Interiores
100
AcDbVertex
100
AcDb2dVertex
 10
1090.125989239898
 20
543.9243927418206
 30
0.0000000000003411
  0
VERTEX
  5
125
330
10A
100
AcDbEntity
  8
2D$cuna$Interiores
100
AcDbVertex
100
AcDb2dVertex
 10
1091.225902508751
 20
545.2301794664166
 30
0.0000000000003411
  0
VERTEX
  5
126
330
10A
100
AcDbEntity
  8
2D$cuna$Interiores
100
AcDbVertex
100
AcDb2dVertex
 10
1092.280593544325
 20
546.5727572066645
 30
0.0000000000003411
  0
VERTEX
  5
127
330
10A
100
AcDbEntity
  8
2D$cuna$Interiores
100
AcDbVertex
100
AcDb2dVertex
 10
1093.288832624052
 20
547.9505605769759
 30
0.0000000000003411
  0
VERTEX
  5
128
330
10A
100
AcDbEntity
  8
2D$cuna$Interiores
100
AcDbVertex
100
AcDb2dVertex
 10
1094.249444186266
 20
549.3619831202533
 30
0.0000000000003411
  0
VERTEX
  5
129
330
10A
100
AcDbEntity
  8
2D$cuna$Interiores
100
AcDbVertex
100
AcDb2dVertex
 10
1095.161308200855
 20
550.8053791809476
 30
0.0000000000003411
  0
VERTEX
  5
12A
330
10A
100
AcDbEntity
  8
2D$cuna$Interiores
100
AcDbVertex
100
AcDb2dVertex
 10
1096.023361475168
 20
552.2790658238184
 30
0.0000000000003411
  0
VERTEX
  5
12B
330
10A
100
AcDbEntity
  8
2D$cuna$Interiores
100
AcDbVertex
100
AcDb2dVertex
 10
1096.834598893649
 20
553.7813247961617
 30
0.0000000000003411
  0
VERTEX
  5
12C
330
10A
100
AcDbEntity
  8
2D$cuna$Interiores
100
AcDbVertex
100
AcDb2dVertex
 10
1097.594074589757
 20
555.3104045312152
 30
0.0000000000003411
  0
VERTEX
  5
12D
330
10A
100
AcDbEntity
  8
2D$cuna$Interiores
100
AcDbVertex
100
AcDb2dVertex
 10
1098.300903048803
 20
556.8645221904072
 30
0.0000000000003411
  0
VERTEX
  5
12E
330
10A
100
AcDbEntity
  8
2D$cuna$Interiores
100
AcDbVertex
100
AcDb2dVertex
 10
1098.954260140422
 20
558.4418657420665
 30
0.0000000000003411
  0
VERTEX
  5
12F
330
10A
100
AcDbEntity
  8
2D$cuna$Interiores
100
AcDbVertex
100
AcDb2dVertex
 10
1099.553384079471
 20
560.04059607417
 30
0.0000000000003411
  0
VERTEX
  5
130
330
10A
100
AcDbEntity
  8
2D$cuna$Interiores
100
AcDbVertex
100
AcDb2dVertex
 10
1100.097576314238
 20
561.6588491386656
 30
0.0000000000003411
  0
VERTEX
  5
131
330
10A
100
AcDbEntity
  8
2D$cuna$Interiores
100
AcDbVertex
100
AcDb2dVertex
 10
1100.58620234092
 20
563.2947381248682
 30
0.0000000000003411
  0
VERTEX
  5
132
330
10A
100
AcDbEntity
  8
2D$cuna$Interiores
100
AcDbVertex
100
AcDb2dVertex
 10
1101.018692443427
 20
564.946355659397
 30
0.0000000000003411
  0
VERTEX
  5
133
330
10A
100
AcDbEntity
  8
2D$cuna$Interiores
100
AcDbVertex
100
AcDb2dVertex
 10
1101.394542357647
 20
566.6117760300878
 30
0.0000000000003411
  0
VERTEX
  5
134
330
10A
100
AcDbEntity
  8
2D$cuna$Interiores
100
AcDbVertex
100
AcDb2dVertex
 10
1101.71331385939
 20
568.2890574312861
 30
0.0000000000003411
  0
VERTEX
  5
135
330
10A
100
AcDbEntity
  8
2D$cuna$Interiores
100
AcDbVertex
100
AcDb2dVertex
 10
1101.974635275347
 20
569.976244227907
 30
0.0000000000003411
  0
VERTEX
  5
136
330
10A
100
AcDbEntity
  8
2D$cuna$Interiores
100
AcDbVertex
100
AcDb2dVertex
 10
1102.178201916435
 20
571.6713692356177
 30
0.0000000000003411
  0
VERTEX
  5
137
330
10A
100
AcDbEntity
  8
2D$cuna$Interiores
100
AcDbVertex
100
AcDb2dVertex
 10
1102.323776433057
 20
573.3724560144859
 30
0.0000000000003411
  0
VERTEX
  5
138
330
10A
100
AcDbEntity
  8
2D$cuna$Interiores
100
AcDbVertex
100
AcDb2dVertex
 10
1102.411189091839
 20
575.077521173421
 30
0.0000000000003411
  0
VERTEX
  5
139
330
10A
100
AcDbEntity
  8
2D$cuna$Interiores
100
AcDbVertex
100
AcDb2dVertex
 10
1102.44033797353
 20
576.784576682719
 30
0.0000000000003411
  0
SEQEND
  5
13A
330
10A
100
AcDbEntity
  8
2D$cuna$Interiores
  0
POLYLINE
  5
13B
330
1F
100
AcDbEntity
  8
2D$cuna$Interiores
100
AcDb2dPolyline
 66
     1
 10
0.0
 20
0.0
 30
0.0000000000005684
  0
VERTEX
  5
13C
330
13B
100
AcDbEntity
  8
2D$cuna$Interiores
100
AcDbVertex
100
AcDb2dVertex
 10
1167.44033797353
 20
567.7845766827191
 30
0.0000000000005684
  0
VERTEX
  5
13D
330
13B
100
AcDbEntity
  8
2D$cuna$Interiores
100
AcDbVertex
100
AcDb2dVertex
 10
1192.44033797353
 20
567.7845766827191
 30
0.0000000000005684
  0
VERTEX
  5
13E
330
13B
100
AcDbEntity
  8
2D$cuna$Interiores
100
AcDbVertex
100
AcDb2dVertex
 10
1192.44033797353
 20
617.7845766827191
 30
0.0000000000005684
  0
VERTEX
  5
13F
330
13B
100
AcDbEntity
  8
2D$cuna$Interiores
100
AcDbVertex
100
AcDb2dVertex
 10
1167.44033797353
 20
617.7845766827191
 30
0.0000000000005684
  0
VERTEX
  5
140
330
13B
100
AcDbEntity
  8
2D$cuna$Interiores
100
AcDbVertex
100
AcDb2dVertex
 10
1167.44033797353
 20
567.7845766827191
 30
0.0000000000005684
  0
SEQEND
  5
141
330
13B
100
AcDbEntity
  8
2D$cuna$Interiores
  0
POLYLINE
  5
142
330
1F
100
AcDbEntity
  8
2D$cuna$Interiores
100
AcDb2dPolyline
 66
     1
 10
0.0
 20
0.0
 30
0.0000000000005684
  0
VERTEX
  5
143
330
142
100
AcDbEntity
  8
2D$cuna$Interiores
100
AcDbVertex
100
AcDb2dVertex
 10
1167.44033797353
 20
767.7845766827191
 30
0.0000000000005684
  0
VERTEX
  5
144
330
142
100
AcDbEntity
  8
2D$cuna$Interiores
100
AcDbVertex
100
AcDb2dVertex
 10
1192.44033797353
 20
767.7845766827191
 30
0.0000000000005684
  0
VERTEX
  5
145
330
142
100
AcDbEntity
  8
2D$cuna$Interiores
100
AcDbVertex
100
AcDb2dVertex
 10
1192.44033797353
 20
817.7845766827191
 30
0.0000000000005684
  0
VERTEX
  5
146
330
142
100
AcDbEntity
  8
2D$cuna$Interiores
100
AcDbVertex
100
AcDb2dVertex
 10
1167.44033797353
 20
817.7845766827191
 30
0.0000000000005684
  0
VERTEX
  5
147
330
142
100
AcDbEntity
  8
2D$cuna$Interiores
100
AcDbVertex
100
AcDb2dVertex
 10
1167.44033797353
 20
767.7845766827191
 30
0.0000000000005684
  0
SEQEND
  5
148
330
142
100
AcDbEntity
  8
2D$cuna$Interiores
  0
POLYLINE
  5
149
330
1F
100
AcDbEntity
  8
2D$cuna$Interiores
100
AcDb2dPolyline
 66
     1
 10
0.0
 20
0.0
 30
0.0000000000005684
  0
VERTEX
  5
14A
330
149
100
AcDbEntity
  8
2D$cuna$Interiores
100
AcDbVertex
100
AcDb2dVertex
 10
1167.44033797353
 20
667.7845766827191
 30
0.0000000000005684
  0
VERTEX
  5
14B
330
149
100
AcDbEntity
  8
2D$cuna$Interiores
100
AcDbVertex
100
AcDb2dVertex
 10
1192.44033797353
 20
667.7845766827191
 30
0.0000000000005684
  0
VERTEX
  5
14C
330
149
100
AcDbEntity
  8
2D$cuna$Interiores
100
AcDbVertex
100
AcDb2dVertex
 10
1192.44033797353
 20
717.7845766827191
 30
0.0000000000005684
  0
VERTEX
  5
14D
330
149
100
AcDbEntity
  8
2D$cuna$Interiores
100
AcDbVertex
100
AcDb2dVertex
 10
1167.44033797353
 20
717.7845766827191
 30
0.0000000000005684
  0
VERTEX
  5
14E
330
149
100
AcDbEntity
  8
2D$cuna$Interiores
100
AcDbVertex
100
AcDb2dVertex
 10
1167.44033797353
 20
667.7845766827191
 30
0.0000000000005684
  0
SEQEND
  5
14F
330
149
100
AcDbEntity
  8
2D$cuna$Interiores
  0
POLYLINE
  5
151
330
1F
100
AcDbEntity
  8
2D$cuna$rebaje 5mm
100
AcDb2dPolyline
 66
     1
 10
0.0
 20
0.0
 30
0.0
  0
VERTEX
  5
152
330
151
100
AcDbEntity
  8
2D$cuna$rebaje 5mm
100
AcDbVertex
100
AcDb2dVertex
 10
-0.0000000000003411
 20
521.5175984338853
 30
0.0
  0
VERTEX
  5
153
330
151
100
AcDbEntity
  8
2D$cuna$rebaje 5mm
100
AcDbVertex
100
AcDb2dVertex
 10
723.9999999999997
 20
521.5175984338852
 30
0.0
  0
VERTEX
  5
154
330
151
100
AcDbEntity
  8
2D$cuna$rebaje 5mm
100
AcDbVertex
100
AcDb2dVertex
 10
723.9999999999997
 20
546.5175984338852
 30
0.0
  0
VERTEX
  5
155
330
151
100
AcDbEntity
  8
2D$cuna$rebaje 5mm
100
AcDbVertex
100
AcDb2dVertex
 10
-0.0000000000003411
 20
546.5175984338853
 30
0.0
  0
VERTEX
  5
156
330
151
100
AcDbEntity
  8
2D$cuna$rebaje 5mm
100
AcDbVertex
100
AcDb2dVertex
 10
-0.0000000000003411
 20
521.5175984338853
 30
0.0
  0
SEQEND
  5
157
330
151
100
AcDbEntity
  8
2D$cuna$rebaje 5mm
  0
POLYLINE
  5
158
330
1F
100
AcDbEntity
  8
2D$cuna$rebaje 5mm
100
AcDb2dPolyline
 66
     1
 10
0.0
 20
0.0
 30
-0.0734818749126305
  0
VERTEX
  5
159
330
158
100
AcDbEntity
  8
2D$cuna$rebaje 5mm
100
AcDbVertex
100
AcDb2dVertex
 10
273.530755615554
 20
627.1545863994577
 30
-0.0734818749126305
  0
VERTEX
  5
15A
330
158
100
AcDbEntity
  8
2D$cuna$rebaje 5mm
100
AcDbVertex
100
AcDb2dVertex
 10
325.9671940902306
 20
627.1545863994577
 30
-0.0734818749126305
  0
SEQEND
  5
15B
330
158
100
AcDbEntity
  8
2D$cuna$rebaje 5mm
  0
POLYLINE
  5
15C
330
1F
100
AcDbEntity
  8
2D$cuna$rebaje 5mm
100
AcDb2dPolyline
 66
     1
 10
0.0
 20
0.0
 30
-0.0734818749126873
  0
VERTEX
  5
15D
330
15C
100
AcDbEntity
  8
2D$cuna$rebaje 5mm
100
AcDbVertex
100
AcDb2dVertex
 10
325.9671940902306
 20
627.1545863994577
 30
-0.0734818749126873
  0
VERTEX
  5
15E
330
15C
100
AcDbEntity
  8
2D$cuna$rebaje 5mm
100
AcDbVertex
100
AcDb2dVertex
 10
314.7488509330579
 20
596.2123467892259
 30
-0.0734818749126873
  0
SEQEND
  5
15F
330
15C
100
AcDbEntity
  8
2D$cuna$rebaje 5mm
  0
POLYLINE
  5
160
330
1F
100
AcDbEntity
  8
2D$cuna$rebaje 5mm
100
AcDb2dPolyline
 66
     1
 10
0.0
 20
0.0
 30
-0.0734818749126857
  0
VERTEX
  5
161
330
160
100
AcDbEntity
  8
2D$cuna$rebaje 5mm
100
AcDbVertex
100
AcDb2dVertex
 10
314.7488509330579
 20
596.2123467892259
 30
-0.0734818749126857
  0
VERTEX
  5
162
330
160
100
AcDbEntity
  8
2D$cuna$rebaje 5mm
100
AcDbVertex
100
AcDb2dVertex
 10
314.7419767628284
 20
595.6932332278294
 30
-0.0734818749126857
  0
VERTEX
  5
163
330
160
100
AcDbEntity
  8
2D$cuna$rebaje 5mm
100
AcDbVertex
100
AcDb2dVertex
 10
314.7171425659792
 20
595.1746684714982
 30
-0.0734818749126857
  0
VERTEX
  5
164
330
160
100
AcDbEntity
  8
2D$cuna$rebaje 5mm
100
AcDbVertex
100
AcDb2dVertex
 10
314.6743780912453
 20
594.6572737058282
 30
-0.0734818749126857
  0
VERTEX
  5
165
330
160
100
AcDbEntity
  8
2D$cuna$rebaje 5mm
100
AcDbVertex
100
AcDb2dVertex
 10
314.613734565933
 20
594.1416687148907
 30
-0.0734818749126857
  0
VERTEX
  5
166
330
160
100
AcDbEntity
  8
2D$cuna$rebaje 5mm
100
AcDbVertex
100
AcDb2dVertex
 10
314.5352846345558
 20
593.6284711387964
 30
-0.0734818749126857
  0
VERTEX
  5
167
330
160
100
AcDbEntity
  8
2D$cuna$rebaje 5mm
100
AcDbVertex
100
AcDb2dVertex
 10
314.4391222718138
 20
593.1182957338287
 30
-0.0734818749126857
  0
VERTEX
  5
168
330
160
100
AcDbEntity
  8
2D$cuna$rebaje 5mm
100
AcDbVertex
100
AcDb2dVertex
 10
314.3253626700215
 20
592.6117536360304
 30
-0.0734818749126857
  0
VERTEX
  5
169
330
160
100
AcDbEntity
  8
2D$cuna$rebaje 5mm
100
AcDbVertex
100
AcDb2dVertex
 10
314.1941421011204
 20
592.1094516291269
 30
-0.0734818749126857
  0
VERTEX
  5
16A
330
160
100
AcDbEntity
  8
2D$cuna$rebaje 5mm
100
AcDbVertex
100
AcDb2dVertex
 10
314.045617753439
 20
591.6119914176649
 30
-0.0734818749126857
  0
VERTEX
  5
16B
330
160
100
AcDbEntity
  8
2D$cuna$rebaje 5mm
100
AcDbVertex
100
AcDb2dVertex
 10
313.8799675433982
 20
591.1199689062332
 30
-0.0734818749126857
  0
VERTEX
  5
16C
330
160
100
AcDbEntity
  8
2D$cuna$rebaje 5mm
100
AcDbVertex
100
AcDb2dVertex
 10
313.6973899023861
 20
590.6339734856329
 30
-0.0734818749126857
  0
VERTEX
  5
16D
330
160
100
AcDbEntity
  8
2D$cuna$rebaje 5mm
100
AcDbVertex
100
AcDb2dVertex
 10
313.4981035390584
 20
590.154587326849
 30
-0.0734818749126857
  0
VERTEX
  5
16E
330
160
100
AcDbEntity
  8
2D$cuna$rebaje 5mm
100
AcDbVertex
100
AcDb2dVertex
 10
313.2823471773487
 20
589.6823846836714
 30
-0.0734818749126857
  0
VERTEX
  5
16F
330
160
100
AcDbEntity
  8
2D$cuna$rebaje 5mm
100
AcDbVertex
100
AcDb2dVertex
 10
313.0503792705021
 20
589.2179312048006
 30
-0.0734818749126857
  0
VERTEX
  5
170
330
160
100
AcDbEntity
  8
2D$cuna$rebaje 5mm
100
AcDbVertex
100
AcDb2dVertex
 10
312.8024776914762
 20
588.7617832562593
 30
-0.0734818749126857
  0
VERTEX
  5
171
330
160
100
AcDbEntity
  8
2D$cuna$rebaje 5mm
100
AcDbVertex
100
AcDb2dVertex
 10
312.5389394000781
 20
588.3144872549257
 30
-0.0734818749126857
  0
VERTEX
  5
172
330
160
100
AcDbEntity
  8
2D$cuna$rebaje 5mm
100
AcDbVertex
100
AcDb2dVertex
 10
312.2600800872389
 20
587.8765790139837
 30
-0.0734818749126857
  0
VERTEX
  5
173
330
160
100
AcDbEntity
  8
2D$cuna$rebaje 5mm
100
AcDbVertex
100
AcDb2dVertex
 10
311.9662337968484
 20
587.4485831010759
 30
-0.0734818749126857
  0
VERTEX
  5
174
330
160
100
AcDbEntity
  8
2D$cuna$rebaje 5mm
100
AcDbVertex
100
AcDb2dVertex
 10
311.657752525607
 20
587.0310122099265
 30
-0.0734818749126857
  0
VERTEX
  5
175
330
160
100
AcDbEntity
  8
2D$cuna$rebaje 5mm
100
AcDbVertex
100
AcDb2dVertex
 10
311.3350058013699
 20
586.6243665461893
 30
-0.0734818749126857
  0
VERTEX
  5
176
330
160
100
AcDbEntity
  8
2D$cuna$rebaje 5mm
100
AcDbVertex
100
AcDb2dVertex
 10
310.998380240493
 20
586.2291332282539
 30
-0.0734818749126857
  0
VERTEX
  5
177
330
160
100
AcDbEntity
  8
2D$cuna$rebaje 5mm
100
AcDbVertex
100
AcDb2dVertex
 10
310.6482790847066
 20
585.8457857037293
 30
-0.0734818749126857
  0
VERTEX
  5
178
330
160
100
AcDbEntity
  8
2D$cuna$rebaje 5mm
100
AcDbVertex
100
AcDb2dVertex
 10
310.285121718075
 20
585.474783182305
 30
-0.0734818749126857
  0
VERTEX
  5
179
330
160
100
AcDbEntity
  8
2D$cuna$rebaje 5mm
100
AcDbVertex
100
AcDb2dVertex
 10
309.9093431646189
 20
585.116570085665
 30
-0.0734818749126857
  0
VERTEX
  5
17A
330
160
100
AcDbEntity
  8
2D$cuna$rebaje 5mm
100
AcDbVertex
100
AcDb2dVertex
 10
309.5213935672024
 20
584.7715755151187
 30
-0.0734818749126857
  0
VERTEX
  5
17B
330
160
100
AcDbEntity
  8
2D$cuna$rebaje 5mm
100
AcDbVertex
100
AcDb2dVertex
 10
309.12173764831
 20
584.4402127375828
 30
-0.0734818749126857
  0
VERTEX
  5
17C
330
160
100
AcDbEntity
  8
2D$cuna$rebaje 5mm
100
AcDbVertex
100
AcDb2dVertex
 10
308.7108541533581
 20
584.1228786905313
 30
-0.0734818749126857
  0
VERTEX
  5
17D
330
160
100
AcDbEntity
  8
2D$cuna$rebaje 5mm
100
AcDbVertex
100
AcDb2dVertex
 10
308.2892352772087
 20
583.8199535065063
 30
-0.0734818749126857
  0
VERTEX
  5
17E
330
160
100
AcDbEntity
  8
2D$cuna$rebaje 5mm
100
AcDbVertex
100
AcDb2dVertex
 10
307.8573860745723
 20
583.53180005776
 30
-0.0734818749126857
  0
VERTEX
  5
17F
330
160
100
AcDbEntity
  8
2D$cuna$rebaje 5mm
100
AcDbVertex
100
AcDb2dVertex
 10
307.4158238550059
 20
583.258763521572
 30
-0.0734818749126857
  0
VERTEX
  5
180
330
160
100
AcDbEntity
  8
2D$cuna$rebaje 5mm
100
AcDbVertex
100
AcDb2dVertex
 10
306.9650775632308
 20
583.0011709667631
 30
-0.0734818749126857
  0
VERTEX
  5
181
330
160
100
AcDbEntity
  8
2D$cuna$rebaje 5mm
100
AcDbVertex
100
AcDb2dVertex
 10
306.505687145513
 20
582.7593309619022
 30
-0.0734818749126857
  0
VERTEX
  5
182
330
160
100
AcDbEntity
  8
2D$cuna$rebaje 5mm
100
AcDbVertex
100
AcDb2dVertex
 10
306.0382029028651
 20
582.5335332056734
 30
-0.0734818749126857
  0
VERTEX
  5
183
330
160
100
AcDbEntity
  8
2D$cuna$rebaje 5mm
100
AcDbVertex
100
AcDb2dVertex
 10
305.5631848318437
 20
582.324048179848
 30
-0.0734818749126857
  0
VERTEX
  5
184
330
160
100
AcDbEntity
  8
2D$cuna$rebaje 5mm
100
AcDbVertex
100
AcDb2dVertex
 10
305.0812019537328
 20
582.1311268252756
 30
-0.0734818749126857
  0
VERTEX
  5
185
330
160
100
AcDbEntity
  8
2D$cuna$rebaje 5mm
100
AcDbVertex
100
AcDb2dVertex
 10
304.5928316329172
 20
581.9550002412843
 30
-0.0734818749126857
  0
VERTEX
  5
186
330
160
100
AcDbEntity
  8
2D$cuna$rebaje 5mm
100
AcDbVertex
100
AcDb2dVertex
 10
304.0986588852604
 20
581.7958794088474
 30
-0.0734818749126857
  0
VERTEX
  5
187
330
160
100
AcDbEntity
  8
2D$cuna$rebaje 5mm
100
AcDbVertex
100
AcDb2dVertex
 10
303.5992756773185
 20
581.6539549378509
 30
-0.0734818749126857
  0
VERTEX
  5
188
330
160
100
AcDbEntity
  8
2D$cuna$rebaje 5mm
100
AcDbVertex
100
AcDb2dVertex
 10
303.0952802172262
 20
581.5293968387632
 30
-0.0734818749126857
  0
VERTEX
  5
189
330
160
100
AcDbEntity
  8
2D$cuna$rebaje 5mm
100
AcDbVertex
100
AcDb2dVertex
 10
302.5872762381073
 20
581.4223543189806
 30
-0.0734818749126857
  0
VERTEX
  5
18A
330
160
100
AcDbEntity
  8
2D$cuna$rebaje 5mm
100
AcDbVertex
100
AcDb2dVertex
 10
302.0758722748666
 20
581.3329556040921
 30
-0.0734818749126857
  0
VERTEX
  5
18B
330
160
100
AcDbEntity
  8
2D$cuna$rebaje 5mm
100
AcDbVertex
100
AcDb2dVertex
 10
301.5616809352291
 20
581.2613077842797
 30
-0.0734818749126857
  0
VERTEX
  5
18C
330
160
100
AcDbEntity
  8
2D$cuna$rebaje 5mm
100
AcDbVertex
100
AcDb2dVertex
 10
301.0453181659015
 20
581.2074966860347
 30
-0.0734818749126857
  0
VERTEX
  5
18D
330
160
100
AcDbEntity
  8
2D$cuna$rebaje 5mm
100
AcDbVertex
100
AcDb2dVertex
 10
300.5274025147328
 20
581.1715867693474
 30
-0.0734818749126857
  0
VERTEX
  5
18E
330
160
100
AcDbEntity
  8
2D$cuna$rebaje 5mm
100
AcDbVertex
100
AcDb2dVertex
 10
300.0085543897598
 20
581.1536210504906
 30
-0.0734818749126857
  0
VERTEX
  5
18F
330
160
100
AcDbEntity
  8
2D$cuna$rebaje 5mm
100
AcDbVertex
100
AcDb2dVertex
 10
299.4893953160242
 20
581.1536210504906
 30
-0.0734818749126857
  0
VERTEX
  5
190
330
160
100
AcDbEntity
  8
2D$cuna$rebaje 5mm
100
AcDbVertex
100
AcDb2dVertex
 10
298.9705471910512
 20
581.1715867693474
 30
-0.0734818749126857
  0
VERTEX
  5
191
330
160
100
AcDbEntity
  8
2D$cuna$rebaje 5mm
100
AcDbVertex
100
AcDb2dVertex
 10
298.4526315398825
 20
581.2074966860348
 30
-0.0734818749126857
  0
VERTEX
  5
192
330
160
100
AcDbEntity
  8
2D$cuna$rebaje 5mm
100
AcDbVertex
100
AcDb2dVertex
 10
297.9362687705549
 20
581.2613077842798
 30
-0.0734818749126857
  0
VERTEX
  5
193
330
160
100
AcDbEntity
  8
2D$cuna$rebaje 5mm
100
AcDbVertex
100
AcDb2dVertex
 10
297.4220774309174
 20
581.3329556040923
 30
-0.0734818749126857
  0
VERTEX
  5
194
330
160
100
AcDbEntity
  8
2D$cuna$rebaje 5mm
100
AcDbVertex
100
AcDb2dVertex
 10
296.9106734676767
 20
581.4223543189808
 30
-0.0734818749126857
  0
VERTEX
  5
195
330
160
100
AcDbEntity
  8
2D$cuna$rebaje 5mm
100
AcDbVertex
100
AcDb2dVertex
 10
296.4026694885578
 20
581.5293968387634
 30
-0.0734818749126857
  0
VERTEX
  5
196
330
160
100
AcDbEntity
  8
2D$cuna$rebaje 5mm
100
AcDbVertex
100
AcDb2dVertex
 10
295.8986740284655
 20
581.653954937851
 30
-0.0734818749126857
  0
VERTEX
  5
197
330
160
100
AcDbEntity
  8
2D$cuna$rebaje 5mm
100
AcDbVertex
100
AcDb2dVertex
 10
295.3992908205236
 20
581.7958794088476
 30
-0.0734818749126857
  0
VERTEX
  5
198
330
160
100
AcDbEntity
  8
2D$cuna$rebaje 5mm
100
AcDbVertex
100
AcDb2dVertex
 10
294.9051180728669
 20
581.9550002412846
 30
-0.0734818749126857
  0
VERTEX
  5
199
330
160
100
AcDbEntity
  8
2D$cuna$rebaje 5mm
100
AcDbVertex
100
AcDb2dVertex
 10
294.4167477520512
 20
582.1311268252758
 30
-0.0734818749126857
  0
VERTEX
  5
19A
330
160
100
AcDbEntity
  8
2D$cuna$rebaje 5mm
100
AcDbVertex
100
AcDb2dVertex
 10
293.9347648739404
 20
582.3240481798482
 30
-0.0734818749126857
  0
VERTEX
  5
19B
330
160
100
AcDbEntity
  8
2D$cuna$rebaje 5mm
100
AcDbVertex
100
AcDb2dVertex
 10
293.4597468029189
 20
582.5335332056736
 30
-0.0734818749126857
  0
VERTEX
  5
19C
330
160
100
AcDbEntity
  8
2D$cuna$rebaje 5mm
100
AcDbVertex
100
AcDb2dVertex
 10
292.9922625602711
 20
582.7593309619025
 30
-0.0734818749126857
  0
VERTEX
  5
19D
330
160
100
AcDbEntity
  8
2D$cuna$rebaje 5mm
100
AcDbVertex
100
AcDb2dVertex
 10
292.5328721425533
 20
583.0011709667634
 30
-0.0734818749126857
  0
VERTEX
  5
19E
330
160
100
AcDbEntity
  8
2D$cuna$rebaje 5mm
100
AcDbVertex
100
AcDb2dVertex
 10
292.0821258507782
 20
583.2587635215723
 30
-0.0734818749126857
  0
VERTEX
  5
19F
330
160
100
AcDbEntity
  8
2D$cuna$rebaje 5mm
100
AcDbVertex
100
AcDb2dVertex
 10
291.6405636312118
 20
583.5318000577604
 30
-0.0734818749126857
  0
VERTEX
  5
1A0
330
160
100
AcDbEntity
  8
2D$cuna$rebaje 5mm
100
AcDbVertex
100
AcDb2dVertex
 10
291.2087144285754
 20
583.8199535065066
 30
-0.0734818749126857
  0
VERTEX
  5
1A1
330
160
100
AcDbEntity
  8
2D$cuna$rebaje 5mm
100
AcDbVertex
100
AcDb2dVertex
 10
290.787095552426
 20
584.1228786905317
 30
-0.0734818749126857
  0
VERTEX
  5
1A2
330
160
100
AcDbEntity
  8
2D$cuna$rebaje 5mm
100
AcDbVertex
100
AcDb2dVertex
 10
290.3762120574742
 20
584.4402127375832
 30
-0.0734818749126857
  0
VERTEX
  5
1A3
330
160
100
AcDbEntity
  8
2D$cuna$rebaje 5mm
100
AcDbVertex
100
AcDb2dVertex
 10
289.9765561385818
 20
584.7715755151191
 30
-0.0734818749126857
  0
VERTEX
  5
1A4
330
160
100
AcDbEntity
  8
2D$cuna$rebaje 5mm
100
AcDbVertex
100
AcDb2dVertex
 10
289.5886065411653
 20
585.1165700856654
 30
-0.0734818749126857
  0
VERTEX
  5
1A5
330
160
100
AcDbEntity
  8
2D$cuna$rebaje 5mm
100
AcDbVertex
100
AcDb2dVertex
 10
289.2128279877092
 20
585.4747831823055
 30
-0.0734818749126857
  0
VERTEX
  5
1A6
330
160
100
AcDbEntity
  8
2D$cuna$rebaje 5mm
100
AcDbVertex
100
AcDb2dVertex
 10
288.8496706210776
 20
585.8457857037299
 30
-0.0734818749126857
  0
VERTEX
  5
1A7
330
160
100
AcDbEntity
  8
2D$cuna$rebaje 5mm
100
AcDbVertex
100
AcDb2dVertex
 10
288.4995694652912
 20
586.2291332282543
 30
-0.0734818749126857
  0
VERTEX
  5
1A8
330
160
100
AcDbEntity
  8
2D$cuna$rebaje 5mm
100
AcDbVertex
100
AcDb2dVertex
 10
288.1629439044143
 20
586.6243665461899
 30
-0.0734818749126857
  0
VERTEX
  5
1A9
330
160
100
AcDbEntity
  8
2D$cuna$rebaje 5mm
100
AcDbVertex
100
AcDb2dVertex
 10
287.8401971801773
 20
587.0310122099271
 30
-0.0734818749126857
  0
VERTEX
  5
1AA
330
160
100
AcDbEntity
  8
2D$cuna$rebaje 5mm
100
AcDbVertex
100
AcDb2dVertex
 10
287.5317159089358
 20
587.4485831010765
 30
-0.0734818749126857
  0
VERTEX
  5
1AB
330
160
100
AcDbEntity
  8
2D$cuna$rebaje 5mm
100
AcDbVertex
100
AcDb2dVertex
 10
287.2378696185454
 20
587.8765790139843
 30
-0.0734818749126857
  0
VERTEX
  5
1AC
330
160
100
AcDbEntity
  8
2D$cuna$rebaje 5mm
100
AcDbVertex
100
AcDb2dVertex
 10
286.9590103057062
 20
588.3144872549262
 30
-0.0734818749126857
  0
VERTEX
  5
1AD
330
160
100
AcDbEntity
  8
2D$cuna$rebaje 5mm
100
AcDbVertex
100
AcDb2dVertex
 10
286.6954720143082
 20
588.7617832562598
 30
-0.0734818749126857
  0
VERTEX
  5
1AE
330
160
100
AcDbEntity
  8
2D$cuna$rebaje 5mm
100
AcDbVertex
100
AcDb2dVertex
 10
286.4475704352822
 20
589.2179312048012
 30
-0.0734818749126857
  0
VERTEX
  5
1AF
330
160
100
AcDbEntity
  8
2D$cuna$rebaje 5mm
100
AcDbVertex
100
AcDb2dVertex
 10
286.2156025284357
 20
589.682384683672
 30
-0.0734818749126857
  0
VERTEX
  5
1B0
330
160
100
AcDbEntity
  8
2D$cuna$rebaje 5mm
100
AcDbVertex
100
AcDb2dVertex
 10
285.9998461667259
 20
590.1545873268495
 30
-0.0734818749126857
  0
VERTEX
  5
1B1
330
160
100
AcDbEntity
  8
2D$cuna$rebaje 5mm
100
AcDbVertex
100
AcDb2dVertex
 10
285.8005598033984
 20
590.6339734856335
 30
-0.0734818749126857
  0
VERTEX
  5
1B2
330
160
100
AcDbEntity
  8
2D$cuna$rebaje 5mm
100
AcDbVertex
100
AcDb2dVertex
 10
285.6179821623863
 20
591.1199689062339
 30
-0.0734818749126857
  0
VERTEX
  5
1B3
330
160
100
AcDbEntity
  8
2D$cuna$rebaje 5mm
100
AcDbVertex
100
AcDb2dVertex
 10
285.4523319523454
 20
591.6119914176654
 30
-0.0734818749126857
  0
VERTEX
  5
1B4
330
160
100
AcDbEntity
  8
2D$cuna$rebaje 5mm
100
AcDbVertex
100
AcDb2dVertex
 10
285.303807604664
 20
592.1094516291275
 30
-0.0734818749126857
  0
VERTEX
  5
1B5
330
160
100
AcDbEntity
  8
2D$cuna$rebaje 5mm
100
AcDbVertex
100
AcDb2dVertex
 10
285.1725870357629
 20
592.611753636031
 30
-0.0734818749126857
  0
VERTEX
  5
1B6
330
160
100
AcDbEntity
  8
2D$cuna$rebaje 5mm
100
AcDbVertex
100
AcDb2dVertex
 10
285.0588274339707
 20
593.1182957338294
 30
-0.0734818749126857
  0
VERTEX
  5
1B7
330
160
100
AcDbEntity
  8
2D$cuna$rebaje 5mm
100
AcDbVertex
100
AcDb2dVertex
 10
284.9626650712287
 20
593.6284711387971
 30
-0.0734818749126857
  0
VERTEX
  5
1B8
330
160
100
AcDbEntity
  8
2D$cuna$rebaje 5mm
100
AcDbVertex
100
AcDb2dVertex
 10
284.8842151398516
 20
594.1416687148914
 30
-0.0734818749126857
  0
VERTEX
  5
1B9
330
160
100
AcDbEntity
  8
2D$cuna$rebaje 5mm
100
AcDbVertex
100
AcDb2dVertex
 10
284.8235716145393
 20
594.6572737058289
 30
-0.0734818749126857
  0
VERTEX
  5
1BA
330
160
100
AcDbEntity
  8
2D$cuna$rebaje 5mm
100
AcDbVertex
100
AcDb2dVertex
 10
284.7808071398054
 20
595.1746684714989
 30
-0.0734818749126857
  0
VERTEX
  5
1BB
330
160
100
AcDbEntity
  8
2D$cuna$rebaje 5mm
100
AcDbVertex
100
AcDb2dVertex
 10
284.7559729429563
 20
595.6932332278301
 30
-0.0734818749126857
  0
VERTEX
  5
1BC
330
160
100
AcDbEntity
  8
2D$cuna$rebaje 5mm
100
AcDbVertex
100
AcDb2dVertex
 10
284.7490987727268
 20
596.2123467892266
 30
-0.0734818749126857
  0
SEQEND
  5
1BD
330
160
100
AcDbEntity
  8
2D$cuna$rebaje 5mm
  0
POLYLINE
  5
1BE
330
1F
100
AcDbEntity
  8
2D$cuna$rebaje 5mm
100
AcDb2dPolyline
 66
     1
 10
0.0
 20
0.0
 30
-0.0734818749126873
  0
VERTEX
  5
1BF
330
1BE
100
AcDbEntity
  8
2D$cuna$rebaje 5mm
100
AcDbVertex
100
AcDb2dVertex
 10
284.7490987727268
 20
596.2123467892266
 30
-0.0734818749126873
  0
VERTEX
  5
1C0
330
1BE
100
AcDbEntity
  8
2D$cuna$rebaje 5mm
100
AcDbVertex
100
AcDb2dVertex
 10
273.530755615554
 20
627.1545863994577
 30
-0.0734818749126873
  0
SEQEND
  5
1C1
330
1BE
100
AcDbEntity
  8
2D$cuna$rebaje 5mm
  0
POLYLINE
  5
1C2
330
1F
100
AcDbEntity
  8
2D$cuna$Interiores
100
AcDb2dPolyline
 66
     1
 10
0.0
 20
0.0
 30
-0.0000000000000284
  0
VERTEX
  5
1C3
330
1C2
100
AcDbEntity
  8
2D$cuna$Interiores
100
AcDbVertex
100
AcDb2dVertex
 10
99.99999999999955
 20
621.5175984338852
 30
-0.0000000000000284
  0
VERTEX
  5
1C4
330
1C2
100
AcDbEntity
  8
2D$cuna$Interiores
100
AcDbVertex
100
AcDb2dVertex
 10
623.9999999999997
 20
621.517598433885
 30
-0.0000000000000284
  0
VERTEX
  5
1C5
330
1C2
100
AcDbEntity
  8
2D$cuna$Interiores
100
AcDbVertex
100
AcDb2dVertex
 10
625.1097971880799
 20
621.5299164492068
 30
-0.0000000000000284
  0
VERTEX
  5
1C6
330
1C2
100
AcDbEntity
  8
2D$cuna$Interiores
100
AcDbVertex
100
AcDb2dVertex
 10
626.2290122074326
 20
621.5673080986015
 30
-0.0000000000000284
  0
VERTEX
  5
1C7
330
1C2
100
AcDbEntity
  8
2D$cuna$Interiores
100
AcDbVertex
100
AcDb2dVertex
 10
627.35691196947
 20
621.6304142877616
 30
-0.0000000000000284
  0
VERTEX
  5
1C8
330
1C2
100
AcDbEntity
  8
2D$cuna$Interiores
100
AcDbVertex
100
AcDb2dVertex
 10
628.492721894885
 20
621.719853003241
 30
-0.0000000000000284
  0
VERTEX
  5
1C9
330
1C2
100
AcDbEntity
  8
2D$cuna$Interiores
100
AcDbVertex
100
AcDb2dVertex
 10
629.6356263991931
 20
621.8362164574473
 30
-0.0000000000000284
  0
VERTEX
  5
1CA
330
1C2
100
AcDbEntity
  8
2D$cuna$Interiores
100
AcDbVertex
100
AcDb2dVertex
 10
630.784769588849
 20
621.9800682004729
 30
-0.0000000000000284
  0
VERTEX
  5
1CB
330
1C2
100
AcDbEntity
  8
2D$cuna$Interiores
100
AcDbVertex
100
AcDb2dVertex
 10
631.9392561762464
 20
622.1519402151605
 30
-0.0000000000000284
  0
VERTEX
  5
1CC
330
1C2
100
AcDbEntity
  8
2D$cuna$Interiores
100
AcDbVertex
100
AcDb2dVertex
 10
633.0981526206068
 20
622.3523300130563
 30
-0.0000000000000284
  0
VERTEX
  5
1CD
330
1C2
100
AcDbEntity
  8
2D$cuna$Interiores
100
AcDbVertex
100
AcDb2dVertex
 10
634.260488500279
 20
622.5816977500759
 30
-0.0000000000000284
  0
VERTEX
  5
1CE
330
1C2
100
AcDbEntity
  8
2D$cuna$Interiores
100
AcDbVertex
100
AcDb2dVertex
 10
635.4252581203218
 20
622.840463381748
 30
-0.0000000000000284
  0
VERTEX
  5
1CF
330
1C2
100
AcDbEntity
  8
2D$cuna$Interiores
100
AcDbVertex
100
AcDb2dVertex
 10
636.5914223574256
 20
623.129003878795
 30
-0.0000000000000284
  0
VERTEX
  5
1D0
330
1C2
100
AcDbEntity
  8
2D$cuna$Interiores
100
AcDbVertex
100
AcDb2dVertex
 10
637.7579107422681
 20
623.4476505245336
 30
-0.0000000000000284
  0
VERTEX
  5
1D1
330
1C2
100
AcDbEntity
  8
2D$cuna$Interiores
100
AcDbVertex
100
AcDb2dVertex
 10
638.9236237773015
 20
623.7966863160981
 30
-0.0000000000000284
  0
VERTEX
  5
1D2
330
1C2
100
AcDbEntity
  8
2D$cuna$Interiores
100
AcDbVertex
100
AcDb2dVertex
 10
640.0874354857636
 20
624.1763434918013
 30
-0.0000000000000284
  0
VERTEX
  5
1D3
330
1C2
100
AcDbEntity
  8
2D$cuna$Interiores
100
AcDbVertex
100
AcDb2dVertex
 10
641.248196185408
 20
624.5868012070143
 30
-0.0000000000000284
  0
VERTEX
  5
1D4
330
1C2
100
AcDbEntity
  8
2D$cuna$Interiores
100
AcDbVertex
100
AcDb2dVertex
 10
642.4047354780932
 20
625.0281833807636
 30
-0.0000000000000284
  0
VERTEX
  5
1D5
330
1C2
100
AcDbEntity
  8
2D$cuna$Interiores
100
AcDbVertex
100
AcDb2dVertex
 10
643.5558654439857
 20
625.500556734785
 30
-0.0000000000000284
  0
VERTEX
  5
1D6
330
1C2
100
AcDbEntity
  8
2D$cuna$Interiores
100
AcDbVertex
100
AcDb2dVertex
 10
644.700384026742
 20
626.0039290460476
 30
-0.0000000000000284
  0
VERTEX
  5
1D7
330
1C2
100
AcDbEntity
  8
2D$cuna$Interiores
100
AcDbVertex
100
AcDb2dVertex
 10
645.8370785936962
 20
626.5382476327374
 30
-0.0000000000000284
  0
VERTEX
  5
1D8
330
1C2
100
AcDbEntity
  8
2D$cuna$Interiores
100
AcDbVertex
100
AcDb2dVertex
 10
646.9647296527999
 20
627.1033980923976
 30
-0.0000000000000284
  0
VERTEX
  5
1D9
330
1C2
100
AcDbEntity
  8
2D$cuna$Interiores
100
AcDbVertex
100
AcDb2dVertex
 10
648.0821147059037
 20
627.6992033093296
 30
-0.0000000000000284
  0
VERTEX
  5
1DA
330
1C2
100
AcDbEntity
  8
2D$cuna$Interiores
100
AcDbVertex
100
AcDb2dVertex
 10
649.1880122159573
 20
628.3254227465137
 30
-0.0000000000000284
  0
VERTEX
  5
1DB
330
1C2
100
AcDbEntity
  8
2D$cuna$Interiores
100
AcDbVertex
100
AcDb2dVertex
 10
650.2812056638818
 20
628.9817520351976
 30
-0.0000000000000284
  0
VERTEX
  5
1DC
330
1C2
100
AcDbEntity
  8
2D$cuna$Interiores
100
AcDbVertex
100
AcDb2dVertex
 10
651.3604876692568
 20
629.6678228729525
 30
-0.0000000000000284
  0
VERTEX
  5
1DD
330
1C2
100
AcDbEntity
  8
2D$cuna$Interiores
100
AcDbVertex
100
AcDb2dVertex
 10
652.4246641476249
 20
630.3832032384441
 30
-0.0000000000000284
  0
VERTEX
  5
1DE
330
1C2
100
AcDbEntity
  8
2D$cuna$Interiores
100
AcDbVertex
100
AcDb2dVertex
 10
653.4725584761397
 20
631.1273979284346
 30
-0.0000000000000284
  0
VERTEX
  5
1DF
330
1C2
100
AcDbEntity
  8
2D$cuna$Interiores
100
AcDbVertex
100
AcDb2dVertex
 10
654.503015638536
 20
631.8998494196464
 30
-0.0000000000000284
  0
VERTEX
  5
1E0
330
1C2
100
AcDbEntity
  8
2D$cuna$Interiores
100
AcDbVertex
100
AcDb2dVertex
 10
655.5149063199614
 20
632.699939055143
 30
-0.0000000000000284
  0
VERTEX
  5
1E1
330
1C2
100
AcDbEntity
  8
2D$cuna$Interiores
100
AcDbVertex
100
AcDb2dVertex
 10
656.5071309221414
 20
633.5269885518269
 30
-0.0000000000000284
  0
VERTEX
  5
1E2
330
1C2
100
AcDbEntity
  8
2D$cuna$Interiores
100
AcDbVertex
100
AcDb2dVertex
 10
657.4786234696095
 20
634.3802618225973
 30
-0.0000000000000284
  0
VERTEX
  5
1E3
330
1C2
100
AcDbEntity
  8
2D$cuna$Interiores
100
AcDbVertex
100
AcDb2dVertex
 10
658.4283553783667
 20
635.2589671036642
 30
-0.0000000000000284
  0
VERTEX
  5
1E4
330
1C2
100
AcDbEntity
  8
2D$cuna$Interiores
100
AcDbVertex
100
AcDb2dVertex
 10
659.3553390593271
 20
636.1622593745577
 30
-0.0000000000000284
  0
VERTEX
  5
1E5
330
1C2
100
AcDbEntity
  8
2D$cuna$Interiores
100
AcDbVertex
100
AcDb2dVertex
 10
660.2586313302207
 20
637.0892430555182
 30
-0.0000000000000284
  0
VERTEX
  5
1E6
330
1C2
100
AcDbEntity
  8
2D$cuna$Interiores
100
AcDbVertex
100
AcDb2dVertex
 10
661.1373366112875
 20
638.0389749642754
 30
-0.0000000000000284
  0
VERTEX
  5
1E7
330
1C2
100
AcDbEntity
  8
2D$cuna$Interiores
100
AcDbVertex
100
AcDb2dVertex
 10
661.9906098820578
 20
639.0104675117433
 30
-0.0000000000000284
  0
VERTEX
  5
1E8
330
1C2
100
AcDbEntity
  8
2D$cuna$Interiores
100
AcDbVertex
100
AcDb2dVertex
 10
662.817659378742
 20
640.0026921139236
 30
-0.0000000000000284
  0
VERTEX
  5
1E9
330
1C2
100
AcDbEntity
  8
2D$cuna$Interiores
100
AcDbVertex
100
AcDb2dVertex
 10
663.6177490142386
 20
641.014582795349
 30
-0.0000000000000284
  0
VERTEX
  5
1EA
330
1C2
100
AcDbEntity
  8
2D$cuna$Interiores
100
AcDbVertex
100
AcDb2dVertex
 10
664.3902005054503
 20
642.0450399577451
 30
-0.0000000000000284
  0
VERTEX
  5
1EB
330
1C2
100
AcDbEntity
  8
2D$cuna$Interiores
100
AcDbVertex
100
AcDb2dVertex
 10
665.1343951954407
 20
643.09293428626
 30
-0.0000000000000284
  0
VERTEX
  5
1EC
330
1C2
100
AcDbEntity
  8
2D$cuna$Interiores
100
AcDbVertex
100
AcDb2dVertex
 10
665.8497755609322
 20
644.157110764628
 30
-0.0000000000000284
  0
VERTEX
  5
1ED
330
1C2
100
AcDbEntity
  8
2D$cuna$Interiores
100
AcDbVertex
100
AcDb2dVertex
 10
666.5358463986871
 20
645.236392770003
 30
-0.0000000000000284
  0
VERTEX
  5
1EE
330
1C2
100
AcDbEntity
  8
2D$cuna$Interiores
100
AcDbVertex
100
AcDb2dVertex
 10
667.1921756873713
 20
646.3295862179277
 30
-0.0000000000000284
  0
VERTEX
  5
1EF
330
1C2
100
AcDbEntity
  8
2D$cuna$Interiores
100
AcDbVertex
100
AcDb2dVertex
 10
667.8183951245556
 20
647.4354837279816
 30
-0.0000000000000284
  0
VERTEX
  5
1F0
330
1C2
100
AcDbEntity
  8
2D$cuna$Interiores
100
AcDbVertex
100
AcDb2dVertex
 10
668.4142003414873
 20
648.5528687810851
 30
-0.0000000000000284
  0
VERTEX
  5
1F1
330
1C2
100
AcDbEntity
  8
2D$cuna$Interiores
100
AcDbVertex
100
AcDb2dVertex
 10
668.9793508011476
 20
649.6805198401887
 30
-0.0000000000000284
  0
VERTEX
  5
1F2
330
1C2
100
AcDbEntity
  8
2D$cuna$Interiores
100
AcDbVertex
100
AcDb2dVertex
 10
669.5136693878374
 20
650.817214407143
 30
-0.0000000000000284
  0
VERTEX
  5
1F3
330
1C2
100
AcDbEntity
  8
2D$cuna$Interiores
100
AcDbVertex
100
AcDb2dVertex
 10
670.0170416990997
 20
651.961732989899
 30
-0.0000000000000284
  0
VERTEX
  5
1F4
330
1C2
100
AcDbEntity
  8
2D$cuna$Interiores
100
AcDbVertex
100
AcDb2dVertex
 10
670.4894150531212
 20
653.1128629557915
 30
-0.0000000000000284
  0
VERTEX
  5
1F5
330
1C2
100
AcDbEntity
  8
2D$cuna$Interiores
100
AcDbVertex
100
AcDb2dVertex
 10
670.9307972268706
 20
654.2694022484768
 30
-0.0000000000000284
  0
VERTEX
  5
1F6
330
1C2
100
AcDbEntity
  8
2D$cuna$Interiores
100
AcDbVertex
100
AcDb2dVertex
 10
671.3412549420837
 20
655.4301629481213
 30
-0.0000000000000284
  0
VERTEX
  5
1F7
330
1C2
100
AcDbEntity
  8
2D$cuna$Interiores
100
AcDbVertex
100
AcDb2dVertex
 10
671.7209121177866
 20
656.5939746565832
 30
-0.0000000000000284
  0
VERTEX
  5
1F8
330
1C2
100
AcDbEntity
  8
2D$cuna$Interiores
100
AcDbVertex
100
AcDb2dVertex
 10
672.0699479093512
 20
657.7596876916167
 30
-0.0000000000000284
  0
VERTEX
  5
1F9
330
1C2
100
AcDbEntity
  8
2D$cuna$Interiores
100
AcDbVertex
100
AcDb2dVertex
 10
672.3885945550898
 20
658.9261760764591
 30
-0.0000000000000284
  0
VERTEX
  5
1FA
330
1C2
100
AcDbEntity
  8
2D$cuna$Interiores
100
AcDbVertex
100
AcDb2dVertex
 10
672.6771350521368
 20
660.0923403135629
 30
-0.0000000000000284
  0
VERTEX
  5
1FB
330
1C2
100
AcDbEntity
  8
2D$cuna$Interiores
100
AcDbVertex
100
AcDb2dVertex
 10
672.9359006838087
 20
661.2571099336055
 30
-0.0000000000000284
  0
VERTEX
  5
1FC
330
1C2
100
AcDbEntity
  8
2D$cuna$Interiores
100
AcDbVertex
100
AcDb2dVertex
 10
673.1652684208283
 20
662.4194458132779
 30
-0.0000000000000284
  0
VERTEX
  5
1FD
330
1C2
100
AcDbEntity
  8
2D$cuna$Interiores
100
AcDbVertex
100
AcDb2dVertex
 10
673.3656582187242
 20
663.5783422576384
 30
-0.0000000000000284
  0
VERTEX
  5
1FE
330
1C2
100
AcDbEntity
  8
2D$cuna$Interiores
100
AcDbVertex
100
AcDb2dVertex
 10
673.5375302334119
 20
664.732828845036
 30
-0.0000000000000284
  0
VERTEX
  5
1FF
330
1C2
100
AcDbEntity
  8
2D$cuna$Interiores
100
AcDbVertex
100
AcDb2dVertex
 10
673.6813819764375
 20
665.8819720346919
 30
-0.0000000000000284
  0
VERTEX
  5
200
330
1C2
100
AcDbEntity
  8
2D$cuna$Interiores
100
AcDbVertex
100
AcDb2dVertex
 10
673.7977454306437
 20
667.0248765389999
 30
-0.0000000000000284
  0
VERTEX
  5
201
330
1C2
100
AcDbEntity
  8
2D$cuna$Interiores
100
AcDbVertex
100
AcDb2dVertex
 10
673.8871841461232
 20
668.160686464415
 30
-0.0000000000000284
  0
VERTEX
  5
202
330
1C2
100
AcDbEntity
  8
2D$cuna$Interiores
100
AcDbVertex
100
AcDb2dVertex
 10
673.9502903352832
 20
669.2885862264524
 30
-0.0000000000000284
  0
VERTEX
  5
203
330
1C2
100
AcDbEntity
  8
2D$cuna$Interiores
100
AcDbVertex
100
AcDb2dVertex
 10
673.9876819846779
 20
670.407801245805
 30
-0.0000000000000284
  0
VERTEX
  5
204
330
1C2
100
AcDbEntity
  8
2D$cuna$Interiores
100
AcDbVertex
100
AcDb2dVertex
 10
673.9999999999997
 20
671.5175984338852
 30
-0.0000000000000284
  0
VERTEX
  5
205
330
1C2
100
AcDbEntity
  8
2D$cuna$Interiores
100
AcDbVertex
100
AcDb2dVertex
 10
673.9999999999998
 20
811.5175984338854
 30
-0.0000000000000284
  0
VERTEX
  5
206
330
1C2
100
AcDbEntity
  8
2D$cuna$Interiores
100
AcDbVertex
100
AcDb2dVertex
 10
673.987681984678
 20
812.6273956219655
 30
-0.0000000000000284
  0
VERTEX
  5
207
330
1C2
100
AcDbEntity
  8
2D$cuna$Interiores
100
AcDbVertex
100
AcDb2dVertex
 10
673.9502903352834
 20
813.7466106413183
 30
-0.0000000000000284
  0
VERTEX
  5
208
330
1C2
100
AcDbEntity
  8
2D$cuna$Interiores
100
AcDbVertex
100
AcDb2dVertex
 10
673.8871841461233
 20
814.8745104033557
 30
-0.0000000000000284
  0
VERTEX
  5
209
330
1C2
100
AcDbEntity
  8
2D$cuna$Interiores
100
AcDbVertex
100
AcDb2dVertex
 10
673.7977454306438
 20
816.0103203287706
 30
-0.0000000000000284
  0
VERTEX
  5
20A
330
1C2
100
AcDbEntity
  8
2D$cuna$Interiores
100
AcDbVertex
100
AcDb2dVertex
 10
673.6813819764376
 20
817.153224833079
 30
-0.0000000000000284
  0
VERTEX
  5
20B
330
1C2
100
AcDbEntity
  8
2D$cuna$Interiores
100
AcDbVertex
100
AcDb2dVertex
 10
673.5375302334119
 20
818.3023680227346
 30
-0.0000000000000284
  0
VERTEX
  5
20C
330
1C2
100
AcDbEntity
  8
2D$cuna$Interiores
100
AcDbVertex
100
AcDb2dVertex
 10
673.3656582187242
 20
819.456854610132
 30
-0.0000000000000284
  0
VERTEX
  5
20D
330
1C2
100
AcDbEntity
  8
2D$cuna$Interiores
100
AcDbVertex
100
AcDb2dVertex
 10
673.1652684208284
 20
820.6157510544925
 30
-0.0000000000000284
  0
VERTEX
  5
20E
330
1C2
100
AcDbEntity
  8
2D$cuna$Interiores
100
AcDbVertex
100
AcDb2dVertex
 10
672.935900683809
 20
821.7780869341651
 30
-0.0000000000000284
  0
VERTEX
  5
20F
330
1C2
100
AcDbEntity
  8
2D$cuna$Interiores
100
AcDbVertex
100
AcDb2dVertex
 10
672.6771350521369
 20
822.9428565542077
 30
-0.0000000000000284
  0
VERTEX
  5
210
330
1C2
100
AcDbEntity
  8
2D$cuna$Interiores
100
AcDbVertex
100
AcDb2dVertex
 10
672.38859455509
 20
824.1090207913114
 30
-0.0000000000000284
  0
VERTEX
  5
211
330
1C2
100
AcDbEntity
  8
2D$cuna$Interiores
100
AcDbVertex
100
AcDb2dVertex
 10
672.0699479093514
 20
825.2755091761538
 30
-0.0000000000000284
  0
VERTEX
  5
212
330
1C2
100
AcDbEntity
  8
2D$cuna$Interiores
100
AcDbVertex
100
AcDb2dVertex
 10
671.7209121177868
 20
826.4412222111872
 30
-0.0000000000000284
  0
VERTEX
  5
213
330
1C2
100
AcDbEntity
  8
2D$cuna$Interiores
100
AcDbVertex
100
AcDb2dVertex
 10
671.3412549420837
 20
827.6050339196493
 30
-0.0000000000000284
  0
VERTEX
  5
214
330
1C2
100
AcDbEntity
  8
2D$cuna$Interiores
100
AcDbVertex
100
AcDb2dVertex
 10
670.9307972268706
 20
828.7657946192935
 30
-0.0000000000000284
  0
VERTEX
  5
215
330
1C2
100
AcDbEntity
  8
2D$cuna$Interiores
100
AcDbVertex
100
AcDb2dVertex
 10
670.4894150531213
 20
829.922333911979
 30
-0.0000000000000284
  0
VERTEX
  5
216
330
1C2
100
AcDbEntity
  8
2D$cuna$Interiores
100
AcDbVertex
100
AcDb2dVertex
 10
670.0170416990999
 20
831.0734638778715
 30
-0.0000000000000284
  0
VERTEX
  5
217
330
1C2
100
AcDbEntity
  8
2D$cuna$Interiores
100
AcDbVertex
100
AcDb2dVertex
 10
669.5136693878375
 20
832.2179824606276
 30
-0.0000000000000284
  0
VERTEX
  5
218
330
1C2
100
AcDbEntity
  8
2D$cuna$Interiores
100
AcDbVertex
100
AcDb2dVertex
 10
668.9793508011476
 20
833.3546770275817
 30
-0.0000000000000284
  0
VERTEX
  5
219
330
1C2
100
AcDbEntity
  8
2D$cuna$Interiores
100
AcDbVertex
100
AcDb2dVertex
 10
668.4142003414873
 20
834.4823280866854
 30
-0.0000000000000284
  0
VERTEX
  5
21A
330
1C2
100
AcDbEntity
  8
2D$cuna$Interiores
100
AcDbVertex
100
AcDb2dVertex
 10
667.8183951245556
 20
835.5997131397892
 30
-0.0000000000000284
  0
VERTEX
  5
21B
330
1C2
100
AcDbEntity
  8
2D$cuna$Interiores
100
AcDbVertex
100
AcDb2dVertex
 10
667.1921756873713
 20
836.7056106498427
 30
-0.0000000000000284
  0
VERTEX
  5
21C
330
1C2
100
AcDbEntity
  8
2D$cuna$Interiores
100
AcDbVertex
100
AcDb2dVertex
 10
666.5358463986871
 20
837.7988040977672
 30
-0.0000000000000284
  0
VERTEX
  5
21D
330
1C2
100
AcDbEntity
  8
2D$cuna$Interiores
100
AcDbVertex
100
AcDb2dVertex
 10
665.8497755609322
 20
838.8780861031423
 30
-0.0000000000000284
  0
VERTEX
  5
21E
330
1C2
100
AcDbEntity
  8
2D$cuna$Interiores
100
AcDbVertex
100
AcDb2dVertex
 10
665.1343951954407
 20
839.9422625815105
 30
-0.0000000000000284
  0
VERTEX
  5
21F
330
1C2
100
AcDbEntity
  8
2D$cuna$Interiores
100
AcDbVertex
100
AcDb2dVertex
 10
664.3902005054503
 20
840.9901569100252
 30
-0.0000000000000284
  0
VERTEX
  5
220
330
1C2
100
AcDbEntity
  8
2D$cuna$Interiores
100
AcDbVertex
100
AcDb2dVertex
 10
663.6177490142385
 20
842.0206140724215
 30
-0.0000000000000284
  0
VERTEX
  5
221
330
1C2
100
AcDbEntity
  8
2D$cuna$Interiores
100
AcDbVertex
100
AcDb2dVertex
 10
662.8176593787418
 20
843.0325047538468
 30
-0.0000000000000284
  0
VERTEX
  5
222
330
1C2
100
AcDbEntity
  8
2D$cuna$Interiores
100
AcDbVertex
100
AcDb2dVertex
 10
661.9906098820579
 20
844.024729356027
 30
-0.0000000000000284
  0
VERTEX
  5
223
330
1C2
100
AcDbEntity
  8
2D$cuna$Interiores
100
AcDbVertex
100
AcDb2dVertex
 10
661.1373366112875
 20
844.9962219034949
 30
-0.0000000000000284
  0
VERTEX
  5
224
330
1C2
100
AcDbEntity
  8
2D$cuna$Interiores
100
AcDbVertex
100
AcDb2dVertex
 10
660.2586313302206
 20
845.945953812252
 30
-0.0000000000000284
  0
VERTEX
  5
225
330
1C2
100
AcDbEntity
  8
2D$cuna$Interiores
100
AcDbVertex
100
AcDb2dVertex
 10
659.3553390593272
 20
846.8729374932126
 30
-0.0000000000000284
  0
VERTEX
  5
226
330
1C2
100
AcDbEntity
  8
2D$cuna$Interiores
100
AcDbVertex
100
AcDb2dVertex
 10
658.4283553783665
 20
847.776229764106
 30
-0.0000000000000284
  0
VERTEX
  5
227
330
1C2
100
AcDbEntity
  8
2D$cuna$Interiores
100
AcDbVertex
100
AcDb2dVertex
 10
657.4786234696094
 20
848.6549350451729
 30
-0.0000000000000284
  0
VERTEX
  5
228
330
1C2
100
AcDbEntity
  8
2D$cuna$Interiores
100
AcDbVertex
100
AcDb2dVertex
 10
656.5071309221415
 20
849.5082083159433
 30
-0.0000000000000284
  0
VERTEX
  5
229
330
1C2
100
AcDbEntity
  8
2D$cuna$Interiores
100
AcDbVertex
100
AcDb2dVertex
 10
655.5149063199613
 20
850.3352578126273
 30
-0.0000000000000284
  0
VERTEX
  5
22A
330
1C2
100
AcDbEntity
  8
2D$cuna$Interiores
100
AcDbVertex
100
AcDb2dVertex
 10
654.503015638536
 20
851.135347448124
 30
-0.0000000000000284
  0
VERTEX
  5
22B
330
1C2
100
AcDbEntity
  8
2D$cuna$Interiores
100
AcDbVertex
100
AcDb2dVertex
 10
653.4725584761397
 20
851.9077989393357
 30
-0.0000000000000284
  0
VERTEX
  5
22C
330
1C2
100
AcDbEntity
  8
2D$cuna$Interiores
100
AcDbVertex
100
AcDb2dVertex
 10
652.4246641476249
 20
852.6519936293263
 30
-0.0000000000000284
  0
VERTEX
  5
22D
330
1C2
100
AcDbEntity
  8
2D$cuna$Interiores
100
AcDbVertex
100
AcDb2dVertex
 10
651.3604876692568
 20
853.3673739948177
 30
-0.0000000000000284
  0
VERTEX
  5
22E
330
1C2
100
AcDbEntity
  8
2D$cuna$Interiores
100
AcDbVertex
100
AcDb2dVertex
 10
650.2812056638818
 20
854.0534448325726
 30
-0.0000000000000284
  0
VERTEX
  5
22F
330
1C2
100
AcDbEntity
  8
2D$cuna$Interiores
100
AcDbVertex
100
AcDb2dVertex
 10
649.1880122159574
 20
854.7097741212567
 30
-0.0000000000000284
  0
VERTEX
  5
230
330
1C2
100
AcDbEntity
  8
2D$cuna$Interiores
100
AcDbVertex
100
AcDb2dVertex
 10
648.0821147059037
 20
855.335993558441
 30
-0.0000000000000284
  0
VERTEX
  5
231
330
1C2
100
AcDbEntity
  8
2D$cuna$Interiores
100
AcDbVertex
100
AcDb2dVertex
 10
646.9647296528
 20
855.9317987753728
 30
-0.0000000000000284
  0
VERTEX
  5
232
330
1C2
100
AcDbEntity
  8
2D$cuna$Interiores
100
AcDbVertex
100
AcDb2dVertex
 10
645.8370785936962
 20
856.496949235033
 30
-0.0000000000000284
  0
VERTEX
  5
233
330
1C2
100
AcDbEntity
  8
2D$cuna$Interiores
100
AcDbVertex
100
AcDb2dVertex
 10
644.7003840267422
 20
857.0312678217228
 30
-0.0000000000000284
  0
VERTEX
  5
234
330
1C2
100
AcDbEntity
  8
2D$cuna$Interiores
100
AcDbVertex
100
AcDb2dVertex
 10
643.5558654439859
 20
857.5346401329851
 30
-0.0000000000000284
  0
VERTEX
  5
235
330
1C2
100
AcDbEntity
  8
2D$cuna$Interiores
100
AcDbVertex
100
AcDb2dVertex
 10
642.4047354780935
 20
858.0070134870066
 30
-0.0000000000000284
  0
VERTEX
  5
236
330
1C2
100
AcDbEntity
  8
2D$cuna$Interiores
100
AcDbVertex
100
AcDb2dVertex
 10
641.248196185408
 20
858.448395660756
 30
-0.0000000000000284
  0
VERTEX
  5
237
330
1C2
100
AcDbEntity
  8
2D$cuna$Interiores
100
AcDbVertex
100
AcDb2dVertex
 10
640.0874354857638
 20
858.8588533759691
 30
-0.0000000000000284
  0
VERTEX
  5
238
330
1C2
100
AcDbEntity
  8
2D$cuna$Interiores
100
AcDbVertex
100
AcDb2dVertex
 10
638.9236237773017
 20
859.2385105516723
 30
-0.0000000000000284
  0
VERTEX
  5
239
330
1C2
100
AcDbEntity
  8
2D$cuna$Interiores
100
AcDbVertex
100
AcDb2dVertex
 10
637.7579107422685
 20
859.5875463432368
 30
-0.0000000000000284
  0
VERTEX
  5
23A
330
1C2
100
AcDbEntity
  8
2D$cuna$Interiores
100
AcDbVertex
100
AcDb2dVertex
 10
636.591422357426
 20
859.9061929889754
 30
-0.0000000000000284
  0
VERTEX
  5
23B
330
1C2
100
AcDbEntity
  8
2D$cuna$Interiores
100
AcDbVertex
100
AcDb2dVertex
 10
635.4252581203223
 20
860.1947334860223
 30
-0.0000000000000284
  0
VERTEX
  5
23C
330
1C2
100
AcDbEntity
  8
2D$cuna$Interiores
100
AcDbVertex
100
AcDb2dVertex
 10
634.2604885002796
 20
860.4534991176944
 30
-0.0000000000000284
  0
VERTEX
  5
23D
330
1C2
100
AcDbEntity
  8
2D$cuna$Interiores
100
AcDbVertex
100
AcDb2dVertex
 10
633.0981526206072
 20
860.6828668547138
 30
-0.0000000000000284
  0
VERTEX
  5
23E
330
1C2
100
AcDbEntity
  8
2D$cuna$Interiores
100
AcDbVertex
100
AcDb2dVertex
 10
631.9392561762467
 20
860.8832566526096
 30
-0.0000000000000284
  0
VERTEX
  5
23F
330
1C2
100
AcDbEntity
  8
2D$cuna$Interiores
100
AcDbVertex
100
AcDb2dVertex
 10
630.7847695888491
 20
861.0551286672973
 30
-0.0000000000000284
  0
VERTEX
  5
240
330
1C2
100
AcDbEntity
  8
2D$cuna$Interiores
100
AcDbVertex
100
AcDb2dVertex
 10
629.6356263991935
 20
861.1989804103231
 30
-0.0000000000000284
  0
VERTEX
  5
241
330
1C2
100
AcDbEntity
  8
2D$cuna$Interiores
100
AcDbVertex
100
AcDb2dVertex
 10
628.4927218948853
 20
861.3153438645292
 30
-0.0000000000000284
  0
VERTEX
  5
242
330
1C2
100
AcDbEntity
  8
2D$cuna$Interiores
100
AcDbVertex
100
AcDb2dVertex
 10
627.3569119694704
 20
861.4047825800086
 30
-0.0000000000000284
  0
VERTEX
  5
243
330
1C2
100
AcDbEntity
  8
2D$cuna$Interiores
100
AcDbVertex
100
AcDb2dVertex
 10
626.229012207433
 20
861.4678887691687
 30
-0.0000000000000284
  0
VERTEX
  5
244
330
1C2
100
AcDbEntity
  8
2D$cuna$Interiores
100
AcDbVertex
100
AcDb2dVertex
 10
625.1097971880803
 20
861.5052804185633
 30
-0.0000000000000284
  0
VERTEX
  5
245
330
1C2
100
AcDbEntity
  8
2D$cuna$Interiores
100
AcDbVertex
100
AcDb2dVertex
 10
624.0
 20
861.5175984338852
 30
-0.0000000000000284
  0
VERTEX
  5
246
330
1C2
100
AcDbEntity
  8
2D$cuna$Interiores
100
AcDbVertex
100
AcDb2dVertex
 10
99.99999999999977
 20
861.5175984338852
 30
-0.0000000000000284
  0
VERTEX
  5
247
330
1C2
100
AcDbEntity
  8
2D$cuna$Interiores
100
AcDbVertex
100
AcDb2dVertex
 10
98.89020281191952
 20
861.5052804185635
 30
-0.0000000000000284
  0
VERTEX
  5
248
330
1C2
100
AcDbEntity
  8
2D$cuna$Interiores
100
AcDbVertex
100
AcDb2dVertex
 10
97.77098779256686
 20
861.4678887691686
 30
-0.0000000000000284
  0
VERTEX
  5
249
330
1C2
100
AcDbEntity
  8
2D$cuna$Interiores
100
AcDbVertex
100
AcDb2dVertex
 10
96.64308803052955
 20
861.4047825800086
 30
-0.0000000000000284
  0
VERTEX
  5
24A
330
1C2
100
AcDbEntity
  8
2D$cuna$Interiores
100
AcDbVertex
100
AcDb2dVertex
 10
95.50727810511452
 20
861.315343864529
 30
-0.0000000000000284
  0
VERTEX
  5
24B
330
1C2
100
AcDbEntity
  8
2D$cuna$Interiores
100
AcDbVertex
100
AcDb2dVertex
 10
94.36437360080636
 20
861.1989804103229
 30
-0.0000000000000284
  0
VERTEX
  5
24C
330
1C2
100
AcDbEntity
  8
2D$cuna$Interiores
100
AcDbVertex
100
AcDb2dVertex
 10
93.21523041115047
 20
861.0551286672973
 30
-0.0000000000000284
  0
VERTEX
  5
24D
330
1C2
100
AcDbEntity
  8
2D$cuna$Interiores
100
AcDbVertex
100
AcDb2dVertex
 10
92.06074382375299
 20
860.8832566526096
 30
-0.0000000000000284
  0
VERTEX
  5
24E
330
1C2
100
AcDbEntity
  8
2D$cuna$Interiores
100
AcDbVertex
100
AcDb2dVertex
 10
90.90184737939252
 20
860.6828668547139
 30
-0.0000000000000284
  0
VERTEX
  5
24F
330
1C2
100
AcDbEntity
  8
2D$cuna$Interiores
100
AcDbVertex
100
AcDb2dVertex
 10
89.73951149972022
 20
860.4534991176943
 30
-0.0000000000000284
  0
VERTEX
  5
250
330
1C2
100
AcDbEntity
  8
2D$cuna$Interiores
100
AcDbVertex
100
AcDb2dVertex
 10
88.57474187967745
 20
860.1947334860224
 30
-0.0000000000000284
  0
VERTEX
  5
251
330
1C2
100
AcDbEntity
  8
2D$cuna$Interiores
100
AcDbVertex
100
AcDb2dVertex
 10
87.40857764257372
 20
859.9061929889756
 30
-0.0000000000000284
  0
VERTEX
  5
252
330
1C2
100
AcDbEntity
  8
2D$cuna$Interiores
100
AcDbVertex
100
AcDb2dVertex
 10
86.24208925773128
 20
859.5875463432367
 30
-0.0000000000000284
  0
VERTEX
  5
253
330
1C2
100
AcDbEntity
  8
2D$cuna$Interiores
100
AcDbVertex
100
AcDb2dVertex
 10
85.0763762226979
 20
859.2385105516721
 30
-0.0000000000000284
  0
VERTEX
  5
254
330
1C2
100
AcDbEntity
  8
2D$cuna$Interiores
100
AcDbVertex
100
AcDb2dVertex
 10
83.91256451423578
 20
858.8588533759689
 30
-0.0000000000000284
  0
VERTEX
  5
255
330
1C2
100
AcDbEntity
  8
2D$cuna$Interiores
100
AcDbVertex
100
AcDb2dVertex
 10
82.75180381459145
 20
858.448395660756
 30
-0.0000000000000284
  0
VERTEX
  5
256
330
1C2
100
AcDbEntity
  8
2D$cuna$Interiores
100
AcDbVertex
100
AcDb2dVertex
 10
81.59526452190612
 20
858.0070134870068
 30
-0.0000000000000284
  0
VERTEX
  5
257
330
1C2
100
AcDbEntity
  8
2D$cuna$Interiores
100
AcDbVertex
100
AcDb2dVertex
 10
80.44413455601368
 20
857.5346401329854
 30
-0.0000000000000284
  0
VERTEX
  5
258
330
1C2
100
AcDbEntity
  8
2D$cuna$Interiores
100
AcDbVertex
100
AcDb2dVertex
 10
79.29961597325745
 20
857.031267821723
 30
-0.0000000000000284
  0
VERTEX
  5
259
330
1C2
100
AcDbEntity
  8
2D$cuna$Interiores
100
AcDbVertex
100
AcDb2dVertex
 10
78.16292140630325
 20
856.4969492350333
 30
-0.0000000000000284
  0
VERTEX
  5
25A
330
1C2
100
AcDbEntity
  8
2D$cuna$Interiores
100
AcDbVertex
100
AcDb2dVertex
 10
77.03527034719959
 20
855.9317987753731
 30
-0.0000000000000284
  0
VERTEX
  5
25B
330
1C2
100
AcDbEntity
  8
2D$cuna$Interiores
100
AcDbVertex
100
AcDb2dVertex
 10
75.91788529409595
 20
855.3359935584413
 30
-0.0000000000000284
  0
VERTEX
  5
25C
330
1C2
100
AcDbEntity
  8
2D$cuna$Interiores
100
AcDbVertex
100
AcDb2dVertex
 10
74.81198778404217
 20
854.7097741212568
 30
-0.0000000000000284
  0
VERTEX
  5
25D
330
1C2
100
AcDbEntity
  8
2D$cuna$Interiores
100
AcDbVertex
100
AcDb2dVertex
 10
73.71879433611768
 20
854.0534448325728
 30
-0.0000000000000284
  0
VERTEX
  5
25E
330
1C2
100
AcDbEntity
  8
2D$cuna$Interiores
100
AcDbVertex
100
AcDb2dVertex
 10
72.6395123307426
 20
853.3673739948177
 30
-0.0000000000000284
  0
VERTEX
  5
25F
330
1C2
100
AcDbEntity
  8
2D$cuna$Interiores
100
AcDbVertex
100
AcDb2dVertex
 10
71.57533585237464
 20
852.6519936293262
 30
-0.0000000000000284
  0
VERTEX
  5
260
330
1C2
100
AcDbEntity
  8
2D$cuna$Interiores
100
AcDbVertex
100
AcDb2dVertex
 10
70.52744152385965
 20
851.9077989393357
 30
-0.0000000000000284
  0
VERTEX
  5
261
330
1C2
100
AcDbEntity
  8
2D$cuna$Interiores
100
AcDbVertex
100
AcDb2dVertex
 10
69.49698436146356
 20
851.1353474481241
 30
-0.0000000000000284
  0
VERTEX
  5
262
330
1C2
100
AcDbEntity
  8
2D$cuna$Interiores
100
AcDbVertex
100
AcDb2dVertex
 10
68.48509368003822
 20
850.3352578126276
 30
-0.0000000000000284
  0
VERTEX
  5
263
330
1C2
100
AcDbEntity
  8
2D$cuna$Interiores
100
AcDbVertex
100
AcDb2dVertex
 10
67.49286907785797
 20
849.5082083159435
 30
-0.0000000000000284
  0
VERTEX
  5
264
330
1C2
100
AcDbEntity
  8
2D$cuna$Interiores
100
AcDbVertex
100
AcDb2dVertex
 10
66.52137653039004
 20
848.6549350451731
 30
-0.0000000000000284
  0
VERTEX
  5
265
330
1C2
100
AcDbEntity
  8
2D$cuna$Interiores
100
AcDbVertex
100
AcDb2dVertex
 10
65.57164462163287
 20
847.7762297641061
 30
-0.0000000000000284
  0
VERTEX
  5
266
330
1C2
100
AcDbEntity
  8
2D$cuna$Interiores
100
AcDbVertex
100
AcDb2dVertex
 10
64.64466094067237
 20
846.8729374932126
 30
-0.0000000000000284
  0
VERTEX
  5
267
330
1C2
100
AcDbEntity
  8
2D$cuna$Interiores
100
AcDbVertex
100
AcDb2dVertex
 10
63.74136866977883
 20
845.9459538122521
 30
-0.0000000000000284
  0
VERTEX
  5
268
330
1C2
100
AcDbEntity
  8
2D$cuna$Interiores
100
AcDbVertex
100
AcDb2dVertex
 10
62.86266338871192
 20
844.996221903495
 30
-0.0000000000000284
  0
VERTEX
  5
269
330
1C2
100
AcDbEntity
  8
2D$cuna$Interiores
100
AcDbVertex
100
AcDb2dVertex
 10
62.00939011794159
 20
844.0247293560271
 30
-0.0000000000000284
  0
VERTEX
  5
26A
330
1C2
100
AcDbEntity
  8
2D$cuna$Interiores
100
AcDbVertex
100
AcDb2dVertex
 10
61.18234062125758
 20
843.0325047538469
 30
-0.0000000000000284
  0
VERTEX
  5
26B
330
1C2
100
AcDbEntity
  8
2D$cuna$Interiores
100
AcDbVertex
100
AcDb2dVertex
 10
60.38225098576097
 20
842.0206140724215
 30
-0.0000000000000284
  0
VERTEX
  5
26C
330
1C2
100
AcDbEntity
  8
2D$cuna$Interiores
100
AcDbVertex
100
AcDb2dVertex
 10
59.60979949454912
 20
840.9901569100252
 30
-0.0000000000000284
  0
VERTEX
  5
26D
330
1C2
100
AcDbEntity
  8
2D$cuna$Interiores
100
AcDbVertex
100
AcDb2dVertex
 10
58.86560480455879
 20
839.9422625815104
 30
-0.0000000000000284
  0
VERTEX
  5
26E
330
1C2
100
AcDbEntity
  8
2D$cuna$Interiores
100
AcDbVertex
100
AcDb2dVertex
 10
58.15022443906717
 20
838.8780861031423
 30
-0.0000000000000284
  0
VERTEX
  5
26F
330
1C2
100
AcDbEntity
  8
2D$cuna$Interiores
100
AcDbVertex
100
AcDb2dVertex
 10
57.46415360131229
 20
837.7988040977675
 30
-0.0000000000000284
  0
VERTEX
  5
270
330
1C2
100
AcDbEntity
  8
2D$cuna$Interiores
100
AcDbVertex
100
AcDb2dVertex
 10
56.80782431262816
 20
836.7056106498428
 30
-0.0000000000000284
  0
VERTEX
  5
271
330
1C2
100
AcDbEntity
  8
2D$cuna$Interiores
100
AcDbVertex
100
AcDb2dVertex
 10
56.18160487544399
 20
835.5997131397893
 30
-0.0000000000000284
  0
VERTEX
  5
272
330
1C2
100
AcDbEntity
  8
2D$cuna$Interiores
100
AcDbVertex
100
AcDb2dVertex
 10
55.5857996585121
 20
834.4823280866856
 30
-0.0000000000000284
  0
VERTEX
  5
273
330
1C2
100
AcDbEntity
  8
2D$cuna$Interiores
100
AcDbVertex
100
AcDb2dVertex
 10
55.02064919885187
 20
833.3546770275819
 30
-0.0000000000000284
  0
VERTEX
  5
274
330
1C2
100
AcDbEntity
  8
2D$cuna$Interiores
100
AcDbVertex
100
AcDb2dVertex
 10
54.48633061216208
 20
832.2179824606277
 30
-0.0000000000000284
  0
VERTEX
  5
275
330
1C2
100
AcDbEntity
  8
2D$cuna$Interiores
100
AcDbVertex
100
AcDb2dVertex
 10
53.98295830089971
 20
831.0734638778714
 30
-0.0000000000000284
  0
VERTEX
  5
276
330
1C2
100
AcDbEntity
  8
2D$cuna$Interiores
100
AcDbVertex
100
AcDb2dVertex
 10
53.51058494687824
 20
829.922333911979
 30
-0.0000000000000284
  0
VERTEX
  5
277
330
1C2
100
AcDbEntity
  8
2D$cuna$Interiores
100
AcDbVertex
100
AcDb2dVertex
 10
53.06920277312892
 20
828.7657946192934
 30
-0.0000000000000284
  0
VERTEX
  5
278
330
1C2
100
AcDbEntity
  8
2D$cuna$Interiores
100
AcDbVertex
100
AcDb2dVertex
 10
52.65874505791585
 20
827.6050339196489
 30
-0.0000000000000284
  0
VERTEX
  5
279
330
1C2
100
AcDbEntity
  8
2D$cuna$Interiores
100
AcDbVertex
100
AcDb2dVertex
 10
52.27908788221274
 20
826.4412222111869
 30
-0.0000000000000284
  0
VERTEX
  5
27A
330
1C2
100
AcDbEntity
  8
2D$cuna$Interiores
100
AcDbVertex
100
AcDb2dVertex
 10
51.93005209064818
 20
825.2755091761536
 30
-0.0000000000000284
  0
VERTEX
  5
27B
330
1C2
100
AcDbEntity
  8
2D$cuna$Interiores
100
AcDbVertex
100
AcDb2dVertex
 10
51.6114054449095
 20
824.1090207913113
 30
-0.0000000000000284
  0
VERTEX
  5
27C
330
1C2
100
AcDbEntity
  8
2D$cuna$Interiores
100
AcDbVertex
100
AcDb2dVertex
 10
51.3228649478625
 20
822.9428565542074
 30
-0.0000000000000284
  0
VERTEX
  5
27D
330
1C2
100
AcDbEntity
  8
2D$cuna$Interiores
100
AcDbVertex
100
AcDb2dVertex
 10
51.06409931619061
 20
821.7780869341647
 30
-0.0000000000000284
  0
VERTEX
  5
27E
330
1C2
100
AcDbEntity
  8
2D$cuna$Interiores
100
AcDbVertex
100
AcDb2dVertex
 10
50.83473157917103
 20
820.6157510544924
 30
-0.0000000000000284
  0
VERTEX
  5
27F
330
1C2
100
AcDbEntity
  8
2D$cuna$Interiores
100
AcDbVertex
100
AcDb2dVertex
 10
50.6343417812752
 20
819.4568546101318
 30
-0.0000000000000284
  0
VERTEX
  5
280
330
1C2
100
AcDbEntity
  8
2D$cuna$Interiores
100
AcDbVertex
100
AcDb2dVertex
 10
50.46246976658758
 20
818.3023680227344
 30
-0.0000000000000284
  0
VERTEX
  5
281
330
1C2
100
AcDbEntity
  8
2D$cuna$Interiores
100
AcDbVertex
100
AcDb2dVertex
 10
50.318618023562
 20
817.1532248330785
 30
-0.0000000000000284
  0
VERTEX
  5
282
330
1C2
100
AcDbEntity
  8
2D$cuna$Interiores
100
AcDbVertex
100
AcDb2dVertex
 10
50.20225456935583
 20
816.0103203287704
 30
-0.0000000000000284
  0
VERTEX
  5
283
330
1C2
100
AcDbEntity
  8
2D$cuna$Interiores
100
AcDbVertex
100
AcDb2dVertex
 10
50.11281585387636
 20
814.8745104033554
 30
-0.0000000000000284
  0
VERTEX
  5
284
330
1C2
100
AcDbEntity
  8
2D$cuna$Interiores
100
AcDbVertex
100
AcDb2dVertex
 10
50.04970966471627
 20
813.746610641318
 30
-0.0000000000000284
  0
VERTEX
  5
285
330
1C2
100
AcDbEntity
  8
2D$cuna$Interiores
100
AcDbVertex
100
AcDb2dVertex
 10
50.0123180153215
 20
812.6273956219655
 30
-0.0000000000000284
  0
VERTEX
  5
286
330
1C2
100
AcDbEntity
  8
2D$cuna$Interiores
100
AcDbVertex
100
AcDb2dVertex
 10
49.99999999999977
 20
811.5175984338852
 30
-0.0000000000000284
  0
VERTEX
  5
287
330
1C2
100
AcDbEntity
  8
2D$cuna$Interiores
100
AcDbVertex
100
AcDb2dVertex
 10
49.99999999999966
 20
671.5175984338852
 30
-0.0000000000000284
  0
VERTEX
  5
288
330
1C2
100
AcDbEntity
  8
2D$cuna$Interiores
100
AcDbVertex
100
AcDb2dVertex
 10
50.01231801532138
 20
670.4078012458049
 30
-0.0000000000000284
  0
VERTEX
  5
289
330
1C2
100
AcDbEntity
  8
2D$cuna$Interiores
100
AcDbVertex
100
AcDb2dVertex
 10
50.04970966471617
 20
669.2885862264524
 30
-0.0000000000000284
  0
VERTEX
  5
28A
330
1C2
100
AcDbEntity
  8
2D$cuna$Interiores
100
AcDbVertex
100
AcDb2dVertex
 10
50.11281585387625
 20
668.1606864644149
 30
-0.0000000000000284
  0
VERTEX
  5
28B
330
1C2
100
AcDbEntity
  8
2D$cuna$Interiores
100
AcDbVertex
100
AcDb2dVertex
 10
50.20225456935573
 20
667.0248765389998
 30
-0.0000000000000284
  0
VERTEX
  5
28C
330
1C2
100
AcDbEntity
  8
2D$cuna$Interiores
100
AcDbVertex
100
AcDb2dVertex
 10
50.31861802356191
 20
665.8819720346918
 30
-0.0000000000000284
  0
VERTEX
  5
28D
330
1C2
100
AcDbEntity
  8
2D$cuna$Interiores
100
AcDbVertex
100
AcDb2dVertex
 10
50.46246976658749
 20
664.7328288450359
 30
-0.0000000000000284
  0
VERTEX
  5
28E
330
1C2
100
AcDbEntity
  8
2D$cuna$Interiores
100
AcDbVertex
100
AcDb2dVertex
 10
50.63434178127511
 20
663.5783422576384
 30
-0.0000000000000284
  0
VERTEX
  5
28F
330
1C2
100
AcDbEntity
  8
2D$cuna$Interiores
100
AcDbVertex
100
AcDb2dVertex
 10
50.83473157917095
 20
662.4194458132779
 30
-0.0000000000000284
  0
VERTEX
  5
290
330
1C2
100
AcDbEntity
  8
2D$cuna$Interiores
100
AcDbVertex
100
AcDb2dVertex
 10
51.06409931619054
 20
661.2571099336056
 30
-0.0000000000000284
  0
VERTEX
  5
291
330
1C2
100
AcDbEntity
  8
2D$cuna$Interiores
100
AcDbVertex
100
AcDb2dVertex
 10
51.32286494786243
 20
660.092340313563
 30
-0.0000000000000284
  0
VERTEX
  5
292
330
1C2
100
AcDbEntity
  8
2D$cuna$Interiores
100
AcDbVertex
100
AcDb2dVertex
 10
51.61140544490942
 20
658.9261760764592
 30
-0.0000000000000284
  0
VERTEX
  5
293
330
1C2
100
AcDbEntity
  8
2D$cuna$Interiores
100
AcDbVertex
100
AcDb2dVertex
 10
51.93005209064811
 20
657.7596876916168
 30
-0.0000000000000284
  0
VERTEX
  5
294
330
1C2
100
AcDbEntity
  8
2D$cuna$Interiores
100
AcDbVertex
100
AcDb2dVertex
 10
52.27908788221267
 20
656.5939746565833
 30
-0.0000000000000284
  0
VERTEX
  5
295
330
1C2
100
AcDbEntity
  8
2D$cuna$Interiores
100
AcDbVertex
100
AcDb2dVertex
 10
52.65874505791579
 20
655.4301629481214
 30
-0.0000000000000284
  0
VERTEX
  5
296
330
1C2
100
AcDbEntity
  8
2D$cuna$Interiores
100
AcDbVertex
100
AcDb2dVertex
 10
53.06920277312884
 20
654.2694022484768
 30
-0.0000000000000284
  0
VERTEX
  5
297
330
1C2
100
AcDbEntity
  8
2D$cuna$Interiores
100
AcDbVertex
100
AcDb2dVertex
 10
53.51058494687815
 20
653.1128629557916
 30
-0.0000000000000284
  0
VERTEX
  5
298
330
1C2
100
AcDbEntity
  8
2D$cuna$Interiores
100
AcDbVertex
100
AcDb2dVertex
 10
53.98295830089965
 20
651.9617329898994
 30
-0.0000000000000284
  0
VERTEX
  5
299
330
1C2
100
AcDbEntity
  8
2D$cuna$Interiores
100
AcDbVertex
100
AcDb2dVertex
 10
54.48633061216199
 20
650.8172144071431
 30
-0.0000000000000284
  0
VERTEX
  5
29A
330
1C2
100
AcDbEntity
  8
2D$cuna$Interiores
100
AcDbVertex
100
AcDb2dVertex
 10
55.02064919885179
 20
649.6805198401888
 30
-0.0000000000000284
  0
VERTEX
  5
29B
330
1C2
100
AcDbEntity
  8
2D$cuna$Interiores
100
AcDbVertex
100
AcDb2dVertex
 10
55.58579965851203
 20
648.5528687810852
 30
-0.0000000000000284
  0
VERTEX
  5
29C
330
1C2
100
AcDbEntity
  8
2D$cuna$Interiores
100
AcDbVertex
100
AcDb2dVertex
 10
56.18160487544393
 20
647.4354837279817
 30
-0.0000000000000284
  0
VERTEX
  5
29D
330
1C2
100
AcDbEntity
  8
2D$cuna$Interiores
100
AcDbVertex
100
AcDb2dVertex
 10
56.8078243126281
 20
646.3295862179278
 30
-0.0000000000000284
  0
VERTEX
  5
29E
330
1C2
100
AcDbEntity
  8
2D$cuna$Interiores
100
AcDbVertex
100
AcDb2dVertex
 10
57.46415360131222
 20
645.2363927700032
 30
-0.0000000000000284
  0
VERTEX
  5
29F
330
1C2
100
AcDbEntity
  8
2D$cuna$Interiores
100
AcDbVertex
100
AcDb2dVertex
 10
58.1502244390671
 20
644.1571107646282
 30
-0.0000000000000284
  0
VERTEX
  5
2A0
330
1C2
100
AcDbEntity
  8
2D$cuna$Interiores
100
AcDbVertex
100
AcDb2dVertex
 10
58.86560480455872
 20
643.0929342862603
 30
-0.0000000000000284
  0
VERTEX
  5
2A1
330
1C2
100
AcDbEntity
  8
2D$cuna$Interiores
100
AcDbVertex
100
AcDb2dVertex
 10
59.60979949454905
 20
642.0450399577454
 30
-0.0000000000000284
  0
VERTEX
  5
2A2
330
1C2
100
AcDbEntity
  8
2D$cuna$Interiores
100
AcDbVertex
100
AcDb2dVertex
 10
60.38225098576091
 20
641.0145827953494
 30
-0.0000000000000284
  0
VERTEX
  5
2A3
330
1C2
100
AcDbEntity
  8
2D$cuna$Interiores
100
AcDbVertex
100
AcDb2dVertex
 10
61.18234062125751
 20
640.0026921139239
 30
-0.0000000000000284
  0
VERTEX
  5
2A4
330
1C2
100
AcDbEntity
  8
2D$cuna$Interiores
100
AcDbVertex
100
AcDb2dVertex
 10
62.00939011794152
 20
639.0104675117436
 30
-0.0000000000000284
  0
VERTEX
  5
2A5
330
1C2
100
AcDbEntity
  8
2D$cuna$Interiores
100
AcDbVertex
100
AcDb2dVertex
 10
62.86266338871183
 20
638.0389749642757
 30
-0.0000000000000284
  0
VERTEX
  5
2A6
330
1C2
100
AcDbEntity
  8
2D$cuna$Interiores
100
AcDbVertex
100
AcDb2dVertex
 10
63.74136866977875
 20
637.0892430555184
 30
-0.0000000000000284
  0
VERTEX
  5
2A7
330
1C2
100
AcDbEntity
  8
2D$cuna$Interiores
100
AcDbVertex
100
AcDb2dVertex
 10
64.64466094067228
 20
636.162259374558
 30
-0.0000000000000284
  0
VERTEX
  5
2A8
330
1C2
100
AcDbEntity
  8
2D$cuna$Interiores
100
AcDbVertex
100
AcDb2dVertex
 10
65.57164462163279
 20
635.2589671036644
 30
-0.0000000000000284
  0
VERTEX
  5
2A9
330
1C2
100
AcDbEntity
  8
2D$cuna$Interiores
100
AcDbVertex
100
AcDb2dVertex
 10
66.52137653038994
 20
634.3802618225975
 30
-0.0000000000000284
  0
VERTEX
  5
2AA
330
1C2
100
AcDbEntity
  8
2D$cuna$Interiores
100
AcDbVertex
100
AcDb2dVertex
 10
67.49286907785789
 20
633.5269885518272
 30
-0.0000000000000284
  0
VERTEX
  5
2AB
330
1C2
100
AcDbEntity
  8
2D$cuna$Interiores
100
AcDbVertex
100
AcDb2dVertex
 10
68.48509368003813
 20
632.6999390551432
 30
-0.0000000000000284
  0
VERTEX
  5
2AC
330
1C2
100
AcDbEntity
  8
2D$cuna$Interiores
100
AcDbVertex
100
AcDb2dVertex
 10
69.49698436146348
 20
631.8998494196468
 30
-0.0000000000000284
  0
VERTEX
  5
2AD
330
1C2
100
AcDbEntity
  8
2D$cuna$Interiores
100
AcDbVertex
100
AcDb2dVertex
 10
70.52744152385957
 20
631.1273979284348
 30
-0.0000000000000284
  0
VERTEX
  5
2AE
330
1C2
100
AcDbEntity
  8
2D$cuna$Interiores
100
AcDbVertex
100
AcDb2dVertex
 10
71.57533585237454
 20
630.3832032384444
 30
-0.0000000000000284
  0
VERTEX
  5
2AF
330
1C2
100
AcDbEntity
  8
2D$cuna$Interiores
100
AcDbVertex
100
AcDb2dVertex
 10
72.6395123307425
 20
629.6678228729528
 30
-0.0000000000000284
  0
VERTEX
  5
2B0
330
1C2
100
AcDbEntity
  8
2D$cuna$Interiores
100
AcDbVertex
100
AcDb2dVertex
 10
73.71879433611755
 20
628.9817520351979
 30
-0.0000000000000284
  0
VERTEX
  5
2B1
330
1C2
100
AcDbEntity
  8
2D$cuna$Interiores
100
AcDbVertex
100
AcDb2dVertex
 10
74.81198778404206
 20
628.3254227465138
 30
-0.0000000000000284
  0
VERTEX
  5
2B2
330
1C2
100
AcDbEntity
  8
2D$cuna$Interiores
100
AcDbVertex
100
AcDb2dVertex
 10
75.91788529409581
 20
627.6992033093297
 30
-0.0000000000000284
  0
VERTEX
  5
2B3
330
1C2
100
AcDbEntity
  8
2D$cuna$Interiores
100
AcDbVertex
100
AcDb2dVertex
 10
77.03527034719944
 20
627.1033980923977
 30
-0.0000000000000284
  0
VERTEX
  5
2B4
330
1C2
100
AcDbEntity
  8
2D$cuna$Interiores
100
AcDbVertex
100
AcDb2dVertex
 10
78.1629214063031
 20
626.5382476327375
 30
-0.0000000000000284
  0
VERTEX
  5
2B5
330
1C2
100
AcDbEntity
  8
2D$cuna$Interiores
100
AcDbVertex
100
AcDb2dVertex
 10
79.29961597325729
 20
626.0039290460477
 30
-0.0000000000000284
  0
VERTEX
  5
2B6
330
1C2
100
AcDbEntity
  8
2D$cuna$Interiores
100
AcDbVertex
100
AcDb2dVertex
 10
80.44413455601355
 20
625.5005567347854
 30
-0.0000000000000284
  0
VERTEX
  5
2B7
330
1C2
100
AcDbEntity
  8
2D$cuna$Interiores
100
AcDbVertex
100
AcDb2dVertex
 10
81.59526452190595
 20
625.0281833807637
 30
-0.0000000000000284
  0
VERTEX
  5
2B8
330
1C2
100
AcDbEntity
  8
2D$cuna$Interiores
100
AcDbVertex
100
AcDb2dVertex
 10
82.75180381459131
 20
624.5868012070143
 30
-0.0000000000000284
  0
VERTEX
  5
2B9
330
1C2
100
AcDbEntity
  8
2D$cuna$Interiores
100
AcDbVertex
100
AcDb2dVertex
 10
83.91256451423564
 20
624.1763434918014
 30
-0.0000000000000284
  0
VERTEX
  5
2BA
330
1C2
100
AcDbEntity
  8
2D$cuna$Interiores
100
AcDbVertex
100
AcDb2dVertex
 10
85.07637622269773
 20
623.7966863160982
 30
-0.0000000000000284
  0
VERTEX
  5
2BB
330
1C2
100
AcDbEntity
  8
2D$cuna$Interiores
100
AcDbVertex
100
AcDb2dVertex
 10
86.24208925773111
 20
623.4476505245337
 30
-0.0000000000000284
  0
VERTEX
  5
2BC
330
1C2
100
AcDbEntity
  8
2D$cuna$Interiores
100
AcDbVertex
100
AcDb2dVertex
 10
87.4085776425735
 20
623.1290038787951
 30
-0.0000000000000284
  0
VERTEX
  5
2BD
330
1C2
100
AcDbEntity
  8
2D$cuna$Interiores
100
AcDbVertex
100
AcDb2dVertex
 10
88.57474187967726
 20
622.8404633817481
 30
-0.0000000000000284
  0
VERTEX
  5
2BE
330
1C2
100
AcDbEntity
  8
2D$cuna$Interiores
100
AcDbVertex
100
AcDb2dVertex
 10
89.73951149972004
 20
622.581697750076
 30
-0.0000000000000284
  0
VERTEX
  5
2BF
330
1C2
100
AcDbEntity
  8
2D$cuna$Interiores
100
AcDbVertex
100
AcDb2dVertex
 10
90.90184737939232
 20
622.3523300130564
 30
-0.0000000000000284
  0
VERTEX
  5
2C0
330
1C2
100
AcDbEntity
  8
2D$cuna$Interiores
100
AcDbVertex
100
AcDb2dVertex
 10
92.06074382375279
 20
622.1519402151606
 30
-0.0000000000000284
  0
VERTEX
  5
2C1
330
1C2
100
AcDbEntity
  8
2D$cuna$Interiores
100
AcDbVertex
100
AcDb2dVertex
 10
93.21523041115027
 20
621.980068200473
 30
-0.0000000000000284
  0
VERTEX
  5
2C2
330
1C2
100
AcDbEntity
  8
2D$cuna$Interiores
100
AcDbVertex
100
AcDb2dVertex
 10
94.36437360080616
 20
621.8362164574474
 30
-0.0000000000000284
  0
VERTEX
  5
2C3
330
1C2
100
AcDbEntity
  8
2D$cuna$Interiores
100
AcDbVertex
100
AcDb2dVertex
 10
95.50727810511431
 20
621.7198530032412
 30
-0.0000000000000284
  0
VERTEX
  5
2C4
330
1C2
100
AcDbEntity
  8
2D$cuna$Interiores
100
AcDbVertex
100
AcDb2dVertex
 10
96.64308803052933
 20
621.6304142877617
 30
-0.0000000000000284
  0
VERTEX
  5
2C5
330
1C2
100
AcDbEntity
  8
2D$cuna$Interiores
100
AcDbVertex
100
AcDb2dVertex
 10
97.77098779256666
 20
621.5673080986018
 30
-0.0000000000000284
  0
VERTEX
  5
2C6
330
1C2
100
AcDbEntity
  8
2D$cuna$Interiores
100
AcDbVertex
100
AcDb2dVertex
 10
98.89020281191928
 20
621.5299164492068
 30
-0.0000000000000284
  0
VERTEX
  5
2C7
330
1C2
100
AcDbEntity
  8
2D$cuna$Interiores
100
AcDbVertex
100
AcDb2dVertex
 10
99.99999999999955
 20
621.5175984338852
 30
-0.0000000000000284
  0
SEQEND
  5
2C8
330
1C2
100
AcDbEntity
  8
2D$cuna$Interiores
  0
POLYLINE
  5
2C9
330
1F
100
AcDbEntity
  8
2D$cuna
100
AcDb2dPolyline
 66
     1
 10
0.0
 20
0.0
 30
0.0
  0
VERTEX
  5
2CA
330
2C9
100
AcDbEntity
  8
2D$cuna
100
AcDbVertex
100
AcDb2dVertex
 10
-0.0000000000002274
 20
491.5175984338853
 30
0.0
  0
VERTEX
  5
2CB
330
2C9
100
AcDbEntity
  8
2D$cuna
100
AcDbVertex
100
AcDb2dVertex
 10
723.9999999999998
 20
491.5175984338852
 30
0.0
  0
VERTEX
  5
2CC
330
2C9
100
AcDbEntity
  8
2D$cuna
100
AcDbVertex
100
AcDb2dVertex
 10
723.9999999999997
 20
541.5175984338852
 30
0.0
  0
VERTEX
  5
2CD
330
2C9
100
AcDbEntity
  8
2D$cuna
100
AcDbVertex
100
AcDb2dVertex
 10
733.9999999999997
 20
541.5175984338852
 30
0.0
  0
VERTEX
  5
2CE
330
2C9
100
AcDbEntity
  8
2D$cuna
100
AcDbVertex
100
AcDb2dVertex
 10
733.9999999999997
 20
591.5175984338852
 30
0.0
  0
VERTEX
  5
2CF
330
2C9
100
AcDbEntity
  8
2D$cuna
100
AcDbVertex
100
AcDb2dVertex
 10
723.9999999999997
 20
591.5175984338852
 30
0.0
  0
VERTEX
  5
2D0
330
2C9
100
AcDbEntity
  8
2D$cuna
100
AcDbVertex
100
AcDb2dVertex
 10
723.9999999999997
 20
641.5175984338852
 30
0.0
  0
VERTEX
  5
2D1
330
2C9
100
AcDbEntity
  8
2D$cuna
100
AcDbVertex
100
AcDb2dVertex
 10
733.9999999999997
 20
641.5175984338852
 30
0.0
  0
VERTEX
  5
2D2
330
2C9
100
AcDbEntity
  8
2D$cuna
100
AcDbVertex
100
AcDb2dVertex
 10
733.9999999999997
 20
691.5175984338852
 30
0.0
  0
VERTEX
  5
2D3
330
2C9
100
AcDbEntity
  8
2D$cuna
100
AcDbVertex
100
AcDb2dVertex
 10
723.9999999999997
 20
691.5175984338852
 30
0.0
  0
VERTEX
  5
2D4
330
2C9
100
AcDbEntity
  8
2D$cuna
100
AcDbVertex
100
AcDb2dVertex
 10
723.9999999999997
 20
741.5175984338852
 30
0.0
  0
VERTEX
  5
2D5
330
2C9
100
AcDbEntity
  8
2D$cuna
100
AcDbVertex
100
AcDb2dVertex
 10
733.9999999999997
 20
741.5175984338852
 30
0.0
  0
VERTEX
  5
2D6
330
2C9
100
AcDbEntity
  8
2D$cuna
100
AcDbVertex
100
AcDb2dVertex
 10
733.9999999999998
 20
791.5175984338852
 30
0.0
  0
VERTEX
  5
2D7
330
2C9
100
AcDbEntity
  8
2D$cuna
100
AcDbVertex
100
AcDb2dVertex
 10
723.9999999999998
 20
791.5175984338852
 30
0.0
  0
VERTEX
  5
2D8
330
2C9
100
AcDbEntity
  8
2D$cuna
100
AcDbVertex
100
AcDb2dVertex
 10
723.9999999999998
 20
841.5175984338852
 30
0.0
  0
VERTEX
  5
2D9
330
2C9
100
AcDbEntity
  8
2D$cuna
100
AcDbVertex
100
AcDb2dVertex
 10
733.9999999999998
 20
841.5175984338852
 30
0.0
  0
VERTEX
  5
2DA
330
2C9
100
AcDbEntity
  8
2D$cuna
100
AcDbVertex
100
AcDb2dVertex
 10
733.9999999999998
 20
891.5175984338852
 30
0.0
  0
VERTEX
  5
2DB
330
2C9
100
AcDbEntity
  8
2D$cuna
100
AcDbVertex
100
AcDb2dVertex
 10
723.9999999999998
 20
891.5175984338852
 30
0.0
  0
VERTEX
  5
2DC
330
2C9
100
AcDbEntity
  8
2D$cuna
100
AcDbVertex
100
AcDb2dVertex
 10
-0.0000000000002274
 20
891.5175984338853
 30
0.0
  0
VERTEX
  5
2DD
330
2C9
100
AcDbEntity
  8
2D$cuna
100
AcDbVertex
100
AcDb2dVertex
 10
-10.00000000000023
 20
891.5175984338853
 30
0.0
  0
VERTEX
  5
2DE
330
2C9
100
AcDbEntity
  8
2D$cuna
100
AcDbVertex
100
AcDb2dVertex
 10
-10.00000000000023
 20
841.5175984338853
 30
0.0
  0
VERTEX
  5
2DF
330
2C9
100
AcDbEntity
  8
2D$cuna
100
AcDbVertex
100
AcDb2dVertex
 10
-0.0000000000002274
 20
841.5175984338853
 30
0.0
  0
VERTEX
  5
2E0
330
2C9
100
AcDbEntity
  8
2D$cuna
100
AcDbVertex
100
AcDb2dVertex
 10
-0.0000000000002274
 20
791.5175984338853
 30
0.0
  0
VERTEX
  5
2E1
330
2C9
100
AcDbEntity
  8
2D$cuna
100
AcDbVertex
100
AcDb2dVertex
 10
-10.00000000000023
 20
791.5175984338853
 30
0.0
  0
VERTEX
  5
2E2
330
2C9
100
AcDbEntity
  8
2D$cuna
100
AcDbVertex
100
AcDb2dVertex
 10
-10.00000000000034
 20
741.5175984338853
 30
0.0
  0
VERTEX
  5
2E3
330
2C9
100
AcDbEntity
  8
2D$cuna
100
AcDbVertex
100
AcDb2dVertex
 10
-0.0000000000003411
 20
741.5175984338853
 30
0.0
  0
VERTEX
  5
2E4
330
2C9
100
AcDbEntity
  8
2D$cuna
100
AcDbVertex
100
AcDb2dVertex
 10
-0.0000000000003411
 20
691.5175984338853
 30
0.0
  0
VERTEX
  5
2E5
330
2C9
100
AcDbEntity
  8
2D$cuna
100
AcDbVertex
100
AcDb2dVertex
 10
-10.00000000000034
 20
691.5175984338853
 30
0.0
  0
VERTEX
  5
2E6
330
2C9
100
AcDbEntity
  8
2D$cuna
100
AcDbVertex
100
AcDb2dVertex
 10
-10.00000000000034
 20
641.5175984338853
 30
0.0
  0
VERTEX
  5
2E7
330
2C9
100
AcDbEntity
  8
2D$cuna
100
AcDbVertex
100
AcDb2dVertex
 10
-0.0000000000003411
 20
641.5175984338853
 30
0.0
  0
VERTEX
  5
2E8
330
2C9
100
AcDbEntity
  8
2D$cuna
100
AcDbVertex
100
AcDb2dVertex
 10
-0.0000000000003411
 20
591.5175984338853
 30
0.0
  0
VERTEX
  5
2E9
330
2C9
100
AcDbEntity
  8
2D$cuna
100
AcDbVertex
100
AcDb2dVertex
 10
-10.00000000000034
 20
591.5175984338853
 30
0.0
  0
VERTEX
  5
2EA
330
2C9
100
AcDbEntity
  8
2D$cuna
100
AcDbVertex
100
AcDb2dVertex
 10
-10.00000000000034
 20
541.5175984338853
 30
0.0
  0
VERTEX
  5
2EB
330
2C9
100
AcDbEntity
  8
2D$cuna
100
AcDbVertex
100
AcDb2dVertex
 10
-0.0000000000003411
 20
541.5175984338853
 30
0.0
  0
VERTEX
  5
2EC
330
2C9
100
AcDbEntity
  8
2D$cuna
100
AcDbVertex
100
AcDb2dVertex
 10
-0.0000000000002274
 20
491.5175984338853
 30
0.0
  0
SEQEND
  5
2ED
330
2C9
100
AcDbEntity
  8
2D$cuna
  0
POLYLINE
  5
2EE
330
1F
100
AcDbEntity
  8
2D$cuna$Interiores
100
AcDb2dPolyline
 66
     1
 10
0.0
 20
0.0
 30
0.0
  0
VERTEX
  5
2EF
330
2EE
100
AcDbEntity
  8
2D$cuna$Interiores
100
AcDbVertex
100
AcDb2dVertex
 10
636.9999999999998
 20
546.5175984338852
 30
0.0
  0
VERTEX
  5
2F0
330
2EE
100
AcDbEntity
  8
2D$cuna$Interiores
100
AcDbVertex
100
AcDb2dVertex
 10
636.9999999999998
 20
521.5175984338852
 30
0.0
  0
VERTEX
  5
2F1
330
2EE
100
AcDbEntity
  8
2D$cuna$Interiores
100
AcDbVertex
100
AcDb2dVertex
 10
686.9999999999998
 20
521.5175984338852
 30
0.0
  0
VERTEX
  5
2F2
330
2EE
100
AcDbEntity
  8
2D$cuna$Interiores
100
AcDbVertex
100
AcDb2dVertex
 10
686.9999999999997
 20
546.5175984338852
 30
0.0
  0
VERTEX
  5
2F3
330
2EE
100
AcDbEntity
  8
2D$cuna$Interiores
100
AcDbVertex
100
AcDb2dVertex
 10
636.9999999999998
 20
546.5175984338852
 30
0.0
  0
SEQEND
  5
2F4
330
2EE
100
AcDbEntity
  8
2D$cuna$Interiores
  0
POLYLINE
  5
2F5
330
1F
100
AcDbEntity
  8
2D$cuna$Interiores
100
AcDb2dPolyline
 66
     1
 10
0.0
 20
0.0
 30
0.0
  0
VERTEX
  5
2F6
330
2F5
100
AcDbEntity
  8
2D$cuna$Interiores
100
AcDbVertex
100
AcDb2dVertex
 10
536.9999999999998
 20
546.5175984338853
 30
0.0
  0
VERTEX
  5
2F7
330
2F5
100
AcDbEntity
  8
2D$cuna$Interiores
100
AcDbVertex
100
AcDb2dVertex
 10
536.9999999999998
 20
521.5175984338853
 30
0.0
  0
VERTEX
  5
2F8
330
2F5
100
AcDbEntity
  8
2D$cuna$Interiores
100
AcDbVertex
100
AcDb2dVertex
 10
586.9999999999998
 20
521.5175984338853
 30
0.0
  0
VERTEX
  5
2F9
330
2F5
100
AcDbEntity
  8
2D$cuna$Interiores
100
AcDbVertex
100
AcDb2dVertex
 10
586.9999999999998
 20
546.5175984338853
 30
0.0
  0
VERTEX
  5
2FA
330
2F5
100
AcDbEntity
  8
2D$cuna$Interiores
100
AcDbVertex
100
AcDb2dVertex
 10
536.9999999999998
 20
546.5175984338853
 30
0.0
  0
SEQEND
  5
2FB
330
2F5
100
AcDbEntity
  8
2D$cuna$Interiores
  0
POLYLINE
  5
2FC
330
1F
100
AcDbEntity
  8
2D$cuna$Interiores
100
AcDb2dPolyline
 66
     1
 10
0.0
 20
0.0
 30
0.0
  0
VERTEX
  5
2FD
330
2FC
100
AcDbEntity
  8
2D$cuna$Interiores
100
AcDbVertex
100
AcDb2dVertex
 10
436.9999999999997
 20
546.5175984338853
 30
0.0
  0
VERTEX
  5
2FE
330
2FC
100
AcDbEntity
  8
2D$cuna$Interiores
100
AcDbVertex
100
AcDb2dVertex
 10
436.9999999999997
 20
521.5175984338853
 30
0.0
  0
VERTEX
  5
2FF
330
2FC
100
AcDbEntity
  8
2D$cuna$Interiores
100
AcDbVertex
100
AcDb2dVertex
 10
486.9999999999997
 20
521.5175984338853
 30
0.0
  0
VERTEX
  5
300
330
2FC
100
AcDbEntity
  8
2D$cuna$Interiores
100
AcDbVertex
100
AcDb2dVertex
 10
486.9999999999997
 20
546.5175984338853
 30
0.0
  0
VERTEX
  5
301
330
2FC
100
AcDbEntity
  8
2D$cuna$Interiores
100
AcDbVertex
100
AcDb2dVertex
 10
436.9999999999997
 20
546.5175984338853
 30
0.0
  0
SEQEND
  5
302
330
2FC
100
AcDbEntity
  8
2D$cuna$Interiores
  0
POLYLINE
  5
303
330
1F
100
AcDbEntity
  8
2D$cuna$Interiores
100
AcDb2dPolyline
 66
     1
 10
0.0
 20
0.0
 30
0.0
  0
VERTEX
  5
304
330
303
100
AcDbEntity
  8
2D$cuna$Interiores
100
AcDbVertex
100
AcDb2dVertex
 10
336.9999999999997
 20
546.5175984338853
 30
0.0
  0
VERTEX
  5
305
330
303
100
AcDbEntity
  8
2D$cuna$Interiores
100
AcDbVertex
100
AcDb2dVertex
 10
336.9999999999997
 20
521.5175984338853
 30
0.0
  0
VERTEX
  5
306
330
303
100
AcDbEntity
  8
2D$cuna$Interiores
100
AcDbVertex
100
AcDb2dVertex
 10
386.9999999999997
 20
521.5175984338853
 30
0.0
  0
VERTEX
  5
307
330
303
100
AcDbEntity
  8
2D$cuna$Interiores
100
AcDbVertex
100
AcDb2dVertex
 10
386.9999999999997
 20
546.5175984338853
 30
0.0
  0
VERTEX
  5
308
330
303
100
AcDbEntity
  8
2D$cuna$Interiores
100
AcDbVertex
100
AcDb2dVertex
 10
336.9999999999997
 20
546.5175984338853
 30
0.0
  0
SEQEND
  5
309
330
303
100
AcDbEntity
  8
2D$cuna$Interiores
  0
POLYLINE
  5
30A
330
1F
100
AcDbEntity
  8
2D$cuna$Interiores
100
AcDb2dPolyline
 66
     1
 10
0.0
 20
0.0
 30
0.0
  0
VERTEX
  5
30B
330
30A
100
AcDbEntity
  8
2D$cuna$Interiores
100
AcDbVertex
100
AcDb2dVertex
 10
236.9999999999997
 20
546.5175984338853
 30
0.0
  0
VERTEX
  5
30C
330
30A
100
AcDbEntity
  8
2D$cuna$Interiores
100
AcDbVertex
100
AcDb2dVertex
 10
236.9999999999997
 20
521.5175984338853
 30
0.0
  0
VERTEX
  5
30D
330
30A
100
AcDbEntity
  8
2D$cuna$Interiores
100
AcDbVertex
100
AcDb2dVertex
 10
286.9999999999997
 20
521.5175984338853
 30
0.0
  0
VERTEX
  5
30E
330
30A
100
AcDbEntity
  8
2D$cuna$Interiores
100
AcDbVertex
100
AcDb2dVertex
 10
286.9999999999997
 20
546.5175984338853
 30
0.0
  0
VERTEX
  5
30F
330
30A
100
AcDbEntity
  8
2D$cuna$Interiores
100
AcDbVertex
100
AcDb2dVertex
 10
236.9999999999997
 20
546.5175984338853
 30
0.0
  0
SEQEND
  5
310
330
30A
100
AcDbEntity
  8
2D$cuna$Interiores
  0
POLYLINE
  5
311
330
1F
100
AcDbEntity
  8
2D$cuna$Interiores
100
AcDb2dPolyline
 66
     1
 10
0.0
 20
0.0
 30
0.0
  0
VERTEX
  5
312
330
311
100
AcDbEntity
  8
2D$cuna$Interiores
100
AcDbVertex
100
AcDb2dVertex
 10
136.9999999999997
 20
546.5175984338853
 30
0.0
  0
VERTEX
  5
313
330
311
100
AcDbEntity
  8
2D$cuna$Interiores
100
AcDbVertex
100
AcDb2dVertex
 10
136.9999999999997
 20
521.5175984338853
 30
0.0
  0
VERTEX
  5
314
330
311
100
AcDbEntity
  8
2D$cuna$Interiores
100
AcDbVertex
100
AcDb2dVertex
 10
186.9999999999997
 20
521.5175984338853
 30
0.0
  0
VERTEX
  5
315
330
311
100
AcDbEntity
  8
2D$cuna$Interiores
100
AcDbVertex
100
AcDb2dVertex
 10
186.9999999999997
 20
546.5175984338853
 30
0.0
  0
VERTEX
  5
316
330
311
100
AcDbEntity
  8
2D$cuna$Interiores
100
AcDbVertex
100
AcDb2dVertex
 10
136.9999999999997
 20
546.5175984338853
 30
0.0
  0
SEQEND
  5
317
330
311
100
AcDbEntity
  8
2D$cuna$Interiores
  0
POLYLINE
  5
318
330
1F
100
AcDbEntity
  8
2D$cuna$Interiores
100
AcDb2dPolyline
 66
     1
 10
0.0
 20
0.0
 30
0.0
  0
VERTEX
  5
319
330
318
100
AcDbEntity
  8
2D$cuna$Interiores
100
AcDbVertex
100
AcDb2dVertex
 10
36.99999999999966
 20
546.5175984338853
 30
0.0
  0
VERTEX
  5
31A
330
318
100
AcDbEntity
  8
2D$cuna$Interiores
100
AcDbVertex
100
AcDb2dVertex
 10
36.99999999999966
 20
521.5175984338853
 30
0.0
  0
VERTEX
  5
31B
330
318
100
AcDbEntity
  8
2D$cuna$Interiores
100
AcDbVertex
100
AcDb2dVertex
 10
86.99999999999966
 20
521.5175984338853
 30
0.0
  0
VERTEX
  5
31C
330
318
100
AcDbEntity
  8
2D$cuna$Interiores
100
AcDbVertex
100
AcDb2dVertex
 10
86.99999999999966
 20
546.5175984338853
 30
0.0
  0
VERTEX
  5
31D
330
318
100
AcDbEntity
  8
2D$cuna$Interiores
100
AcDbVertex
100
AcDb2dVertex
 10
36.99999999999966
 20
546.5175984338853
 30
0.0
  0
SEQEND
  5
31E
330
318
100
AcDbEntity
  8
2D$cuna$Interiores
  0
POLYLINE
  5
31F
330
1F
100
AcDbEntity
  8
2D$cuna
100
AcDb2dPolyline
 66
     1
 10
0.0
 20
0.0
 30
0.0000000000005684
  0
VERTEX
  5
320
330
31F
100
AcDbEntity
  8
2D$cuna
100
AcDbVertex
100
AcDb2dVertex
 10
1222.44033797353
 20
427.5616510278987
 30
0.0000000000005684
  0
VERTEX
  5
321
330
31F
100
AcDbEntity
  8
2D$cuna
100
AcDbVertex
100
AcDb2dVertex
 10
1222.44033797353
 20
5.561651027898733
 30
0.0000000000005684
  0
VERTEX
  5
322
330
31F
100
AcDbEntity
  8
2D$cuna
100
AcDbVertex
100
AcDb2dVertex
 10
1222.44033797353
 20
-4.438348972101267
 30
0.0000000000005684
  0
VERTEX
  5
323
330
31F
100
AcDbEntity
  8
2D$cuna
100
AcDbVertex
100
AcDb2dVertex
 10
1172.54033797353
 20
-4.438348972101267
 30
0.0000000000005684
  0
VERTEX
  5
324
330
31F
100
AcDbEntity
  8
2D$cuna
100
AcDbVertex
100
AcDb2dVertex
 10
1172.54033797353
 20
5.561651027898733
 30
0.0000000000005684
  0
VERTEX
  5
325
330
31F
100
AcDbEntity
  8
2D$cuna
100
AcDbVertex
100
AcDb2dVertex
 10
1122.34033797353
 20
5.561651027898733
 30
0.0000000000005684
  0
VERTEX
  5
326
330
31F
100
AcDbEntity
  8
2D$cuna
100
AcDbVertex
100
AcDb2dVertex
 10
1122.34033797353
 20
-4.438348972101267
 30
0.0000000000005684
  0
VERTEX
  5
327
330
31F
100
AcDbEntity
  8
2D$cuna
100
AcDbVertex
100
AcDb2dVertex
 10
1072.54033797353
 20
-4.438348972101267
 30
0.0000000000005684
  0
VERTEX
  5
328
330
31F
100
AcDbEntity
  8
2D$cuna
100
AcDbVertex
100
AcDb2dVertex
 10
1072.54033797353
 20
5.561651027898733
 30
0.0000000000005684
  0
VERTEX
  5
329
330
31F
100
AcDbEntity
  8
2D$cuna
100
AcDbVertex
100
AcDb2dVertex
 10
1022.34033797353
 20
5.561651027898733
 30
0.0000000000005684
  0
VERTEX
  5
32A
330
31F
100
AcDbEntity
  8
2D$cuna
100
AcDbVertex
100
AcDb2dVertex
 10
1022.34033797353
 20
-4.438348972101267
 30
0.0000000000005684
  0
VERTEX
  5
32B
330
31F
100
AcDbEntity
  8
2D$cuna
100
AcDbVertex
100
AcDb2dVertex
 10
972.5403379735301
 20
-4.438348972101267
 30
0.0000000000005684
  0
VERTEX
  5
32C
330
31F
100
AcDbEntity
  8
2D$cuna
100
AcDbVertex
100
AcDb2dVertex
 10
972.5403379735301
 20
5.561651027898733
 30
0.0000000000005684
  0
VERTEX
  5
32D
330
31F
100
AcDbEntity
  8
2D$cuna
100
AcDbVertex
100
AcDb2dVertex
 10
922.34033797353
 20
5.561651027898733
 30
0.0000000000005684
  0
VERTEX
  5
32E
330
31F
100
AcDbEntity
  8
2D$cuna
100
AcDbVertex
100
AcDb2dVertex
 10
922.34033797353
 20
-4.438348972101267
 30
0.0000000000005684
  0
VERTEX
  5
32F
330
31F
100
AcDbEntity
  8
2D$cuna
100
AcDbVertex
100
AcDb2dVertex
 10
872.5403379735301
 20
-4.438348972101267
 30
0.0000000000005684
  0
VERTEX
  5
330
330
31F
100
AcDbEntity
  8
2D$cuna
100
AcDbVertex
100
AcDb2dVertex
 10
872.5403379735301
 20
5.561651027898733
 30
0.0000000000005684
  0
VERTEX
  5
331
330
31F
100
AcDbEntity
  8
2D$cuna
100
AcDbVertex
100
AcDb2dVertex
 10
822.4403379735302
 20
5.561651027898733
 30
0.0000000000005684
  0
VERTEX
  5
332
330
31F
100
AcDbEntity
  8
2D$cuna
100
AcDbVertex
100
AcDb2dVertex
 10
822.4403379735302
 20
427.5616510278987
 30
0.0000000000005684
  0
VERTEX
  5
333
330
31F
100
AcDbEntity
  8
2D$cuna
100
AcDbVertex
100
AcDb2dVertex
 10
872.5403379735301
 20
427.5616510278987
 30
0.0000000000005684
  0
VERTEX
  5
334
330
31F
100
AcDbEntity
  8
2D$cuna
100
AcDbVertex
100
AcDb2dVertex
 10
872.5403379735301
 20
437.5616510278987
 30
0.0000000000005684
  0
VERTEX
  5
335
330
31F
100
AcDbEntity
  8
2D$cuna
100
AcDbVertex
100
AcDb2dVertex
 10
922.34033797353
 20
437.5616510278987
 30
0.0000000000005684
  0
VERTEX
  5
336
330
31F
100
AcDbEntity
  8
2D$cuna
100
AcDbVertex
100
AcDb2dVertex
 10
922.34033797353
 20
427.5616510278987
 30
0.0000000000005684
  0
VERTEX
  5
337
330
31F
100
AcDbEntity
  8
2D$cuna
100
AcDbVertex
100
AcDb2dVertex
 10
972.5403379735301
 20
427.5616510278987
 30
0.0000000000005684
  0
VERTEX
  5
338
330
31F
100
AcDbEntity
  8
2D$cuna
100
AcDbVertex
100
AcDb2dVertex
 10
972.5403379735301
 20
437.5616510278987
 30
0.0000000000005684
  0
VERTEX
  5
339
330
31F
100
AcDbEntity
  8
2D$cuna
100
AcDbVertex
100
AcDb2dVertex
 10
1022.34033797353
 20
437.5616510278987
 30
0.0000000000005684
  0
VERTEX
  5
33A
330
31F
100
AcDbEntity
  8
2D$cuna
100
AcDbVertex
100
AcDb2dVertex
 10
1022.34033797353
 20
427.5616510278987
 30
0.0000000000005684
  0
VERTEX
  5
33B
330
31F
100
AcDbEntity
  8
2D$cuna
100
AcDbVertex
100
AcDb2dVertex
 10
1072.54033797353
 20
427.5616510278987
 30
0.0000000000005684
  0
VERTEX
  5
33C
330
31F
100
AcDbEntity
  8
2D$cuna
100
AcDbVertex
100
AcDb2dVertex
 10
1072.54033797353
 20
437.5616510278987
 30
0.0000000000005684
  0
VERTEX
  5
33D
330
31F
100
AcDbEntity
  8
2D$cuna
100
AcDbVertex
100
AcDb2dVertex
 10
1122.34033797353
 20
437.5616510278987
 30
0.0000000000005684
  0
VERTEX
  5
33E
330
31F
100
AcDbEntity
  8
2D$cuna
100
AcDbVertex
100
AcDb2dVertex
 10
1122.34033797353
 20
427.5616510278987
 30
0.0000000000005684
  0
VERTEX
  5
33F
330
31F
100
AcDbEntity
  8
2D$cuna
100
AcDbVertex
100
AcDb2dVertex
 10
1172.54033797353
 20
427.5616510278987
 30
0.0000000000005684
  0
VERTEX
  5
340
330
31F
100
AcDbEntity
  8
2D$cuna
100
AcDbVertex
100
AcDb2dVertex
 10
1172.54033797353
 20
437.5616510278987
 30
0.0000000000005684
  0
VERTEX
  5
341
330
31F
100
AcDbEntity
  8
2D$cuna
100
AcDbVertex
100
AcDb2dVertex
 10
1222.44033797353
 20
437.5616510278987
 30
0.0000000000005684
  0
VERTEX
  5
342
330
31F
100
AcDbEntity
  8
2D$cuna
100
AcDbVertex
100
AcDb2dVertex
 10
1222.44033797353
 20
427.5616510278987
 30
0.0000000000005684
  0
SEQEND
  5
343
330
31F
100
AcDbEntity
  8
2D$cuna
  0
POLYLINE
  5
344
330
1F
100
AcDbEntity
  8
2D$cuna$Interiores
100
AcDb2dPolyline
 66
     1
 10
0.0
 20
0.0
 30
0.0000000000004547
  0
VERTEX
  5
345
330
344
100
AcDbEntity
  8
2D$cuna$Interiores
100
AcDbVertex
100
AcDb2dVertex
 10
1102.44033797353
 20
100.5616510278991
 30
0.0000000000004547
  0
VERTEX
  5
346
330
344
100
AcDbEntity
  8
2D$cuna$Interiores
100
AcDbVertex
100
AcDb2dVertex
 10
1102.44033797353
 20
332.5616510278987
 30
0.0000000000004547
  0
SEQEND
  5
347
330
344
100
AcDbEntity
  8
2D$cuna$Interiores
  0
POLYLINE
  5
348
330
1F
100
AcDbEntity
  8
2D$cuna$Interiores
100
AcDb2dPolyline
 66
     1
 10
0.0
 20
0.0
 30
0.0000000000004243
  0
VERTEX
  5
349
330
348
100
AcDbEntity
  8
2D$cuna$Interiores
100
AcDbVertex
100
AcDb2dVertex
 10
1102.44033797353
 20
332.5616510278987
 30
0.0000000000004243
  0
VERTEX
  5
34A
330
348
100
AcDbEntity
  8
2D$cuna$Interiores
100
AcDbVertex
100
AcDb2dVertex
 10
1102.411189091839
 20
334.2687065371971
 30
0.0000000000004243
  0
VERTEX
  5
34B
330
348
100
AcDbEntity
  8
2D$cuna$Interiores
100
AcDbVertex
100
AcDb2dVertex
 10
1102.323776433057
 20
335.9737716961323
 30
0.0000000000004243
  0
VERTEX
  5
34C
330
348
100
AcDbEntity
  8
2D$cuna$Interiores
100
AcDbVertex
100
AcDb2dVertex
 10
1102.178201916435
 20
337.6748584750004
 30
0.0000000000004243
  0
VERTEX
  5
34D
330
348
100
AcDbEntity
  8
2D$cuna$Interiores
100
AcDbVertex
100
AcDb2dVertex
 10
1101.974635275347
 20
339.3699834827111
 30
0.0000000000004243
  0
VERTEX
  5
34E
330
348
100
AcDbEntity
  8
2D$cuna$Interiores
100
AcDbVertex
100
AcDb2dVertex
 10
1101.71331385939
 20
341.0571702793321
 30
0.0000000000004243
  0
VERTEX
  5
34F
330
348
100
AcDbEntity
  8
2D$cuna$Interiores
100
AcDbVertex
100
AcDb2dVertex
 10
1101.394542357646
 20
342.7344516805304
 30
0.0000000000004243
  0
VERTEX
  5
350
330
348
100
AcDbEntity
  8
2D$cuna$Interiores
100
AcDbVertex
100
AcDb2dVertex
 10
1101.018692443427
 20
344.3998720512211
 30
0.0000000000004243
  0
VERTEX
  5
351
330
348
100
AcDbEntity
  8
2D$cuna$Interiores
100
AcDbVertex
100
AcDb2dVertex
 10
1100.58620234092
 20
346.0514895857499
 30
0.0000000000004243
  0
VERTEX
  5
352
330
348
100
AcDbEntity
  8
2D$cuna$Interiores
100
AcDbVertex
100
AcDb2dVertex
 10
1100.097576314238
 20
347.6873785719525
 30
0.0000000000004243
  0
VERTEX
  5
353
330
348
100
AcDbEntity
  8
2D$cuna$Interiores
100
AcDbVertex
100
AcDb2dVertex
 10
1099.553384079471
 20
349.305631636448
 30
0.0000000000004243
  0
VERTEX
  5
354
330
348
100
AcDbEntity
  8
2D$cuna$Interiores
100
AcDbVertex
100
AcDb2dVertex
 10
1098.954260140422
 20
350.9043619685515
 30
0.0000000000004243
  0
VERTEX
  5
355
330
348
100
AcDbEntity
  8
2D$cuna$Interiores
100
AcDbVertex
100
AcDb2dVertex
 10
1098.300903048803
 20
352.4817055202108
 30
0.0000000000004243
  0
VERTEX
  5
356
330
348
100
AcDbEntity
  8
2D$cuna$Interiores
100
AcDbVertex
100
AcDb2dVertex
 10
1097.594074589757
 20
354.0358231794028
 30
0.0000000000004243
  0
VERTEX
  5
357
330
348
100
AcDbEntity
  8
2D$cuna$Interiores
100
AcDbVertex
100
AcDb2dVertex
 10
1096.834598893649
 20
355.5649029144563
 30
0.0000000000004243
  0
VERTEX
  5
358
330
348
100
AcDbEntity
  8
2D$cuna$Interiores
100
AcDbVertex
100
AcDb2dVertex
 10
1096.023361475168
 20
357.0671618867996
 30
0.0000000000004243
  0
VERTEX
  5
359
330
348
100
AcDbEntity
  8
2D$cuna$Interiores
100
AcDbVertex
100
AcDb2dVertex
 10
1095.161308200855
 20
358.5408485296704
 30
0.0000000000004243
  0
VERTEX
  5
35A
330
348
100
AcDbEntity
  8
2D$cuna$Interiores
100
AcDbVertex
100
AcDb2dVertex
 10
1094.249444186266
 20
359.9842445903646
 30
0.0000000000004243
  0
VERTEX
  5
35B
330
348
100
AcDbEntity
  8
2D$cuna$Interiores
100
AcDbVertex
100
AcDb2dVertex
 10
1093.288832624052
 20
361.395667133642
 30
0.0000000000004243
  0
VERTEX
  5
35C
330
348
100
AcDbEntity
  8
2D$cuna$Interiores
100
AcDbVertex
100
AcDb2dVertex
 10
1092.280593544325
 20
362.7734705039534
 30
0.0000000000004243
  0
VERTEX
  5
35D
330
348
100
AcDbEntity
  8
2D$cuna$Interiores
100
AcDbVertex
100
AcDb2dVertex
 10
1091.225902508751
 20
364.1160482442013
 30
0.0000000000004243
  0
VERTEX
  5
35E
330
348
100
AcDbEntity
  8
2D$cuna$Interiores
100
AcDbVertex
100
AcDb2dVertex
 10
1090.125989239898
 20
365.4218349687973
 30
0.0000000000004243
  0
VERTEX
  5
35F
330
348
100
AcDbEntity
  8
2D$cuna$Interiores
100
AcDbVertex
100
AcDb2dVertex
 10
1088.982136187436
 20
366.6893081888314
 30
0.0000000000004243
  0
VERTEX
  5
360
330
348
100
AcDbEntity
  8
2D$cuna$Interiores
100
AcDbVertex
100
AcDb2dVertex
 10
1087.795677032858
 20
367.9169900872261
 30
0.0000000000004243
  0
VERTEX
  5
361
330
348
100
AcDbEntity
  8
2D$cuna$Interiores
100
AcDbVertex
100
AcDb2dVertex
 10
1086.567995134463
 20
369.1034492418049
 30
0.0000000000004243
  0
VERTEX
  5
362
330
348
100
AcDbEntity
  8
2D$cuna$Interiores
100
AcDbVertex
100
AcDb2dVertex
 10
1085.300521914429
 20
370.2473022942667
 30
0.0000000000004243
  0
VERTEX
  5
363
330
348
100
AcDbEntity
  8
2D$cuna$Interiores
100
AcDbVertex
100
AcDb2dVertex
 10
1083.994735189833
 20
371.3472155631197
 30
0.0000000000004243
  0
VERTEX
  5
364
330
348
100
AcDbEntity
  8
2D$cuna$Interiores
100
AcDbVertex
100
AcDb2dVertex
 10
1082.652157449585
 20
372.4019065986939
 30
0.0000000000004243
  0
VERTEX
  5
365
330
348
100
AcDbEntity
  8
2D$cuna$Interiores
100
AcDbVertex
100
AcDb2dVertex
 10
1081.274354079274
 20
373.4101456784208
 30
0.0000000000004243
  0
VERTEX
  5
366
330
348
100
AcDbEntity
  8
2D$cuna$Interiores
100
AcDbVertex
100
AcDb2dVertex
 10
1079.862931535996
 20
374.3707572406342
 30
0.0000000000004243
  0
VERTEX
  5
367
330
348
100
AcDbEntity
  8
2D$cuna$Interiores
100
AcDbVertex
100
AcDb2dVertex
 10
1078.419535475302
 20
375.2826212552231
 30
0.0000000000004243
  0
VERTEX
  5
368
330
348
100
AcDbEntity
  8
2D$cuna$Interiores
100
AcDbVertex
100
AcDb2dVertex
 10
1076.945848832431
 20
376.1446745295362
 30
0.0000000000004243
  0
VERTEX
  5
369
330
348
100
AcDbEntity
  8
2D$cuna$Interiores
100
AcDbVertex
100
AcDb2dVertex
 10
1075.443589860088
 20
376.9559119480174
 30
0.0000000000004243
  0
VERTEX
  5
36A
330
348
100
AcDbEntity
  8
2D$cuna$Interiores
100
AcDbVertex
100
AcDb2dVertex
 10
1073.914510125034
 20
377.7153876441253
 30
0.0000000000004243
  0
VERTEX
  5
36B
330
348
100
AcDbEntity
  8
2D$cuna$Interiores
100
AcDbVertex
100
AcDb2dVertex
 10
1072.360392465842
 20
378.4222161031713
 30
0.0000000000004243
  0
VERTEX
  5
36C
330
348
100
AcDbEntity
  8
2D$cuna$Interiores
100
AcDbVertex
100
AcDb2dVertex
 10
1070.783048914183
 20
379.0755731947904
 30
0.0000000000004243
  0
VERTEX
  5
36D
330
348
100
AcDbEntity
  8
2D$cuna$Interiores
100
AcDbVertex
100
AcDb2dVertex
 10
1069.18431858208
 20
379.6746971338397
 30
0.0000000000004243
  0
VERTEX
  5
36E
330
348
100
AcDbEntity
  8
2D$cuna$Interiores
100
AcDbVertex
100
AcDb2dVertex
 10
1067.566065517584
 20
380.2188893686067
 30
0.0000000000004243
  0
VERTEX
  5
36F
330
348
100
AcDbEntity
  8
2D$cuna$Interiores
100
AcDbVertex
100
AcDb2dVertex
 10
1065.930176531381
 20
380.7075153952887
 30
0.0000000000004243
  0
VERTEX
  5
370
330
348
100
AcDbEntity
  8
2D$cuna$Interiores
100
AcDbVertex
100
AcDb2dVertex
 10
1064.278558996853
 20
381.1400054977958
 30
0.0000000000004243
  0
VERTEX
  5
371
330
348
100
AcDbEntity
  8
2D$cuna$Interiores
100
AcDbVertex
100
AcDb2dVertex
 10
1062.613138626162
 20
381.5158554120148
 30
0.0000000000004243
  0
VERTEX
  5
372
330
348
100
AcDbEntity
  8
2D$cuna$Interiores
100
AcDbVertex
100
AcDb2dVertex
 10
1060.935857224964
 20
381.8346269137585
 30
0.0000000000004243
  0
VERTEX
  5
373
330
348
100
AcDbEntity
  8
2D$cuna$Interiores
100
AcDbVertex
100
AcDb2dVertex
 10
1059.248670428343
 20
382.0959483297153
 30
0.0000000000004243
  0
VERTEX
  5
374
330
348
100
AcDbEntity
  8
2D$cuna$Interiores
100
AcDbVertex
100
AcDb2dVertex
 10
1057.553545420632
 20
382.2995149708034
 30
0.0000000000004243
  0
VERTEX
  5
375
330
348
100
AcDbEntity
  8
2D$cuna$Interiores
100
AcDbVertex
100
AcDb2dVertex
 10
1055.852458641764
 20
382.4450894874257
 30
0.0000000000004243
  0
VERTEX
  5
376
330
348
100
AcDbEntity
  8
2D$cuna$Interiores
100
AcDbVertex
100
AcDb2dVertex
 10
1054.147393482829
 20
382.5325021462074
 30
0.0000000000004243
  0
VERTEX
  5
377
330
348
100
AcDbEntity
  8
2D$cuna$Interiores
100
AcDbVertex
100
AcDb2dVertex
 10
1052.44033797353
 20
382.5616510278987
 30
0.0000000000004243
  0
SEQEND
  5
378
330
348
100
AcDbEntity
  8
2D$cuna$Interiores
  0
POLYLINE
  5
379
330
1F
100
AcDbEntity
  8
2D$cuna$Interiores
100
AcDb2dPolyline
 66
     1
 10
0.0
 20
0.0
 30
0.0000000000003411
  0
VERTEX
  5
37A
330
379
100
AcDbEntity
  8
2D$cuna$Interiores
100
AcDbVertex
100
AcDb2dVertex
 10
1052.44033797353
 20
382.5616510278987
 30
0.0000000000003411
  0
VERTEX
  5
37B
330
379
100
AcDbEntity
  8
2D$cuna$Interiores
100
AcDbVertex
100
AcDb2dVertex
 10
902.44033797353
 20
382.5616510278987
 30
0.0000000000003411
  0
SEQEND
  5
37C
330
379
100
AcDbEntity
  8
2D$cuna$Interiores
  0
POLYLINE
  5
37D
330
1F
100
AcDbEntity
  8
2D$cuna$Interiores
100
AcDb2dPolyline
 66
     1
 10
0.0
 20
0.0
 30
0.0000000000001137
  0
VERTEX
  5
37E
330
37D
100
AcDbEntity
  8
2D$cuna$Interiores
100
AcDbVertex
100
AcDb2dVertex
 10
902.44033797353
 20
382.5616510278987
 30
0.0000000000001137
  0
VERTEX
  5
37F
330
37D
100
AcDbEntity
  8
2D$cuna$Interiores
100
AcDbVertex
100
AcDb2dVertex
 10
900.7332824642316
 20
382.5325021462074
 30
0.0000000000001137
  0
VERTEX
  5
380
330
37D
100
AcDbEntity
  8
2D$cuna$Interiores
100
AcDbVertex
100
AcDb2dVertex
 10
899.0282173052964
 20
382.4450894874257
 30
0.0000000000001137
  0
VERTEX
  5
381
330
37D
100
AcDbEntity
  8
2D$cuna$Interiores
100
AcDbVertex
100
AcDb2dVertex
 10
897.3271305264283
 20
382.2995149708035
 30
0.0000000000001137
  0
VERTEX
  5
382
330
37D
100
AcDbEntity
  8
2D$cuna$Interiores
100
AcDbVertex
100
AcDb2dVertex
 10
895.6320055187176
 20
382.0959483297153
 30
0.0000000000001137
  0
VERTEX
  5
383
330
37D
100
AcDbEntity
  8
2D$cuna$Interiores
100
AcDbVertex
100
AcDb2dVertex
 10
893.9448187220967
 20
381.8346269137586
 30
0.0000000000001137
  0
VERTEX
  5
384
330
37D
100
AcDbEntity
  8
2D$cuna$Interiores
100
AcDbVertex
100
AcDb2dVertex
 10
892.2675373208982
 20
381.5158554120149
 30
0.0000000000001137
  0
VERTEX
  5
385
330
37D
100
AcDbEntity
  8
2D$cuna$Interiores
100
AcDbVertex
100
AcDb2dVertex
 10
890.6021169502076
 20
381.1400054977958
 30
0.0000000000001137
  0
VERTEX
  5
386
330
37D
100
AcDbEntity
  8
2D$cuna$Interiores
100
AcDbVertex
100
AcDb2dVertex
 10
888.9504994156788
 20
380.7075153952887
 30
0.0000000000001137
  0
VERTEX
  5
387
330
37D
100
AcDbEntity
  8
2D$cuna$Interiores
100
AcDbVertex
100
AcDb2dVertex
 10
887.3146104294761
 20
380.2188893686068
 30
0.0000000000001137
  0
VERTEX
  5
388
330
37D
100
AcDbEntity
  8
2D$cuna$Interiores
100
AcDbVertex
100
AcDb2dVertex
 10
885.6963573649806
 20
379.6746971338397
 30
0.0000000000001137
  0
VERTEX
  5
389
330
37D
100
AcDbEntity
  8
2D$cuna$Interiores
100
AcDbVertex
100
AcDb2dVertex
 10
884.0976270328771
 20
379.0755731947904
 30
0.0000000000001137
  0
VERTEX
  5
38A
330
37D
100
AcDbEntity
  8
2D$cuna$Interiores
100
AcDbVertex
100
AcDb2dVertex
 10
882.5202834812179
 20
378.4222161031714
 30
0.0000000000001137
  0
VERTEX
  5
38B
330
37D
100
AcDbEntity
  8
2D$cuna$Interiores
100
AcDbVertex
100
AcDb2dVertex
 10
880.9661658220259
 20
377.7153876441254
 30
0.0000000000001137
  0
VERTEX
  5
38C
330
37D
100
AcDbEntity
  8
2D$cuna$Interiores
100
AcDbVertex
100
AcDb2dVertex
 10
879.4370860869724
 20
376.9559119480175
 30
0.0000000000001137
  0
VERTEX
  5
38D
330
37D
100
AcDbEntity
  8
2D$cuna$Interiores
100
AcDbVertex
100
AcDb2dVertex
 10
877.9348271146291
 20
376.1446745295363
 30
0.0000000000001137
  0
VERTEX
  5
38E
330
37D
100
AcDbEntity
  8
2D$cuna$Interiores
100
AcDbVertex
100
AcDb2dVertex
 10
876.4611404717583
 20
375.2826212552231
 30
0.0000000000001137
  0
VERTEX
  5
38F
330
37D
100
AcDbEntity
  8
2D$cuna$Interiores
100
AcDbVertex
100
AcDb2dVertex
 10
875.017744411064
 20
374.3707572406343
 30
0.0000000000001137
  0
VERTEX
  5
390
330
37D
100
AcDbEntity
  8
2D$cuna$Interiores
100
AcDbVertex
100
AcDb2dVertex
 10
873.6063218677866
 20
373.4101456784209
 30
0.0000000000001137
  0
VERTEX
  5
391
330
37D
100
AcDbEntity
  8
2D$cuna$Interiores
100
AcDbVertex
100
AcDb2dVertex
 10
872.2285184974752
 20
372.401906598694
 30
0.0000000000001137
  0
VERTEX
  5
392
330
37D
100
AcDbEntity
  8
2D$cuna$Interiores
100
AcDbVertex
100
AcDb2dVertex
 10
870.8859407572273
 20
371.3472155631197
 30
0.0000000000001137
  0
VERTEX
  5
393
330
37D
100
AcDbEntity
  8
2D$cuna$Interiores
100
AcDbVertex
100
AcDb2dVertex
 10
869.5801540326313
 20
370.2473022942668
 30
0.0000000000001137
  0
VERTEX
  5
394
330
37D
100
AcDbEntity
  8
2D$cuna$Interiores
100
AcDbVertex
100
AcDb2dVertex
 10
868.3126808125973
 20
369.1034492418049
 30
0.0000000000001137
  0
VERTEX
  5
395
330
37D
100
AcDbEntity
  8
2D$cuna$Interiores
100
AcDbVertex
100
AcDb2dVertex
 10
867.0849989142026
 20
367.9169900872261
 30
0.0000000000001137
  0
VERTEX
  5
396
330
37D
100
AcDbEntity
  8
2D$cuna$Interiores
100
AcDbVertex
100
AcDb2dVertex
 10
865.8985397596238
 20
366.6893081888314
 30
0.0000000000001137
  0
VERTEX
  5
397
330
37D
100
AcDbEntity
  8
2D$cuna$Interiores
100
AcDbVertex
100
AcDb2dVertex
 10
864.7546867071619
 20
365.4218349687974
 30
0.0000000000001137
  0
VERTEX
  5
398
330
37D
100
AcDbEntity
  8
2D$cuna$Interiores
100
AcDbVertex
100
AcDb2dVertex
 10
863.654773438309
 20
364.1160482442014
 30
0.0000000000001137
  0
VERTEX
  5
399
330
37D
100
AcDbEntity
  8
2D$cuna$Interiores
100
AcDbVertex
100
AcDb2dVertex
 10
862.6000824027348
 20
362.7734705039535
 30
0.0000000000001137
  0
VERTEX
  5
39A
330
37D
100
AcDbEntity
  8
2D$cuna$Interiores
100
AcDbVertex
100
AcDb2dVertex
 10
861.5918433230079
 20
361.3956671336421
 30
0.0000000000001137
  0
VERTEX
  5
39B
330
37D
100
AcDbEntity
  8
2D$cuna$Interiores
100
AcDbVertex
100
AcDb2dVertex
 10
860.6312317607944
 20
359.9842445903647
 30
0.0000000000001137
  0
VERTEX
  5
39C
330
37D
100
AcDbEntity
  8
2D$cuna$Interiores
100
AcDbVertex
100
AcDb2dVertex
 10
859.7193677462055
 20
358.5408485296704
 30
0.0000000000001137
  0
VERTEX
  5
39D
330
37D
100
AcDbEntity
  8
2D$cuna$Interiores
100
AcDbVertex
100
AcDb2dVertex
 10
858.8573144718924
 20
357.0671618867996
 30
0.0000000000001137
  0
VERTEX
  5
39E
330
37D
100
AcDbEntity
  8
2D$cuna$Interiores
100
AcDbVertex
100
AcDb2dVertex
 10
858.0460770534112
 20
355.5649029144564
 30
0.0000000000001137
  0
VERTEX
  5
39F
330
37D
100
AcDbEntity
  8
2D$cuna$Interiores
100
AcDbVertex
100
AcDb2dVertex
 10
857.2866013573033
 20
354.0358231794028
 30
0.0000000000001137
  0
VERTEX
  5
3A0
330
37D
100
AcDbEntity
  8
2D$cuna$Interiores
100
AcDbVertex
100
AcDb2dVertex
 10
856.5797728982573
 20
352.4817055202108
 30
0.0000000000001137
  0
VERTEX
  5
3A1
330
37D
100
AcDbEntity
  8
2D$cuna$Interiores
100
AcDbVertex
100
AcDb2dVertex
 10
855.9264158066383
 20
350.9043619685516
 30
0.0000000000001137
  0
VERTEX
  5
3A2
330
37D
100
AcDbEntity
  8
2D$cuna$Interiores
100
AcDbVertex
100
AcDb2dVertex
 10
855.3272918675889
 20
349.305631636448
 30
0.0000000000001137
  0
VERTEX
  5
3A3
330
37D
100
AcDbEntity
  8
2D$cuna$Interiores
100
AcDbVertex
100
AcDb2dVertex
 10
854.7830996328219
 20
347.6873785719525
 30
0.0000000000001137
  0
VERTEX
  5
3A4
330
37D
100
AcDbEntity
  8
2D$cuna$Interiores
100
AcDbVertex
100
AcDb2dVertex
 10
854.29447360614
 20
346.0514895857499
 30
0.0000000000001137
  0
VERTEX
  5
3A5
330
37D
100
AcDbEntity
  8
2D$cuna$Interiores
100
AcDbVertex
100
AcDb2dVertex
 10
853.8619835036329
 20
344.3998720512211
 30
0.0000000000001137
  0
VERTEX
  5
3A6
330
37D
100
AcDbEntity
  8
2D$cuna$Interiores
100
AcDbVertex
100
AcDb2dVertex
 10
853.4861335894138
 20
342.7344516805304
 30
0.0000000000001137
  0
VERTEX
  5
3A7
330
37D
100
AcDbEntity
  8
2D$cuna$Interiores
100
AcDbVertex
100
AcDb2dVertex
 10
853.1673620876701
 20
341.0571702793321
 30
0.0000000000001137
  0
VERTEX
  5
3A8
330
37D
100
AcDbEntity
  8
2D$cuna$Interiores
100
AcDbVertex
100
AcDb2dVertex
 10
852.9060406717134
 20
339.3699834827111
 30
0.0000000000001137
  0
VERTEX
  5
3A9
330
37D
100
AcDbEntity
  8
2D$cuna$Interiores
100
AcDbVertex
100
AcDb2dVertex
 10
852.7024740306252
 20
337.6748584750005
 30
0.0000000000001137
  0
VERTEX
  5
3AA
330
37D
100
AcDbEntity
  8
2D$cuna$Interiores
100
AcDbVertex
100
AcDb2dVertex
 10
852.556899514003
 20
335.9737716961323
 30
0.0000000000001137
  0
VERTEX
  5
3AB
330
37D
100
AcDbEntity
  8
2D$cuna$Interiores
100
AcDbVertex
100
AcDb2dVertex
 10
852.4694868552212
 20
334.2687065371971
 30
0.0000000000001137
  0
VERTEX
  5
3AC
330
37D
100
AcDbEntity
  8
2D$cuna$Interiores
100
AcDbVertex
100
AcDb2dVertex
 10
852.44033797353
 20
332.5616510278987
 30
0.0000000000001137
  0
SEQEND
  5
3AD
330
37D
100
AcDbEntity
  8
2D$cuna$Interiores
  0
POLYLINE
  5
3AE
330
1F
100
AcDbEntity
  8
2D$cuna$Interiores
100
AcDb2dPolyline
 66
     1
 10
0.0
 20
0.0
 30
0.0
  0
VERTEX
  5
3AF
330
3AE
100
AcDbEntity
  8
2D$cuna$Interiores
100
AcDbVertex
100
AcDb2dVertex
 10
852.44033797353
 20
332.5616510278987
 30
0.0
  0
VERTEX
  5
3B0
330
3AE
100
AcDbEntity
  8
2D$cuna$Interiores
100
AcDbVertex
100
AcDb2dVertex
 10
852.4403379735302
 20
100.5616510278988
 30
0.0
  0
SEQEND
  5
3B1
330
3AE
100
AcDbEntity
  8
2D$cuna$Interiores
  0
POLYLINE
  5
3B2
330
1F
100
AcDbEntity
  8
2D$cuna$Interiores
100
AcDb2dPolyline
 66
     1
 10
0.0
 20
0.0
 30
0.0000000000000304
  0
VERTEX
  5
3B3
330
3B2
100
AcDbEntity
  8
2D$cuna$Interiores
100
AcDbVertex
100
AcDb2dVertex
 10
852.4403379735302
 20
100.5616510278988
 30
0.0000000000000304
  0
VERTEX
  5
3B4
330
3B2
100
AcDbEntity
  8
2D$cuna$Interiores
100
AcDbVertex
100
AcDb2dVertex
 10
852.4694868552215
 20
98.85459551860038
 30
0.0000000000000304
  0
VERTEX
  5
3B5
330
3B2
100
AcDbEntity
  8
2D$cuna$Interiores
100
AcDbVertex
100
AcDb2dVertex
 10
852.5568995140032
 20
97.14953035966522
 30
0.0000000000000304
  0
VERTEX
  5
3B6
330
3B2
100
AcDbEntity
  8
2D$cuna$Interiores
100
AcDbVertex
100
AcDb2dVertex
 10
852.7024740306255
 20
95.44844358079706
 30
0.0000000000000304
  0
VERTEX
  5
3B7
330
3B2
100
AcDbEntity
  8
2D$cuna$Interiores
100
AcDbVertex
100
AcDb2dVertex
 10
852.9060406717136
 20
93.75331857308645
 30
0.0000000000000304
  0
VERTEX
  5
3B8
330
3B2
100
AcDbEntity
  8
2D$cuna$Interiores
100
AcDbVertex
100
AcDb2dVertex
 10
853.1673620876703
 20
92.06613177646544
 30
0.0000000000000304
  0
VERTEX
  5
3B9
330
3B2
100
AcDbEntity
  8
2D$cuna$Interiores
100
AcDbVertex
100
AcDb2dVertex
 10
853.4861335894141
 20
90.38885037526708
 30
0.0000000000000304
  0
VERTEX
  5
3BA
330
3B2
100
AcDbEntity
  8
2D$cuna$Interiores
100
AcDbVertex
100
AcDb2dVertex
 10
853.8619835036332
 20
88.72343000457643
 30
0.0000000000000304
  0
VERTEX
  5
3BB
330
3B2
100
AcDbEntity
  8
2D$cuna$Interiores
100
AcDbVertex
100
AcDb2dVertex
 10
854.2944736061402
 20
87.07181247004755
 30
0.0000000000000304
  0
VERTEX
  5
3BC
330
3B2
100
AcDbEntity
  8
2D$cuna$Interiores
100
AcDbVertex
100
AcDb2dVertex
 10
854.7830996328221
 20
85.43592348384497
 30
0.0000000000000304
  0
VERTEX
  5
3BD
330
3B2
100
AcDbEntity
  8
2D$cuna$Interiores
100
AcDbVertex
100
AcDb2dVertex
 10
855.3272918675891
 20
83.81767041934945
 30
0.0000000000000304
  0
VERTEX
  5
3BE
330
3B2
100
AcDbEntity
  8
2D$cuna$Interiores
100
AcDbVertex
100
AcDb2dVertex
 10
855.9264158066385
 20
82.21894008724594
 30
0.0000000000000304
  0
VERTEX
  5
3BF
330
3B2
100
AcDbEntity
  8
2D$cuna$Interiores
100
AcDbVertex
100
AcDb2dVertex
 10
856.5797728982575
 20
80.6415965355867
 30
0.0000000000000304
  0
VERTEX
  5
3C0
330
3B2
100
AcDbEntity
  8
2D$cuna$Interiores
100
AcDbVertex
100
AcDb2dVertex
 10
857.2866013573035
 20
79.08747887639467
 30
0.0000000000000304
  0
VERTEX
  5
3C1
330
3B2
100
AcDbEntity
  8
2D$cuna$Interiores
100
AcDbVertex
100
AcDb2dVertex
 10
858.0460770534114
 20
77.55839914134116
 30
0.0000000000000304
  0
VERTEX
  5
3C2
330
3B2
100
AcDbEntity
  8
2D$cuna$Interiores
100
AcDbVertex
100
AcDb2dVertex
 10
858.8573144718927
 20
76.0561401689979
 30
0.0000000000000304
  0
VERTEX
  5
3C3
330
3B2
100
AcDbEntity
  8
2D$cuna$Interiores
100
AcDbVertex
100
AcDb2dVertex
 10
859.7193677462058
 20
74.58245352612708
 30
0.0000000000000304
  0
VERTEX
  5
3C4
330
3B2
100
AcDbEntity
  8
2D$cuna$Interiores
100
AcDbVertex
100
AcDb2dVertex
 10
860.6312317607947
 20
73.13905746543283
 30
0.0000000000000304
  0
VERTEX
  5
3C5
330
3B2
100
AcDbEntity
  8
2D$cuna$Interiores
100
AcDbVertex
100
AcDb2dVertex
 10
861.5918433230081
 20
71.7276349221554
 30
0.0000000000000304
  0
VERTEX
  5
3C6
330
3B2
100
AcDbEntity
  8
2D$cuna$Interiores
100
AcDbVertex
100
AcDb2dVertex
 10
862.600082402735
 20
70.34983155184402
 30
0.0000000000000304
  0
VERTEX
  5
3C7
330
3B2
100
AcDbEntity
  8
2D$cuna$Interiores
100
AcDbVertex
100
AcDb2dVertex
 10
863.6547734383092
 20
69.0072538115961
 30
0.0000000000000304
  0
VERTEX
  5
3C8
330
3B2
100
AcDbEntity
  8
2D$cuna$Interiores
100
AcDbVertex
100
AcDb2dVertex
 10
864.7546867071621
 20
67.70146708700011
 30
0.0000000000000304
  0
VERTEX
  5
3C9
330
3B2
100
AcDbEntity
  8
2D$cuna$Interiores
100
AcDbVertex
100
AcDb2dVertex
 10
865.898539759624
 20
66.43399386696603
 30
0.0000000000000304
  0
VERTEX
  5
3CA
330
3B2
100
AcDbEntity
  8
2D$cuna$Interiores
100
AcDbVertex
100
AcDb2dVertex
 10
867.0849989142029
 20
65.20631196857137
 30
0.0000000000000304
  0
VERTEX
  5
3CB
330
3B2
100
AcDbEntity
  8
2D$cuna$Interiores
100
AcDbVertex
100
AcDb2dVertex
 10
868.3126808125975
 20
64.01985281399254
 30
0.0000000000000304
  0
VERTEX
  5
3CC
330
3B2
100
AcDbEntity
  8
2D$cuna$Interiores
100
AcDbVertex
100
AcDb2dVertex
 10
869.5801540326315
 20
62.87599976153069
 30
0.0000000000000304
  0
VERTEX
  5
3CD
330
3B2
100
AcDbEntity
  8
2D$cuna$Interiores
100
AcDbVertex
100
AcDb2dVertex
 10
870.8859407572276
 20
61.77608649267776
 30
0.0000000000000304
  0
VERTEX
  5
3CE
330
3B2
100
AcDbEntity
  8
2D$cuna$Interiores
100
AcDbVertex
100
AcDb2dVertex
 10
872.2285184974754
 20
60.72139545710352
 30
0.0000000000000304
  0
VERTEX
  5
3CF
330
3B2
100
AcDbEntity
  8
2D$cuna$Interiores
100
AcDbVertex
100
AcDb2dVertex
 10
873.6063218677868
 20
59.71315637737665
 30
0.0000000000000304
  0
VERTEX
  5
3D0
330
3B2
100
AcDbEntity
  8
2D$cuna$Interiores
100
AcDbVertex
100
AcDb2dVertex
 10
875.0177444110643
 20
58.7525448151632
 30
0.0000000000000304
  0
VERTEX
  5
3D1
330
3B2
100
AcDbEntity
  8
2D$cuna$Interiores
100
AcDbVertex
100
AcDb2dVertex
 10
876.4611404717585
 20
57.84068080057432
 30
0.0000000000000304
  0
VERTEX
  5
3D2
330
3B2
100
AcDbEntity
  8
2D$cuna$Interiores
100
AcDbVertex
100
AcDb2dVertex
 10
877.9348271146293
 20
56.97862752626117
 30
0.0000000000000304
  0
VERTEX
  5
3D3
330
3B2
100
AcDbEntity
  8
2D$cuna$Interiores
100
AcDbVertex
100
AcDb2dVertex
 10
879.4370860869726
 20
56.16739010777997
 30
0.0000000000000304
  0
VERTEX
  5
3D4
330
3B2
100
AcDbEntity
  8
2D$cuna$Interiores
100
AcDbVertex
100
AcDb2dVertex
 10
880.9661658220261
 20
55.4079144116721
 30
0.0000000000000304
  0
VERTEX
  5
3D5
330
3B2
100
AcDbEntity
  8
2D$cuna$Interiores
100
AcDbVertex
100
AcDb2dVertex
 10
882.5202834812181
 20
54.70108595262609
 30
0.0000000000000304
  0
VERTEX
  5
3D6
330
3B2
100
AcDbEntity
  8
2D$cuna$Interiores
100
AcDbVertex
100
AcDb2dVertex
 10
884.0976270328774
 20
54.04772886100709
 30
0.0000000000000304
  0
VERTEX
  5
3D7
330
3B2
100
AcDbEntity
  8
2D$cuna$Interiores
100
AcDbVertex
100
AcDb2dVertex
 10
885.6963573649809
 20
53.44860492195771
 30
0.0000000000000304
  0
VERTEX
  5
3D8
330
3B2
100
AcDbEntity
  8
2D$cuna$Interiores
100
AcDbVertex
100
AcDb2dVertex
 10
887.3146104294764
 20
52.90441268719069
 30
0.0000000000000304
  0
VERTEX
  5
3D9
330
3B2
100
AcDbEntity
  8
2D$cuna$Interiores
100
AcDbVertex
100
AcDb2dVertex
 10
888.950499415679
 20
52.41578666050877
 30
0.0000000000000304
  0
VERTEX
  5
3DA
330
3B2
100
AcDbEntity
  8
2D$cuna$Interiores
100
AcDbVertex
100
AcDb2dVertex
 10
890.6021169502079
 20
51.98329655800166
 30
0.0000000000000304
  0
VERTEX
  5
3DB
330
3B2
100
AcDbEntity
  8
2D$cuna$Interiores
100
AcDbVertex
100
AcDb2dVertex
 10
892.2675373208986
 20
51.60744664378259
 30
0.0000000000000304
  0
VERTEX
  5
3DC
330
3B2
100
AcDbEntity
  8
2D$cuna$Interiores
100
AcDbVertex
100
AcDb2dVertex
 10
893.9448187220969
 20
51.2886751420389
 30
0.0000000000000304
  0
VERTEX
  5
3DD
330
3B2
100
AcDbEntity
  8
2D$cuna$Interiores
100
AcDbVertex
100
AcDb2dVertex
 10
895.6320055187178
 20
51.02735372608219
 30
0.0000000000000304
  0
VERTEX
  5
3DE
330
3B2
100
AcDbEntity
  8
2D$cuna$Interiores
100
AcDbVertex
100
AcDb2dVertex
 10
897.3271305264285
 20
50.82378708499399
 30
0.0000000000000304
  0
VERTEX
  5
3DF
330
3B2
100
AcDbEntity
  8
2D$cuna$Interiores
100
AcDbVertex
100
AcDb2dVertex
 10
899.0282173052967
 20
50.67821256837177
 30
0.0000000000000304
  0
VERTEX
  5
3E0
330
3B2
100
AcDbEntity
  8
2D$cuna$Interiores
100
AcDbVertex
100
AcDb2dVertex
 10
900.7332824642318
 20
50.59079990959003
 30
0.0000000000000304
  0
VERTEX
  5
3E1
330
3B2
100
AcDbEntity
  8
2D$cuna$Interiores
100
AcDbVertex
100
AcDb2dVertex
 10
902.4403379735302
 20
50.56165102789873
 30
0.0000000000000304
  0
SEQEND
  5
3E2
330
3B2
100
AcDbEntity
  8
2D$cuna$Interiores
  0
POLYLINE
  5
3E3
330
1F
100
AcDbEntity
  8
2D$cuna$Interiores
100
AcDb2dPolyline
 66
     1
 10
0.0
 20
0.0
 30
0.0000000000001137
  0
VERTEX
  5
3E4
330
3E3
100
AcDbEntity
  8
2D$cuna$Interiores
100
AcDbVertex
100
AcDb2dVertex
 10
902.4403379735302
 20
50.56165102789873
 30
0.0000000000001137
  0
VERTEX
  5
3E5
330
3E3
100
AcDbEntity
  8
2D$cuna$Interiores
100
AcDbVertex
100
AcDb2dVertex
 10
1052.44033797353
 20
50.56165102789873
 30
0.0000000000001137
  0
SEQEND
  5
3E6
330
3E3
100
AcDbEntity
  8
2D$cuna$Interiores
  0
POLYLINE
  5
3E7
330
1F
100
AcDbEntity
  8
2D$cuna$Interiores
100
AcDb2dPolyline
 66
     1
 10
0.0
 20
0.0
 30
0.0000000000003411
  0
VERTEX
  5
3E8
330
3E7
100
AcDbEntity
  8
2D$cuna$Interiores
100
AcDbVertex
100
AcDb2dVertex
 10
1052.44033797353
 20
50.56165102789873
 30
0.0000000000003411
  0
VERTEX
  5
3E9
330
3E7
100
AcDbEntity
  8
2D$cuna$Interiores
100
AcDbVertex
100
AcDb2dVertex
 10
1054.147393482828
 20
50.59079990959003
 30
0.0000000000003411
  0
VERTEX
  5
3EA
330
3E7
100
AcDbEntity
  8
2D$cuna$Interiores
100
AcDbVertex
100
AcDb2dVertex
 10
1055.852458641763
 20
50.67821256837176
 30
0.0000000000003411
  0
VERTEX
  5
3EB
330
3E7
100
AcDbEntity
  8
2D$cuna$Interiores
100
AcDbVertex
100
AcDb2dVertex
 10
1057.553545420632
 20
50.82378708499398
 30
0.0000000000003411
  0
VERTEX
  5
3EC
330
3E7
100
AcDbEntity
  8
2D$cuna$Interiores
100
AcDbVertex
100
AcDb2dVertex
 10
1059.248670428342
 20
51.02735372608218
 30
0.0000000000003411
  0
VERTEX
  5
3ED
330
3E7
100
AcDbEntity
  8
2D$cuna$Interiores
100
AcDbVertex
100
AcDb2dVertex
 10
1060.935857224963
 20
51.28867514203887
 30
0.0000000000003411
  0
VERTEX
  5
3EE
330
3E7
100
AcDbEntity
  8
2D$cuna$Interiores
100
AcDbVertex
100
AcDb2dVertex
 10
1062.613138626162
 20
51.60744664378257
 30
0.0000000000003411
  0
VERTEX
  5
3EF
330
3E7
100
AcDbEntity
  8
2D$cuna$Interiores
100
AcDbVertex
100
AcDb2dVertex
 10
1064.278558996852
 20
51.98329655800163
 30
0.0000000000003411
  0
VERTEX
  5
3F0
330
3E7
100
AcDbEntity
  8
2D$cuna$Interiores
100
AcDbVertex
100
AcDb2dVertex
 10
1065.930176531381
 20
52.41578666050874
 30
0.0000000000003411
  0
VERTEX
  5
3F1
330
3E7
100
AcDbEntity
  8
2D$cuna$Interiores
100
AcDbVertex
100
AcDb2dVertex
 10
1067.566065517584
 20
52.90441268719067
 30
0.0000000000003411
  0
VERTEX
  5
3F2
330
3E7
100
AcDbEntity
  8
2D$cuna$Interiores
100
AcDbVertex
100
AcDb2dVertex
 10
1069.184318582079
 20
53.44860492195768
 30
0.0000000000003411
  0
VERTEX
  5
3F3
330
3E7
100
AcDbEntity
  8
2D$cuna$Interiores
100
AcDbVertex
100
AcDb2dVertex
 10
1070.783048914183
 20
54.04772886100705
 30
0.0000000000003411
  0
VERTEX
  5
3F4
330
3E7
100
AcDbEntity
  8
2D$cuna$Interiores
100
AcDbVertex
100
AcDb2dVertex
 10
1072.360392465842
 20
54.70108595262606
 30
0.0000000000003411
  0
VERTEX
  5
3F5
330
3E7
100
AcDbEntity
  8
2D$cuna$Interiores
100
AcDbVertex
100
AcDb2dVertex
 10
1073.914510125034
 20
55.40791441167208
 30
0.0000000000003411
  0
VERTEX
  5
3F6
330
3E7
100
AcDbEntity
  8
2D$cuna$Interiores
100
AcDbVertex
100
AcDb2dVertex
 10
1075.443589860088
 20
56.16739010777996
 30
0.0000000000003411
  0
VERTEX
  5
3F7
330
3E7
100
AcDbEntity
  8
2D$cuna$Interiores
100
AcDbVertex
100
AcDb2dVertex
 10
1076.945848832431
 20
56.97862752626116
 30
0.0000000000003411
  0
VERTEX
  5
3F8
330
3E7
100
AcDbEntity
  8
2D$cuna$Interiores
100
AcDbVertex
100
AcDb2dVertex
 10
1078.419535475302
 20
57.8406808005743
 30
0.0000000000003411
  0
VERTEX
  5
3F9
330
3E7
100
AcDbEntity
  8
2D$cuna$Interiores
100
AcDbVertex
100
AcDb2dVertex
 10
1079.862931535996
 20
58.75254481516318
 30
0.0000000000003411
  0
VERTEX
  5
3FA
330
3E7
100
AcDbEntity
  8
2D$cuna$Interiores
100
AcDbVertex
100
AcDb2dVertex
 10
1081.274354079274
 20
59.71315637737663
 30
0.0000000000003411
  0
VERTEX
  5
3FB
330
3E7
100
AcDbEntity
  8
2D$cuna$Interiores
100
AcDbVertex
100
AcDb2dVertex
 10
1082.652157449585
 20
60.7213954571035
 30
0.0000000000003411
  0
VERTEX
  5
3FC
330
3E7
100
AcDbEntity
  8
2D$cuna$Interiores
100
AcDbVertex
100
AcDb2dVertex
 10
1083.994735189833
 20
61.77608649267776
 30
0.0000000000003411
  0
VERTEX
  5
3FD
330
3E7
100
AcDbEntity
  8
2D$cuna$Interiores
100
AcDbVertex
100
AcDb2dVertex
 10
1085.300521914429
 20
62.87599976153069
 30
0.0000000000003411
  0
VERTEX
  5
3FE
330
3E7
100
AcDbEntity
  8
2D$cuna$Interiores
100
AcDbVertex
100
AcDb2dVertex
 10
1086.567995134463
 20
64.01985281399256
 30
0.0000000000003411
  0
VERTEX
  5
3FF
330
3E7
100
AcDbEntity
  8
2D$cuna$Interiores
100
AcDbVertex
100
AcDb2dVertex
 10
1087.795677032857
 20
65.2063119685714
 30
0.0000000000003411
  0
VERTEX
  5
400
330
3E7
100
AcDbEntity
  8
2D$cuna$Interiores
100
AcDbVertex
100
AcDb2dVertex
 10
1088.982136187436
 20
66.43399386696608
 30
0.0000000000003411
  0
VERTEX
  5
401
330
3E7
100
AcDbEntity
  8
2D$cuna$Interiores
100
AcDbVertex
100
AcDb2dVertex
 10
1090.125989239898
 20
67.70146708700015
 30
0.0000000000003411
  0
VERTEX
  5
402
330
3E7
100
AcDbEntity
  8
2D$cuna$Interiores
100
AcDbVertex
100
AcDb2dVertex
 10
1091.225902508751
 20
69.00725381159616
 30
0.0000000000003411
  0
VERTEX
  5
403
330
3E7
100
AcDbEntity
  8
2D$cuna$Interiores
100
AcDbVertex
100
AcDb2dVertex
 10
1092.280593544325
 20
70.34983155184406
 30
0.0000000000003411
  0
VERTEX
  5
404
330
3E7
100
AcDbEntity
  8
2D$cuna$Interiores
100
AcDbVertex
100
AcDb2dVertex
 10
1093.288832624052
 20
71.72763492215546
 30
0.0000000000003411
  0
VERTEX
  5
405
330
3E7
100
AcDbEntity
  8
2D$cuna$Interiores
100
AcDbVertex
100
AcDb2dVertex
 10
1094.249444186266
 20
73.1390574654329
 30
0.0000000000003411
  0
VERTEX
  5
406
330
3E7
100
AcDbEntity
  8
2D$cuna$Interiores
100
AcDbVertex
100
AcDb2dVertex
 10
1095.161308200855
 20
74.58245352612715
 30
0.0000000000003411
  0
VERTEX
  5
407
330
3E7
100
AcDbEntity
  8
2D$cuna$Interiores
100
AcDbVertex
100
AcDb2dVertex
 10
1096.023361475168
 20
76.05614016899798
 30
0.0000000000003411
  0
VERTEX
  5
408
330
3E7
100
AcDbEntity
  8
2D$cuna$Interiores
100
AcDbVertex
100
AcDb2dVertex
 10
1096.834598893649
 20
77.55839914134124
 30
0.0000000000003411
  0
VERTEX
  5
409
330
3E7
100
AcDbEntity
  8
2D$cuna$Interiores
100
AcDbVertex
100
AcDb2dVertex
 10
1097.594074589757
 20
79.08747887639477
 30
0.0000000000003411
  0
VERTEX
  5
40A
330
3E7
100
AcDbEntity
  8
2D$cuna$Interiores
100
AcDbVertex
100
AcDb2dVertex
 10
1098.300903048803
 20
80.6415965355868
 30
0.0000000000003411
  0
VERTEX
  5
40B
330
3E7
100
AcDbEntity
  8
2D$cuna$Interiores
100
AcDbVertex
100
AcDb2dVertex
 10
1098.954260140422
 20
82.21894008724605
 30
0.0000000000003411
  0
VERTEX
  5
40C
330
3E7
100
AcDbEntity
  8
2D$cuna$Interiores
100
AcDbVertex
100
AcDb2dVertex
 10
1099.553384079471
 20
83.8176704193496
 30
0.0000000000003411
  0
VERTEX
  5
40D
330
3E7
100
AcDbEntity
  8
2D$cuna$Interiores
100
AcDbVertex
100
AcDb2dVertex
 10
1100.097576314238
 20
85.43592348384513
 30
0.0000000000003411
  0
VERTEX
  5
40E
330
3E7
100
AcDbEntity
  8
2D$cuna$Interiores
100
AcDbVertex
100
AcDb2dVertex
 10
1100.58620234092
 20
87.0718124700477
 30
0.0000000000003411
  0
VERTEX
  5
40F
330
3E7
100
AcDbEntity
  8
2D$cuna$Interiores
100
AcDbVertex
100
AcDb2dVertex
 10
1101.018692443427
 20
88.72343000457658
 30
0.0000000000003411
  0
VERTEX
  5
410
330
3E7
100
AcDbEntity
  8
2D$cuna$Interiores
100
AcDbVertex
100
AcDb2dVertex
 10
1101.394542357647
 20
90.38885037526724
 30
0.0000000000003411
  0
VERTEX
  5
411
330
3E7
100
AcDbEntity
  8
2D$cuna$Interiores
100
AcDbVertex
100
AcDb2dVertex
 10
1101.71331385939
 20
92.06613177646562
 30
0.0000000000003411
  0
VERTEX
  5
412
330
3E7
100
AcDbEntity
  8
2D$cuna$Interiores
100
AcDbVertex
100
AcDb2dVertex
 10
1101.974635275347
 20
93.75331857308663
 30
0.0000000000003411
  0
VERTEX
  5
413
330
3E7
100
AcDbEntity
  8
2D$cuna$Interiores
100
AcDbVertex
100
AcDb2dVertex
 10
1102.178201916435
 20
95.44844358079726
 30
0.0000000000003411
  0
VERTEX
  5
414
330
3E7
100
AcDbEntity
  8
2D$cuna$Interiores
100
AcDbVertex
100
AcDb2dVertex
 10
1102.323776433057
 20
97.14953035966543
 30
0.0000000000003411
  0
VERTEX
  5
415
330
3E7
100
AcDbEntity
  8
2D$cuna$Interiores
100
AcDbVertex
100
AcDb2dVertex
 10
1102.411189091839
 20
98.85459551860059
 30
0.0000000000003411
  0
VERTEX
  5
416
330
3E7
100
AcDbEntity
  8
2D$cuna$Interiores
100
AcDbVertex
100
AcDb2dVertex
 10
1102.44033797353
 20
100.5616510278986
 30
0.0000000000003411
  0
SEQEND
  5
417
330
3E7
100
AcDbEntity
  8
2D$cuna$Interiores
  0
POLYLINE
  5
418
330
1F
100
AcDbEntity
  8
2D$cuna$Interiores
100
AcDb2dPolyline
 66
     1
 10
0.0
 20
0.0
 30
0.0000000000005684
  0
VERTEX
  5
419
330
418
100
AcDbEntity
  8
2D$cuna$Interiores
100
AcDbVertex
100
AcDb2dVertex
 10
1167.44033797353
 20
91.56165102789873
 30
0.0000000000005684
  0
VERTEX
  5
41A
330
418
100
AcDbEntity
  8
2D$cuna$Interiores
100
AcDbVertex
100
AcDb2dVertex
 10
1192.44033797353
 20
91.56165102789873
 30
0.0000000000005684
  0
VERTEX
  5
41B
330
418
100
AcDbEntity
  8
2D$cuna$Interiores
100
AcDbVertex
100
AcDb2dVertex
 10
1192.44033797353
 20
141.5616510278987
 30
0.0000000000005684
  0
VERTEX
  5
41C
330
418
100
AcDbEntity
  8
2D$cuna$Interiores
100
AcDbVertex
100
AcDb2dVertex
 10
1167.44033797353
 20
141.5616510278987
 30
0.0000000000005684
  0
VERTEX
  5
41D
330
418
100
AcDbEntity
  8
2D$cuna$Interiores
100
AcDbVertex
100
AcDb2dVertex
 10
1167.44033797353
 20
91.56165102789873
 30
0.0000000000005684
  0
SEQEND
  5
41E
330
418
100
AcDbEntity
  8
2D$cuna$Interiores
  0
POLYLINE
  5
41F
330
1F
100
AcDbEntity
  8
2D$cuna$Interiores
100
AcDb2dPolyline
 66
     1
 10
0.0
 20
0.0
 30
0.0000000000005684
  0
VERTEX
  5
420
330
41F
100
AcDbEntity
  8
2D$cuna$Interiores
100
AcDbVertex
100
AcDb2dVertex
 10
1167.44033797353
 20
291.5616510278987
 30
0.0000000000005684
  0
VERTEX
  5
421
330
41F
100
AcDbEntity
  8
2D$cuna$Interiores
100
AcDbVertex
100
AcDb2dVertex
 10
1192.44033797353
 20
291.5616510278987
 30
0.0000000000005684
  0
VERTEX
  5
422
330
41F
100
AcDbEntity
  8
2D$cuna$Interiores
100
AcDbVertex
100
AcDb2dVertex
 10
1192.44033797353
 20
341.5616510278987
 30
0.0000000000005684
  0
VERTEX
  5
423
330
41F
100
AcDbEntity
  8
2D$cuna$Interiores
100
AcDbVertex
100
AcDb2dVertex
 10
1167.44033797353
 20
341.5616510278987
 30
0.0000000000005684
  0
VERTEX
  5
424
330
41F
100
AcDbEntity
  8
2D$cuna$Interiores
100
AcDbVertex
100
AcDb2dVertex
 10
1167.44033797353
 20
291.5616510278987
 30
0.0000000000005684
  0
SEQEND
  5
425
330
41F
100
AcDbEntity
  8
2D$cuna$Interiores
  0
POLYLINE
  5
426
330
1F
100
AcDbEntity
  8
2D$cuna$Interiores
100
AcDb2dPolyline
 66
     1
 10
0.0
 20
0.0
 30
0.0000000000005684
  0
VERTEX
  5
427
330
426
100
AcDbEntity
  8
2D$cuna$Interiores
100
AcDbVertex
100
AcDb2dVertex
 10
1167.44033797353
 20
191.5616510278987
 30
0.0000000000005684
  0
VERTEX
  5
428
330
426
100
AcDbEntity
  8
2D$cuna$Interiores
100
AcDbVertex
100
AcDb2dVertex
 10
1192.44033797353
 20
191.5616510278987
 30
0.0000000000005684
  0
VERTEX
  5
429
330
426
100
AcDbEntity
  8
2D$cuna$Interiores
100
AcDbVertex
100
AcDb2dVertex
 10
1192.44033797353
 20
241.5616510278987
 30
0.0000000000005684
  0
VERTEX
  5
42A
330
426
100
AcDbEntity
  8
2D$cuna$Interiores
100
AcDbVertex
100
AcDb2dVertex
 10
1167.44033797353
 20
241.5616510278987
 30
0.0000000000005684
  0
VERTEX
  5
42B
330
426
100
AcDbEntity
  8
2D$cuna$Interiores
100
AcDbVertex
100
AcDb2dVertex
 10
1167.44033797353
 20
191.5616510278987
 30
0.0000000000005684
  0
SEQEND
  5
42C
330
426
100
AcDbEntity
  8
2D$cuna$Interiores
  0
POLYLINE
  5
42D
330
1F
100
AcDbEntity
  8
2D$cuna$Interiores
100
AcDb2dPolyline
 66
     1
 10
0.0
 20
0.0
 30
0.0000000000000568
  0
VERTEX
  5
42E
330
42D
100
AcDbEntity
  8
2D$cuna$Interiores
100
AcDbVertex
100
AcDb2dVertex
 10
36.99999999999989
 20
344.9999999999998
 30
0.0000000000000568
  0
VERTEX
  5
42F
330
42D
100
AcDbEntity
  8
2D$cuna$Interiores
100
AcDbVertex
100
AcDb2dVertex
 10
36.99999999999989
 20
369.9999999999998
 30
0.0000000000000568
  0
VERTEX
  5
430
330
42D
100
AcDbEntity
  8
2D$cuna$Interiores
100
AcDbVertex
100
AcDb2dVertex
 10
86.99999999999989
 20
369.9999999999998
 30
0.0000000000000568
  0
VERTEX
  5
431
330
42D
100
AcDbEntity
  8
2D$cuna$Interiores
100
AcDbVertex
100
AcDb2dVertex
 10
86.99999999999989
 20
344.9999999999998
 30
0.0000000000000568
  0
VERTEX
  5
432
330
42D
100
AcDbEntity
  8
2D$cuna$Interiores
100
AcDbVertex
100
AcDb2dVertex
 10
36.99999999999989
 20
344.9999999999998
 30
0.0000000000000568
  0
SEQEND
  5
433
330
42D
100
AcDbEntity
  8
2D$cuna$Interiores
  0
POLYLINE
  5
434
330
1F
100
AcDbEntity
  8
2D$cuna$Interiores
100
AcDb2dPolyline
 66
     1
 10
0.0
 20
0.0
 30
0.0000000000000284
  0
VERTEX
  5
435
330
434
100
AcDbEntity
  8
2D$cuna$Interiores
100
AcDbVertex
100
AcDb2dVertex
 10
136.9999999999999
 20
344.9999999999998
 30
0.0000000000000284
  0
VERTEX
  5
436
330
434
100
AcDbEntity
  8
2D$cuna$Interiores
100
AcDbVertex
100
AcDb2dVertex
 10
136.9999999999999
 20
369.9999999999998
 30
0.0000000000000284
  0
VERTEX
  5
437
330
434
100
AcDbEntity
  8
2D$cuna$Interiores
100
AcDbVertex
100
AcDb2dVertex
 10
186.9999999999999
 20
369.9999999999998
 30
0.0000000000000284
  0
VERTEX
  5
438
330
434
100
AcDbEntity
  8
2D$cuna$Interiores
100
AcDbVertex
100
AcDb2dVertex
 10
186.9999999999999
 20
344.9999999999998
 30
0.0000000000000284
  0
VERTEX
  5
439
330
434
100
AcDbEntity
  8
2D$cuna$Interiores
100
AcDbVertex
100
AcDb2dVertex
 10
136.9999999999999
 20
344.9999999999998
 30
0.0000000000000284
  0
SEQEND
  5
43A
330
434
100
AcDbEntity
  8
2D$cuna$Interiores
  0
POLYLINE
  5
43B
330
1F
100
AcDbEntity
  8
2D$cuna$Interiores
100
AcDb2dPolyline
 66
     1
 10
0.0
 20
0.0
 30
-0.0000000000000284
  0
VERTEX
  5
43C
330
43B
100
AcDbEntity
  8
2D$cuna$Interiores
100
AcDbVertex
100
AcDb2dVertex
 10
236.9999999999999
 20
344.9999999999999
 30
-0.0000000000000284
  0
VERTEX
  5
43D
330
43B
100
AcDbEntity
  8
2D$cuna$Interiores
100
AcDbVertex
100
AcDb2dVertex
 10
236.9999999999999
 20
369.9999999999999
 30
-0.0000000000000284
  0
VERTEX
  5
43E
330
43B
100
AcDbEntity
  8
2D$cuna$Interiores
100
AcDbVertex
100
AcDb2dVertex
 10
286.9999999999999
 20
369.9999999999999
 30
-0.0000000000000284
  0
VERTEX
  5
43F
330
43B
100
AcDbEntity
  8
2D$cuna$Interiores
100
AcDbVertex
100
AcDb2dVertex
 10
286.9999999999999
 20
344.9999999999999
 30
-0.0000000000000284
  0
VERTEX
  5
440
330
43B
100
AcDbEntity
  8
2D$cuna$Interiores
100
AcDbVertex
100
AcDb2dVertex
 10
236.9999999999999
 20
344.9999999999999
 30
-0.0000000000000284
  0
SEQEND
  5
441
330
43B
100
AcDbEntity
  8
2D$cuna$Interiores
  0
POLYLINE
  5
442
330
1F
100
AcDbEntity
  8
2D$cuna$Interiores
100
AcDb2dPolyline
 66
     1
 10
0.0
 20
0.0
 30
-0.0000000000000568
  0
VERTEX
  5
443
330
442
100
AcDbEntity
  8
2D$cuna$Interiores
100
AcDbVertex
100
AcDb2dVertex
 10
336.9999999999999
 20
344.9999999999999
 30
-0.0000000000000568
  0
VERTEX
  5
444
330
442
100
AcDbEntity
  8
2D$cuna$Interiores
100
AcDbVertex
100
AcDb2dVertex
 10
336.9999999999999
 20
369.9999999999999
 30
-0.0000000000000568
  0
VERTEX
  5
445
330
442
100
AcDbEntity
  8
2D$cuna$Interiores
100
AcDbVertex
100
AcDb2dVertex
 10
386.9999999999999
 20
369.9999999999999
 30
-0.0000000000000568
  0
VERTEX
  5
446
330
442
100
AcDbEntity
  8
2D$cuna$Interiores
100
AcDbVertex
100
AcDb2dVertex
 10
386.9999999999999
 20
344.9999999999999
 30
-0.0000000000000568
  0
VERTEX
  5
447
330
442
100
AcDbEntity
  8
2D$cuna$Interiores
100
AcDbVertex
100
AcDb2dVertex
 10
336.9999999999999
 20
344.9999999999999
 30
-0.0000000000000568
  0
SEQEND
  5
448
330
442
100
AcDbEntity
  8
2D$cuna$Interiores
  0
POLYLINE
  5
449
330
1F
100
AcDbEntity
  8
2D$cuna$Interiores
100
AcDb2dPolyline
 66
     1
 10
0.0
 20
0.0
 30
-0.0000000000000853
  0
VERTEX
  5
44A
330
449
100
AcDbEntity
  8
2D$cuna$Interiores
100
AcDbVertex
100
AcDb2dVertex
 10
436.9999999999999
 20
344.9999999999999
 30
-0.0000000000000853
  0
VERTEX
  5
44B
330
449
100
AcDbEntity
  8
2D$cuna$Interiores
100
AcDbVertex
100
AcDb2dVertex
 10
436.9999999999999
 20
369.9999999999999
 30
-0.0000000000000853
  0
VERTEX
  5
44C
330
449
100
AcDbEntity
  8
2D$cuna$Interiores
100
AcDbVertex
100
AcDb2dVertex
 10
486.9999999999999
 20
369.9999999999999
 30
-0.0000000000000853
  0
VERTEX
  5
44D
330
449
100
AcDbEntity
  8
2D$cuna$Interiores
100
AcDbVertex
100
AcDb2dVertex
 10
486.9999999999999
 20
345.0
 30
-0.0000000000000853
  0
VERTEX
  5
44E
330
449
100
AcDbEntity
  8
2D$cuna$Interiores
100
AcDbVertex
100
AcDb2dVertex
 10
436.9999999999999
 20
344.9999999999999
 30
-0.0000000000000853
  0
SEQEND
  5
44F
330
449
100
AcDbEntity
  8
2D$cuna$Interiores
  0
POLYLINE
  5
450
330
1F
100
AcDbEntity
  8
2D$cuna$Interiores
100
AcDb2dPolyline
 66
     1
 10
0.0
 20
0.0
 30
-0.0000000000000568
  0
VERTEX
  5
451
330
450
100
AcDbEntity
  8
2D$cuna$Interiores
100
AcDbVertex
100
AcDb2dVertex
 10
536.9999999999999
 20
345.0
 30
-0.0000000000000568
  0
VERTEX
  5
452
330
450
100
AcDbEntity
  8
2D$cuna$Interiores
100
AcDbVertex
100
AcDb2dVertex
 10
536.9999999999999
 20
370.0
 30
-0.0000000000000568
  0
VERTEX
  5
453
330
450
100
AcDbEntity
  8
2D$cuna$Interiores
100
AcDbVertex
100
AcDb2dVertex
 10
586.9999999999999
 20
370.0
 30
-0.0000000000000568
  0
VERTEX
  5
454
330
450
100
AcDbEntity
  8
2D$cuna$Interiores
100
AcDbVertex
100
AcDb2dVertex
 10
586.9999999999999
 20
345.0
 30
-0.0000000000000568
  0
VERTEX
  5
455
330
450
100
AcDbEntity
  8
2D$cuna$Interiores
100
AcDbVertex
100
AcDb2dVertex
 10
536.9999999999999
 20
345.0
 30
-0.0000000000000568
  0
SEQEND
  5
456
330
450
100
AcDbEntity
  8
2D$cuna$Interiores
  0
POLYLINE
  5
457
330
1F
100
AcDbEntity
  8
2D$cuna$Interiores
100
AcDb2dPolyline
 66
     1
 10
0.0
 20
0.0
 30
-0.0000000000000853
  0
VERTEX
  5
458
330
457
100
AcDbEntity
  8
2D$cuna$Interiores
100
AcDbVertex
100
AcDb2dVertex
 10
636.9999999999999
 20
345.0000000000001
 30
-0.0000000000000853
  0
VERTEX
  5
459
330
457
100
AcDbEntity
  8
2D$cuna$Interiores
100
AcDbVertex
100
AcDb2dVertex
 10
636.9999999999999
 20
370.0
 30
-0.0000000000000853
  0
VERTEX
  5
45A
330
457
100
AcDbEntity
  8
2D$cuna$Interiores
100
AcDbVertex
100
AcDb2dVertex
 10
686.9999999999999
 20
370.0000000000001
 30
-0.0000000000000853
  0
VERTEX
  5
45B
330
457
100
AcDbEntity
  8
2D$cuna$Interiores
100
AcDbVertex
100
AcDb2dVertex
 10
686.9999999999999
 20
345.0000000000001
 30
-0.0000000000000853
  0
VERTEX
  5
45C
330
457
100
AcDbEntity
  8
2D$cuna$Interiores
100
AcDbVertex
100
AcDb2dVertex
 10
636.9999999999999
 20
345.0000000000001
 30
-0.0000000000000853
  0
SEQEND
  5
45D
330
457
100
AcDbEntity
  8
2D$cuna$Interiores
  0
POLYLINE
  5
45E
330
1F
100
AcDbEntity
  8
2D$cuna
100
AcDb2dPolyline
 66
     1
 10
0.0
 20
0.0
 30
0.0
  0
VERTEX
  5
45F
330
45E
100
AcDbEntity
  8
2D$cuna
100
AcDbVertex
100
AcDb2dVertex
 10
-0.0000000000001137
 20
399.9999999999998
 30
0.0
  0
VERTEX
  5
460
330
45E
100
AcDbEntity
  8
2D$cuna
100
AcDbVertex
100
AcDb2dVertex
 10
723.9999999999999
 20
400.0000000000001
 30
0.0
  0
VERTEX
  5
461
330
45E
100
AcDbEntity
  8
2D$cuna
100
AcDbVertex
100
AcDb2dVertex
 10
723.9999999999999
 20
350.0000000000001
 30
0.0
  0
VERTEX
  5
462
330
45E
100
AcDbEntity
  8
2D$cuna
100
AcDbVertex
100
AcDb2dVertex
 10
733.9999999999999
 20
350.0000000000001
 30
0.0
  0
VERTEX
  5
463
330
45E
100
AcDbEntity
  8
2D$cuna
100
AcDbVertex
100
AcDb2dVertex
 10
733.9999999999999
 20
300.0000000000001
 30
0.0
  0
VERTEX
  5
464
330
45E
100
AcDbEntity
  8
2D$cuna
100
AcDbVertex
100
AcDb2dVertex
 10
723.9999999999999
 20
300.0000000000001
 30
0.0
  0
VERTEX
  5
465
330
45E
100
AcDbEntity
  8
2D$cuna
100
AcDbVertex
100
AcDb2dVertex
 10
723.9999999999999
 20
250.0
 30
0.0
  0
VERTEX
  5
466
330
45E
100
AcDbEntity
  8
2D$cuna
100
AcDbVertex
100
AcDb2dVertex
 10
733.9999999999999
 20
250.0
 30
0.0
  0
VERTEX
  5
467
330
45E
100
AcDbEntity
  8
2D$cuna
100
AcDbVertex
100
AcDb2dVertex
 10
733.9999999999999
 20
200.0
 30
0.0
  0
VERTEX
  5
468
330
45E
100
AcDbEntity
  8
2D$cuna
100
AcDbVertex
100
AcDb2dVertex
 10
723.9999999999999
 20
200.0000000000001
 30
0.0
  0
VERTEX
  5
469
330
45E
100
AcDbEntity
  8
2D$cuna
100
AcDbVertex
100
AcDb2dVertex
 10
724.0
 20
150.0000000000001
 30
0.0
  0
VERTEX
  5
46A
330
45E
100
AcDbEntity
  8
2D$cuna
100
AcDbVertex
100
AcDb2dVertex
 10
734.0
 20
150.0000000000001
 30
0.0
  0
VERTEX
  5
46B
330
45E
100
AcDbEntity
  8
2D$cuna
100
AcDbVertex
100
AcDb2dVertex
 10
734.0
 20
100.0000000000001
 30
0.0
  0
VERTEX
  5
46C
330
45E
100
AcDbEntity
  8
2D$cuna
100
AcDbVertex
100
AcDb2dVertex
 10
724.0
 20
100.0000000000001
 30
0.0
  0
VERTEX
  5
46D
330
45E
100
AcDbEntity
  8
2D$cuna
100
AcDbVertex
100
AcDb2dVertex
 10
724.0
 20
50.00000000000006
 30
0.0
  0
VERTEX
  5
46E
330
45E
100
AcDbEntity
  8
2D$cuna
100
AcDbVertex
100
AcDb2dVertex
 10
734.0
 20
50.00000000000006
 30
0.0
  0
VERTEX
  5
46F
330
45E
100
AcDbEntity
  8
2D$cuna
100
AcDbVertex
100
AcDb2dVertex
 10
734.0
 20
0.0000000000000568
 30
0.0
  0
VERTEX
  5
470
330
45E
100
AcDbEntity
  8
2D$cuna
100
AcDbVertex
100
AcDb2dVertex
 10
724.0
 20
0.0000000000000568
 30
0.0
  0
VERTEX
  5
471
330
45E
100
AcDbEntity
  8
2D$cuna
100
AcDbVertex
100
AcDb2dVertex
 10
0.0000000000001137
 20
-0.0000000000002274
 30
0.0
  0
VERTEX
  5
472
330
45E
100
AcDbEntity
  8
2D$cuna
100
AcDbVertex
100
AcDb2dVertex
 10
-9.999999999999886
 20
-0.0000000000002274
 30
0.0
  0
VERTEX
  5
473
330
45E
100
AcDbEntity
  8
2D$cuna
100
AcDbVertex
100
AcDb2dVertex
 10
-10.0
 20
49.99999999999977
 30
0.0
  0
VERTEX
  5
474
330
45E
100
AcDbEntity
  8
2D$cuna
100
AcDbVertex
100
AcDb2dVertex
 10
0.0
 20
49.99999999999977
 30
0.0
  0
VERTEX
  5
475
330
45E
100
AcDbEntity
  8
2D$cuna
100
AcDbVertex
100
AcDb2dVertex
 10
0.0
 20
99.99999999999977
 30
0.0
  0
VERTEX
  5
476
330
45E
100
AcDbEntity
  8
2D$cuna
100
AcDbVertex
100
AcDb2dVertex
 10
-10.0
 20
99.99999999999977
 30
0.0
  0
VERTEX
  5
477
330
45E
100
AcDbEntity
  8
2D$cuna
100
AcDbVertex
100
AcDb2dVertex
 10
-10.0
 20
149.9999999999998
 30
0.0
  0
VERTEX
  5
478
330
45E
100
AcDbEntity
  8
2D$cuna
100
AcDbVertex
100
AcDb2dVertex
 10
0.0
 20
149.9999999999998
 30
0.0
  0
VERTEX
  5
479
330
45E
100
AcDbEntity
  8
2D$cuna
100
AcDbVertex
100
AcDb2dVertex
 10
0.0
 20
199.9999999999998
 30
0.0
  0
VERTEX
  5
47A
330
45E
100
AcDbEntity
  8
2D$cuna
100
AcDbVertex
100
AcDb2dVertex
 10
-10.0
 20
199.9999999999998
 30
0.0
  0
VERTEX
  5
47B
330
45E
100
AcDbEntity
  8
2D$cuna
100
AcDbVertex
100
AcDb2dVertex
 10
-10.0
 20
249.9999999999998
 30
0.0
  0
VERTEX
  5
47C
330
45E
100
AcDbEntity
  8
2D$cuna
100
AcDbVertex
100
AcDb2dVertex
 10
0.0
 20
249.9999999999998
 30
0.0
  0
VERTEX
  5
47D
330
45E
100
AcDbEntity
  8
2D$cuna
100
AcDbVertex
100
AcDb2dVertex
 10
0.0
 20
299.9999999999998
 30
0.0
  0
VERTEX
  5
47E
330
45E
100
AcDbEntity
  8
2D$cuna
100
AcDbVertex
100
AcDb2dVertex
 10
-10.0
 20
299.9999999999998
 30
0.0
  0
VERTEX
  5
47F
330
45E
100
AcDbEntity
  8
2D$cuna
100
AcDbVertex
100
AcDb2dVertex
 10
-10.0
 20
349.9999999999998
 30
0.0
  0
VERTEX
  5
480
330
45E
100
AcDbEntity
  8
2D$cuna
100
AcDbVertex
100
AcDb2dVertex
 10
0.0
 20
349.9999999999998
 30
0.0
  0
VERTEX
  5
481
330
45E
100
AcDbEntity
  8
2D$cuna
100
AcDbVertex
100
AcDb2dVertex
 10
-0.0000000000001137
 20
399.9999999999998
 30
0.0
  0
SEQEND
  5
482
330
45E
100
AcDbEntity
  8
2D$cuna
  0
POLYLINE
  5
483
330
1F
100
AcDbEntity
  8
2D$cuna$rebaje 5mm
100
AcDb2dPolyline
 66
     1
 10
0.0
 20
0.0
 30
-0.0000000000001137
  0
VERTEX
  5
484
330
483
100
AcDbEntity
  8
2D$cuna$rebaje 5mm
100
AcDbVertex
100
AcDb2dVertex
 10
703.9999999999999
 20
335.0000000000001
 30
-0.0000000000001137
  0
VERTEX
  5
485
330
483
100
AcDbEntity
  8
2D$cuna$rebaje 5mm
100
AcDbVertex
100
AcDb2dVertex
 10
663.9999999999999
 20
335.0000000000001
 30
-0.0000000000001137
  0
VERTEX
  5
486
330
483
100
AcDbEntity
  8
2D$cuna$rebaje 5mm
100
AcDbVertex
100
AcDb2dVertex
 10
663.9999999999999
 20
295.0000000000001
 30
-0.0000000000001137
  0
VERTEX
  5
487
330
483
100
AcDbEntity
  8
2D$cuna$rebaje 5mm
100
AcDbVertex
100
AcDb2dVertex
 10
703.9999999999999
 20
295.0000000000001
 30
-0.0000000000001137
  0
VERTEX
  5
488
330
483
100
AcDbEntity
  8
2D$cuna$rebaje 5mm
100
AcDbVertex
100
AcDb2dVertex
 10
703.9999999999999
 20
335.0000000000001
 30
-0.0000000000001137
  0
SEQEND
  5
489
330
483
100
AcDbEntity
  8
2D$cuna$rebaje 5mm
  0
POLYLINE
  5
48A
330
1F
100
AcDbEntity
  8
2D$cuna$Interiores
100
AcDb2dPolyline
 66
     1
 10
0.0
 20
0.0
 30
-0.0000000000001157
  0
VERTEX
  5
48B
330
48A
100
AcDbEntity
  8
2D$cuna$Interiores
100
AcDbVertex
100
AcDb2dVertex
 10
672.2241412025156
 20
328.4906664709677
 30
-0.0000000000001157
  0
VERTEX
  5
48C
330
48A
100
AcDbEntity
  8
2D$cuna$Interiores
100
AcDbVertex
100
AcDb2dVertex
 10
672.6994530152134
 20
328.8912407686934
 30
-0.0000000000001157
  0
VERTEX
  5
48D
330
48A
100
AcDbEntity
  8
2D$cuna$Interiores
100
AcDbVertex
100
AcDb2dVertex
 10
673.1883811068574
 20
329.2750772032456
 30
-0.0000000000001157
  0
VERTEX
  5
48E
330
48A
100
AcDbEntity
  8
2D$cuna$Interiores
100
AcDbVertex
100
AcDb2dVertex
 10
673.6903363571787
 20
329.6417132816167
 30
-0.0000000000001157
  0
VERTEX
  5
48F
330
48A
100
AcDbEntity
  8
2D$cuna$Interiores
100
AcDbVertex
100
AcDb2dVertex
 10
674.2047139491966
 20
329.9907072358885
 30
-0.0000000000001157
  0
VERTEX
  5
490
330
48A
100
AcDbEntity
  8
2D$cuna$Interiores
100
AcDbVertex
100
AcDb2dVertex
 10
674.7308940979764
 20
330.3216385555284
 30
-0.0000000000001157
  0
VERTEX
  5
491
330
48A
100
AcDbEntity
  8
2D$cuna$Interiores
100
AcDbVertex
100
AcDb2dVertex
 10
675.2682427974214
 20
330.6341084940715
 30
-0.0000000000001157
  0
VERTEX
  5
492
330
48A
100
AcDbEntity
  8
2D$cuna$Interiores
100
AcDbVertex
100
AcDb2dVertex
 10
675.8161125842016
 20
330.9277405495795
 30
-0.0000000000001157
  0
VERTEX
  5
493
330
48A
100
AcDbEntity
  8
2D$cuna$Interiores
100
AcDbVertex
100
AcDb2dVertex
 10
676.3738433178961
 20
331.2021809182957
 30
-0.0000000000001157
  0
VERTEX
  5
494
330
48A
100
AcDbEntity
  8
2D$cuna$Interiores
100
AcDbVertex
100
AcDb2dVertex
 10
676.9407629764111
 20
331.4570989209511
 30
-0.0000000000001157
  0
VERTEX
  5
495
330
48A
100
AcDbEntity
  8
2D$cuna$Interiores
100
AcDbVertex
100
AcDb2dVertex
 10
677.5161884657136
 20
331.6921874012076
 30
-0.0000000000001157
  0
VERTEX
  5
496
330
48A
100
AcDbEntity
  8
2D$cuna$Interiores
100
AcDbVertex
100
AcDb2dVertex
 10
678.0994264429078
 20
331.9071630957569
 30
-0.0000000000001157
  0
VERTEX
  5
497
330
48A
100
AcDbEntity
  8
2D$cuna$Interiores
100
AcDbVertex
100
AcDb2dVertex
 10
678.6897741516578
 20
332.1017669756309
 30
-0.0000000000001157
  0
VERTEX
  5
498
330
48A
100
AcDbEntity
  8
2D$cuna$Interiores
100
AcDbVertex
100
AcDb2dVertex
 10
679.2865202689554
 20
332.2757645583115
 30
-0.0000000000001157
  0
VERTEX
  5
499
330
48A
100
AcDbEntity
  8
2D$cuna$Interiores
100
AcDbVertex
100
AcDb2dVertex
 10
679.8889457622082
 20
332.4289461902639
 30
-0.0000000000001157
  0
VERTEX
  5
49A
330
48A
100
AcDbEntity
  8
2D$cuna$Interiores
100
AcDbVertex
100
AcDb2dVertex
 10
680.4963247556182
 20
332.5611272995524
 30
-0.0000000000001157
  0
VERTEX
  5
49B
330
48A
100
AcDbEntity
  8
2D$cuna$Interiores
100
AcDbVertex
100
AcDb2dVertex
 10
681.1079254048055
 20
332.6721486182357
 30
-0.0000000000001157
  0
VERTEX
  5
49C
330
48A
100
AcDbEntity
  8
2D$cuna$Interiores
100
AcDbVertex
100
AcDb2dVertex
 10
681.7230107786237
 20
332.7618763742718
 30
-0.0000000000001157
  0
VERTEX
  5
49D
330
48A
100
AcDbEntity
  8
2D$cuna$Interiores
100
AcDbVertex
100
AcDb2dVertex
 10
682.340839747105
 20
332.8302024527035
 30
-0.0000000000001157
  0
VERTEX
  5
49E
330
48A
100
AcDbEntity
  8
2D$cuna$Interiores
100
AcDbVertex
100
AcDb2dVertex
 10
682.9606678744633
 20
332.8770445259279
 30
-0.0000000000001157
  0
VERTEX
  5
49F
330
48A
100
AcDbEntity
  8
2D$cuna$Interiores
100
AcDbVertex
100
AcDb2dVertex
 10
683.5817483160819
 20
332.9023461528951
 30
-0.0000000000001157
  0
VERTEX
  5
4A0
330
48A
100
AcDbEntity
  8
2D$cuna$Interiores
100
AcDbVertex
100
AcDb2dVertex
 10
684.2033327184033
 20
332.9060768471155
 30
-0.0000000000001157
  0
VERTEX
  5
4A1
330
48A
100
AcDbEntity
  8
2D$cuna$Interiores
100
AcDbVertex
100
AcDb2dVertex
 10
684.8246721206359
 20
332.888232113393
 30
-0.0000000000001157
  0
VERTEX
  5
4A2
330
48A
100
AcDbEntity
  8
2D$cuna$Interiores
100
AcDbVertex
100
AcDb2dVertex
 10
685.4450178571948
 20
332.8488334532419
 30
-0.0000000000001157
  0
VERTEX
  5
4A3
330
48A
100
AcDbEntity
  8
2D$cuna$Interiores
100
AcDbVertex
100
AcDb2dVertex
 10
686.0636224597844
 20
332.787928338979
 30
-0.0000000000001157
  0
VERTEX
  5
4A4
330
48A
100
AcDbEntity
  8
2D$cuna$Interiores
100
AcDbVertex
100
AcDb2dVertex
 10
686.6797405580402
 20
332.7055901565233
 30
-0.0000000000001157
  0
VERTEX
  5
4A5
330
48A
100
AcDbEntity
  8
2D$cuna$Interiores
100
AcDbVertex
100
AcDb2dVertex
 10
687.2926297776415
 20
332.6019181169714
 30
-0.0000000000001157
  0
VERTEX
  5
4A6
330
48A
100
AcDbEntity
  8
2D$cuna$Interiores
100
AcDbVertex
100
AcDb2dVertex
 10
687.9015516348153
 20
332.4770371370564
 30
-0.0000000000001157
  0
VERTEX
  5
4A7
330
48A
100
AcDbEntity
  8
2D$cuna$Interiores
100
AcDbVertex
100
AcDb2dVertex
 10
688.5057724261508
 20
332.3310976886323
 30
-0.0000000000001157
  0
VERTEX
  5
4A8
330
48A
100
AcDbEntity
  8
2D$cuna$Interiores
100
AcDbVertex
100
AcDb2dVertex
 10
689.1045641126558
 20
332.1642756173677
 30
-0.0000000000001157
  0
VERTEX
  5
4A9
330
48A
100
AcDbEntity
  8
2D$cuna$Interiores
100
AcDbVertex
100
AcDb2dVertex
 10
689.6972051969863
 20
331.9767719308651
 30
-0.0000000000001157
  0
VERTEX
  5
4AA
330
48A
100
AcDbEntity
  8
2D$cuna$Interiores
100
AcDbVertex
100
AcDb2dVertex
 10
690.282981592795
 20
331.7688125564626
 30
-0.0000000000001157
  0
VERTEX
  5
4AB
330
48A
100
AcDbEntity
  8
2D$cuna$Interiores
100
AcDbVertex
100
AcDb2dVertex
 10
690.8611874851493
 20
331.5406480690089
 30
-0.0000000000001157
  0
VERTEX
  5
4AC
330
48A
100
AcDbEntity
  8
2D$cuna$Interiores
100
AcDbVertex
100
AcDb2dVertex
 10
691.4311261809844
 20
331.2925533889402
 30
-0.0000000000001157
  0
VERTEX
  5
4AD
330
48A
100
AcDbEntity
  8
2D$cuna$Interiores
100
AcDbVertex
100
AcDb2dVertex
 10
691.9921109485624
 20
331.0248274510225
 30
-0.0000000000001157
  0
VERTEX
  5
4AE
330
48A
100
AcDbEntity
  8
2D$cuna$Interiores
100
AcDbVertex
100
AcDb2dVertex
 10
692.5434658449323
 20
330.7377928441587
 30
-0.0000000000001157
  0
VERTEX
  5
4AF
330
48A
100
AcDbEntity
  8
2D$cuna$Interiores
100
AcDbVertex
100
AcDb2dVertex
 10
693.0845265303873
 20
330.4317954226935
 30
-0.0000000000001157
  0
VERTEX
  5
4B0
330
48A
100
AcDbEntity
  8
2D$cuna$Interiores
100
AcDbVertex
100
AcDb2dVertex
 10
693.6146410689435
 20
330.1072038896866
 30
-0.0000000000001157
  0
VERTEX
  5
4B1
330
48A
100
AcDbEntity
  8
2D$cuna$Interiores
100
AcDbVertex
100
AcDb2dVertex
 10
694.1331707138711
 20
329.7644093526535
 30
-0.0000000000001157
  0
VERTEX
  5
4B2
330
48A
100
AcDbEntity
  8
2D$cuna$Interiores
100
AcDbVertex
100
AcDb2dVertex
 10
694.6394906773348
 20
329.403824852312
 30
-0.0000000000001157
  0
VERTEX
  5
4B3
330
48A
100
AcDbEntity
  8
2D$cuna$Interiores
100
AcDbVertex
100
AcDb2dVertex
 10
695.1329908832147
 20
329.0258848649
 30
-0.0000000000001157
  0
VERTEX
  5
4B4
330
48A
100
AcDbEntity
  8
2D$cuna$Interiores
100
AcDbVertex
100
AcDb2dVertex
 10
695.6130767022003
 20
328.6310447786657
 30
-0.0000000000001157
  0
VERTEX
  5
4B5
330
48A
100
AcDbEntity
  8
2D$cuna$Interiores
100
AcDbVertex
100
AcDb2dVertex
 10
696.079169668272
 20
328.2197803451598
 30
-0.0000000000001157
  0
VERTEX
  5
4B6
330
48A
100
AcDbEntity
  8
2D$cuna$Interiores
100
AcDbVertex
100
AcDb2dVertex
 10
696.5307081757086
 20
327.7925871059924
 30
-0.0000000000001157
  0
VERTEX
  5
4B7
330
48A
100
AcDbEntity
  8
2D$cuna$Interiores
100
AcDbVertex
100
AcDb2dVertex
 10
696.967148155778
 20
327.3499797957438
 30
-0.0000000000001157
  0
VERTEX
  5
4B8
330
48A
100
AcDbEntity
  8
2D$cuna$Interiores
100
AcDbVertex
100
AcDb2dVertex
 10
697.3879637322971
 20
326.8924917217492
 30
-0.0000000000001157
  0
VERTEX
  5
4B9
330
48A
100
AcDbEntity
  8
2D$cuna$Interiores
100
AcDbVertex
100
AcDb2dVertex
 10
697.7926478552725
 20
326.4206741215052
 30
-0.0000000000001157
  0
VERTEX
  5
4BA
330
48A
100
AcDbEntity
  8
2D$cuna$Interiores
100
AcDbVertex
100
AcDb2dVertex
 10
698.1807129118561
 20
325.9350954984715
 30
-0.0000000000001157
  0
VERTEX
  5
4BB
330
48A
100
AcDbEntity
  8
2D$cuna$Interiores
100
AcDbVertex
100
AcDb2dVertex
 10
698.5516913138797
 20
325.4363409370684
 30
-0.0000000000001157
  0
VERTEX
  5
4BC
330
48A
100
AcDbEntity
  8
2D$cuna$Interiores
100
AcDbVertex
100
AcDb2dVertex
 10
698.9051360612638
 20
324.9250113976956
 30
-0.0000000000001157
  0
VERTEX
  5
4BD
330
48A
100
AcDbEntity
  8
2D$cuna$Interiores
100
AcDbVertex
100
AcDb2dVertex
 10
699.2406212806163
 20
324.4017229926221
 30
-0.0000000000001157
  0
VERTEX
  5
4BE
330
48A
100
AcDbEntity
  8
2D$cuna$Interiores
100
AcDbVertex
100
AcDb2dVertex
 10
699.5577427383782
 20
323.8671062436183
 30
-0.0000000000001157
  0
VERTEX
  5
4BF
330
48A
100
AcDbEntity
  8
2D$cuna$Interiores
100
AcDbVertex
100
AcDb2dVertex
 10
699.8561183278927
 20
323.3218053222268
 30
-0.0000000000001157
  0
VERTEX
  5
4C0
330
48A
100
AcDbEntity
  8
2D$cuna$Interiores
100
AcDbVertex
100
AcDb2dVertex
 10
700.1353885298138
 20
322.7664772735859
 30
-0.0000000000001157
  0
VERTEX
  5
4C1
330
48A
100
AcDbEntity
  8
2D$cuna$Interiores
100
AcDbVertex
100
AcDb2dVertex
 10
700.3952168453002
 20
322.2017912247411
 30
-0.0000000000001157
  0
VERTEX
  5
4C2
330
48A
100
AcDbEntity
  8
2D$cuna$Interiores
100
AcDbVertex
100
AcDb2dVertex
 10
700.6352902014689
 20
321.6284275783993
 30
-0.0000000000001157
  0
VERTEX
  5
4C3
330
48A
100
AcDbEntity
  8
2D$cuna$Interiores
100
AcDbVertex
100
AcDb2dVertex
 10
700.8553193286245
 20
321.0470771930966
 30
-0.0000000000001157
  0
VERTEX
  5
4C4
330
48A
100
AcDbEntity
  8
2D$cuna$Interiores
100
AcDbVertex
100
AcDb2dVertex
 10
701.0550391088063
 20
320.4584405507674
 30
-0.0000000000001157
  0
VERTEX
  5
4C5
330
48A
100
AcDbEntity
  8
2D$cuna$Interiores
100
AcDbVertex
100
AcDb2dVertex
 10
701.2342088952346
 20
319.8632269127183
 30
-0.0000000000001157
  0
VERTEX
  5
4C6
330
48A
100
AcDbEntity
  8
2D$cuna$Interiores
100
AcDbVertex
100
AcDb2dVertex
 10
701.3926128022722
 20
319.2621534650235
 30
-0.0000000000001157
  0
VERTEX
  5
4C7
330
48A
100
AcDbEntity
  8
2D$cuna$Interiores
100
AcDbVertex
100
AcDb2dVertex
 10
701.5300599655485
 20
318.6559444543714
 30
-0.0000000000001157
  0
VERTEX
  5
4C8
330
48A
100
AcDbEntity
  8
2D$cuna$Interiores
100
AcDbVertex
100
AcDb2dVertex
 10
701.6463847719372
 20
318.0453303154039
 30
-0.0000000000001157
  0
VERTEX
  5
4C9
330
48A
100
AcDbEntity
  8
2D$cuna$Interiores
100
AcDbVertex
100
AcDb2dVertex
 10
701.7414470591068
 20
317.4310467905991
 30
-0.0000000000001157
  0
VERTEX
  5
4CA
330
48A
100
AcDbEntity
  8
2D$cuna$Interiores
100
AcDbVertex
100
AcDb2dVertex
 10
701.8151322844056
 20
316.8138340437596
 30
-0.0000000000001157
  0
VERTEX
  5
4CB
330
48A
100
AcDbEntity
  8
2D$cuna$Interiores
100
AcDbVertex
100
AcDb2dVertex
 10
701.8673516628762
 20
316.1944357681722
 30
-0.0000000000001157
  0
VERTEX
  5
4CC
330
48A
100
AcDbEntity
  8
2D$cuna$Interiores
100
AcDbVertex
100
AcDb2dVertex
 10
701.8980422742346
 20
315.5735982905157
 30
-0.0000000000001157
  0
VERTEX
  5
4CD
330
48A
100
AcDbEntity
  8
2D$cuna$Interiores
100
AcDbVertex
100
AcDb2dVertex
 10
701.9071671386848
 20
314.9520696715953
 30
-0.0000000000001157
  0
VERTEX
  5
4CE
330
48A
100
AcDbEntity
  8
2D$cuna$Interiores
100
AcDbVertex
100
AcDb2dVertex
 10
701.8947152614755
 20
314.3305988049873
 30
-0.0000000000001157
  0
VERTEX
  5
4CF
330
48A
100
AcDbEntity
  8
2D$cuna$Interiores
100
AcDbVertex
100
AcDb2dVertex
 10
701.8607016461493
 20
313.7099345146814
 30
-0.0000000000001157
  0
VERTEX
  5
4D0
330
48A
100
AcDbEntity
  8
2D$cuna$Interiores
100
AcDbVertex
100
AcDb2dVertex
 10
701.8051672764632
 20
313.0908246528056
 30
-0.0000000000001157
  0
VERTEX
  5
4D1
330
48A
100
AcDbEntity
  8
2D$cuna$Interiores
100
AcDbVertex
100
AcDb2dVertex
 10
701.7281790670073
 20
312.4740151985223
 30
-0.0000000000001157
  0
VERTEX
  5
4D2
330
48A
100
AcDbEntity
  8
2D$cuna$Interiores
100
AcDbVertex
100
AcDb2dVertex
 10
701.6298297825775
 20
311.8602493591824
 30
-0.0000000000001157
  0
VERTEX
  5
4D3
330
48A
100
AcDbEntity
  8
2D$cuna$Interiores
100
AcDbVertex
100
AcDb2dVertex
 10
701.5102379264015
 20
311.2502666748176
 30
-0.0000000000001157
  0
VERTEX
  5
4D4
330
48A
100
AcDbEntity
  8
2D$cuna$Interiores
100
AcDbVertex
100
AcDb2dVertex
 10
701.3695475973511
 20
310.6448021270527
 30
-0.0000000000001157
  0
VERTEX
  5
4D5
330
48A
100
AcDbEntity
  8
2D$cuna$Interiores
100
AcDbVertex
100
AcDb2dVertex
 10
701.207928316315
 20
310.0445852535096
 30
-0.0000000000001157
  0
VERTEX
  5
4D6
330
48A
100
AcDbEntity
  8
2D$cuna$Interiores
100
AcDbVertex
100
AcDb2dVertex
 10
701.0255748219388
 20
309.4503392687716
 30
-0.0000000000001157
  0
VERTEX
  5
4D7
330
48A
100
AcDbEntity
  8
2D$cuna$Interiores
100
AcDbVertex
100
AcDb2dVertex
 10
700.8227068359798
 20
308.8627801929661
 30
-0.0000000000001157
  0
VERTEX
  5
4D8
330
48A
100
AcDbEntity
  8
2D$cuna$Interiores
100
AcDbVertex
100
AcDb2dVertex
 10
700.5995687985607
 20
308.2826159890159
 30
-0.0000000000001157
  0
VERTEX
  5
4D9
330
48A
100
AcDbEntity
  8
2D$cuna$Interiores
100
AcDbVertex
100
AcDb2dVertex
 10
700.3564295736365
 20
307.7105457095993
 30
-0.0000000000001157
  0
VERTEX
  5
4DA
330
48A
100
AcDbEntity
  8
2D$cuna$Interiores
100
AcDbVertex
100
AcDb2dVertex
 10
700.093582125036
 20
307.147258654846
 30
-0.0000000000001157
  0
VERTEX
  5
4DB
330
48A
100
AcDbEntity
  8
2D$cuna$Interiores
100
AcDbVertex
100
AcDb2dVertex
 10
699.8113431634623
 20
306.5934335417839
 30
-0.0000000000001157
  0
VERTEX
  5
4DC
330
48A
100
AcDbEntity
  8
2D$cuna$Interiores
100
AcDbVertex
100
AcDb2dVertex
 10
699.5100527648813
 20
306.0497376865383
 30
-0.0000000000001157
  0
VERTEX
  5
4DD
330
48A
100
AcDbEntity
  8
2D$cuna$Interiores
100
AcDbVertex
100
AcDb2dVertex
 10
699.1900739607562
 20
305.5168262002677
 30
-0.0000000000001157
  0
VERTEX
  5
4DE
330
48A
100
AcDbEntity
  8
2D$cuna$Interiores
100
AcDbVertex
100
AcDb2dVertex
 10
698.851792300624
 20
304.9953411998059
 30
-0.0000000000001157
  0
VERTEX
  5
4DF
330
48A
100
AcDbEntity
  8
2D$cuna$Interiores
100
AcDbVertex
100
AcDb2dVertex
 10
698.495615387537
 20
304.4859110339614
 30
-0.0000000000001157
  0
VERTEX
  5
4E0
330
48A
100
AcDbEntity
  8
2D$cuna$Interiores
100
AcDbVertex
100
AcDb2dVertex
 10
698.121972386934
 20
303.9891495264059
 30
-0.0000000000001157
  0
VERTEX
  5
4E1
330
48A
100
AcDbEntity
  8
2D$cuna$Interiores
100
AcDbVertex
100
AcDb2dVertex
 10
697.7313135095285
 20
303.5056552360645
 30
-0.0000000000001157
  0
VERTEX
  5
4E2
330
48A
100
AcDbEntity
  8
2D$cuna$Interiores
100
AcDbVertex
100
AcDb2dVertex
 10
697.3241094688406
 20
303.0360107358989
 30
-0.0000000000001157
  0
VERTEX
  5
4E3
330
48A
100
AcDbEntity
  8
2D$cuna$Interiores
100
AcDbVertex
100
AcDb2dVertex
 10
696.9008509140228
 20
302.5807819109523
 30
-0.0000000000001157
  0
VERTEX
  5
4E4
330
48A
100
AcDbEntity
  8
2D$cuna$Interiores
100
AcDbVertex
100
AcDb2dVertex
 10
696.4620478386678
 20
302.1405172765025
 30
-0.0000000000001157
  0
VERTEX
  5
4E5
330
48A
100
AcDbEntity
  8
2D$cuna$Interiores
100
AcDbVertex
100
AcDb2dVertex
 10
696.0082289663036
 20
301.7157473171427
 30
-0.0000000000001157
  0
VERTEX
  5
4E6
330
48A
100
AcDbEntity
  8
2D$cuna$Interiores
100
AcDbVertex
100
AcDb2dVertex
 10
695.5399411133247
 20
301.3069838475897
 30
-0.0000000000001157
  0
VERTEX
  5
4E7
330
48A
100
AcDbEntity
  8
2D$cuna$Interiores
100
AcDbVertex
100
AcDb2dVertex
 10
695.0577485301205
 20
300.9147193959868
 30
-0.0000000000001157
  0
VERTEX
  5
4E8
330
48A
100
AcDbEntity
  8
2D$cuna$Interiores
100
AcDbVertex
100
AcDb2dVertex
 10
694.5622322211968
 20
300.5394266104458
 30
-0.0000000000001157
  0
VERTEX
  5
4E9
330
48A
100
AcDbEntity
  8
2D$cuna$Interiores
100
AcDbVertex
100
AcDb2dVertex
 10
694.0539892451116
 20
300.1815576895426
 30
-0.0000000000001157
  0
VERTEX
  5
4EA
330
48A
100
AcDbEntity
  8
2D$cuna$Interiores
100
AcDbVertex
100
AcDb2dVertex
 10
693.533631995065
 20
299.8415438374535
 30
-0.0000000000001157
  0
VERTEX
  5
4EB
330
48A
100
AcDbEntity
  8
2D$cuna$Interiores
100
AcDbVertex
100
AcDb2dVertex
 10
693.0017874610144
 20
299.5197947443874
 30
-0.0000000000001157
  0
VERTEX
  5
4EC
330
48A
100
AcDbEntity
  8
2D$cuna$Interiores
100
AcDbVertex
100
AcDb2dVertex
 10
692.4590964741991
 20
299.2166980929412
 30
-0.0000000000001157
  0
VERTEX
  5
4ED
330
48A
100
AcDbEntity
  8
2D$cuna$Interiores
100
AcDbVertex
100
AcDb2dVertex
 10
691.9062129349894
 20
298.9326190909726
 30
-0.0000000000001157
  0
VERTEX
  5
4EE
330
48A
100
AcDbEntity
  8
2D$cuna$Interiores
100
AcDbVertex
100
AcDb2dVertex
 10
691.3438030249876
 20
298.6679000315527
 30
-0.0000000000001157
  0
VERTEX
  5
4EF
330
48A
100
AcDbEntity
  8
2D$cuna$Interiores
100
AcDbVertex
100
AcDb2dVertex
 10
690.7725444043303
 20
298.4228598805299
 30
-0.0000000000001157
  0
VERTEX
  5
4F0
330
48A
100
AcDbEntity
  8
2D$cuna$Interiores
100
AcDbVertex
100
AcDb2dVertex
 10
690.1931253951619
 20
298.1977938922005
 30
-0.0000000000001157
  0
VERTEX
  5
4F1
330
48A
100
AcDbEntity
  8
2D$cuna$Interiores
100
AcDbVertex
100
AcDb2dVertex
 10
689.6062441522587
 20
297.9929732535508
 30
-0.0000000000001157
  0
VERTEX
  5
4F2
330
48A
100
AcDbEntity
  8
2D$cuna$Interiores
100
AcDbVertex
100
AcDb2dVertex
 10
689.0126078218078
 20
297.8086447574973
 30
-0.0000000000001157
  0
VERTEX
  5
4F3
330
48A
100
AcDbEntity
  8
2D$cuna$Interiores
100
AcDbVertex
100
AcDb2dVertex
 10
688.4129316893508
 20
297.645030505521
 30
-0.0000000000001157
  0
VERTEX
  5
4F4
330
48A
100
AcDbEntity
  8
2D$cuna$Interiores
100
AcDbVertex
100
AcDb2dVertex
 10
687.8079383179198
 20
297.5023276400519
 30
-0.0000000000001157
  0
VERTEX
  5
4F5
330
48A
100
AcDbEntity
  8
2D$cuna$Interiores
100
AcDbVertex
100
AcDb2dVertex
 10
687.1983566774063
 20
297.3807081069282
 30
-0.0000000000001157
  0
VERTEX
  5
4F6
330
48A
100
AcDbEntity
  8
2D$cuna$Interiores
100
AcDbVertex
100
AcDb2dVertex
 10
686.5849212662081
 20
297.2803184482148
 30
-0.0000000000001157
  0
VERTEX
  5
4F7
330
48A
100
AcDbEntity
  8
2D$cuna$Interiores
100
AcDbVertex
100
AcDb2dVertex
 10
685.968371226217
 20
297.2012796256311
 30
-0.0000000000001157
  0
VERTEX
  5
4F8
330
48A
100
AcDbEntity
  8
2D$cuna$Interiores
100
AcDbVertex
100
AcDb2dVertex
 10
685.3494494522097
 20
297.1436868748024
 30
-0.0000000000001157
  0
VERTEX
  5
4F9
330
48A
100
AcDbEntity
  8
2D$cuna$Interiores
100
AcDbVertex
100
AcDb2dVertex
 10
684.7289016967176
 20
297.1076095905075
 30
-0.0000000000001157
  0
VERTEX
  5
4FA
330
48A
100
AcDbEntity
  8
2D$cuna$Interiores
100
AcDbVertex
100
AcDb2dVertex
 10
684.107475671453
 20
297.0930912430643
 30
-0.0000000000001157
  0
VERTEX
  5
4FB
330
48A
100
AcDbEntity
  8
2D$cuna$Interiores
100
AcDbVertex
100
AcDb2dVertex
 10
683.4859201463755
 20
297.1001493259505
 30
-0.0000000000001157
  0
VERTEX
  5
4FC
330
48A
100
AcDbEntity
  8
2D$cuna$Interiores
100
AcDbVertex
100
AcDb2dVertex
 10
682.8649840474812
 20
297.1287753347259
 30
-0.0000000000001157
  0
VERTEX
  5
4FD
330
48A
100
AcDbEntity
  8
2D$cuna$Interiores
100
AcDbVertex
100
AcDb2dVertex
 10
682.2454155544062
 20
297.1789347772796
 30
-0.0000000000001157
  0
VERTEX
  5
4FE
330
48A
100
AcDbEntity
  8
2D$cuna$Interiores
100
AcDbVertex
100
AcDb2dVertex
 10
681.6279611989282
 20
297.2505672153901
 30
-0.0000000000001157
  0
VERTEX
  5
4FF
330
48A
100
AcDbEntity
  8
2D$cuna$Interiores
100
AcDbVertex
100
AcDb2dVertex
 10
681.0133649654534
 20
297.3435863375488
 30
-0.0000000000001157
  0
VERTEX
  5
500
330
48A
100
AcDbEntity
  8
2D$cuna$Interiores
100
AcDbVertex
100
AcDb2dVertex
 10
680.4023673945742
 20
297.4578800629584
 30
-0.0000000000001157
  0
VERTEX
  5
501
330
48A
100
AcDbEntity
  8
2D$cuna$Interiores
100
AcDbVertex
100
AcDb2dVertex
 10
679.7957046907742
 20
297.5933106765819
 30
-0.0000000000001157
  0
VERTEX
  5
502
330
48A
100
AcDbEntity
  8
2D$cuna$Interiores
100
AcDbVertex
100
AcDb2dVertex
 10
679.19410783536
 20
297.7497149950783
 30
-0.0000000000001157
  0
VERTEX
  5
503
330
48A
100
AcDbEntity
  8
2D$cuna$Interiores
100
AcDbVertex
100
AcDb2dVertex
 10
678.5983017056858
 20
297.9269045634256
 30
-0.0000000000001157
  0
VERTEX
  5
504
330
48A
100
AcDbEntity
  8
2D$cuna$Interiores
100
AcDbVertex
100
AcDb2dVertex
 10
678.009004201732
 20
298.1246658819948
 30
-0.0000000000001157
  0
VERTEX
  5
505
330
48A
100
AcDbEntity
  8
2D$cuna$Interiores
100
AcDbVertex
100
AcDb2dVertex
 10
677.4269253810919
 20
298.3427606638002
 30
-0.0000000000001157
  0
VERTEX
  5
506
330
48A
100
AcDbEntity
  8
2D$cuna$Interiores
100
AcDbVertex
100
AcDb2dVertex
 10
676.852766603408
 20
298.5809261216165
 30
-0.0000000000001157
  0
VERTEX
  5
507
330
48A
100
AcDbEntity
  8
2D$cuna$Interiores
100
AcDbVertex
100
AcDb2dVertex
 10
676.2872196852873
 20
298.8388752846172
 30
-0.0000000000001157
  0
VERTEX
  5
508
330
48A
100
AcDbEntity
  8
2D$cuna$Interiores
100
AcDbVertex
100
AcDb2dVertex
 10
675.7309660667174
 20
299.1162973441518
 30
-0.0000000000001157
  0
VERTEX
  5
509
330
48A
100
AcDbEntity
  8
2D$cuna$Interiores
100
AcDbVertex
100
AcDb2dVertex
 10
675.1846759899836
 20
299.4128580282463
 30
-0.0000000000001157
  0
VERTEX
  5
50A
330
48A
100
AcDbEntity
  8
2D$cuna$Interiores
100
AcDbVertex
100
AcDb2dVertex
 10
674.6490076920792
 20
299.7282000043746
 30
-0.0000000000001157
  0
VERTEX
  5
50B
330
48A
100
AcDbEntity
  8
2D$cuna$Interiores
100
AcDbVertex
100
AcDb2dVertex
 10
674.1246066115812
 20
300.0619433100169
 30
-0.0000000000001157
  0
VERTEX
  5
50C
330
48A
100
AcDbEntity
  8
2D$cuna$Interiores
100
AcDbVertex
100
AcDb2dVertex
 10
673.6121046109474
 20
300.413685810484
 30
-0.0000000000001157
  0
VERTEX
  5
50D
330
48A
100
AcDbEntity
  8
2D$cuna$Interiores
100
AcDbVertex
100
AcDb2dVertex
 10
673.1121192151711
 20
300.7830036834592
 30
-0.0000000000001157
  0
VERTEX
  5
50E
330
48A
100
AcDbEntity
  8
2D$cuna$Interiores
100
AcDbVertex
100
AcDb2dVertex
 10
672.6252528677119
 20
301.169451929671
 30
-0.0000000000001157
  0
VERTEX
  5
50F
330
48A
100
AcDbEntity
  8
2D$cuna$Interiores
100
AcDbVertex
100
AcDb2dVertex
 10
672.1520922045976
 20
301.5725649090819
 30
-0.0000000000001157
  0
VERTEX
  5
510
330
48A
100
AcDbEntity
  8
2D$cuna$Interiores
100
AcDbVertex
100
AcDb2dVertex
 10
671.6932073475737
 20
301.9918569019493
 30
-0.0000000000001157
  0
VERTEX
  5
511
330
48A
100
AcDbEntity
  8
2D$cuna$Interiores
100
AcDbVertex
100
AcDb2dVertex
 10
671.2491512171518
 20
302.4268226940793
 30
-0.0000000000001157
  0
VERTEX
  5
512
330
48A
100
AcDbEntity
  8
2D$cuna$Interiores
100
AcDbVertex
100
AcDb2dVertex
 10
670.8204588663829
 20
302.8769381855707
 30
-0.0000000000001157
  0
VERTEX
  5
513
330
48A
100
AcDbEntity
  8
2D$cuna$Interiores
100
AcDbVertex
100
AcDb2dVertex
 10
670.4076468361595
 20
303.3416610223148
 30
-0.0000000000001157
  0
VERTEX
  5
514
330
48A
100
AcDbEntity
  8
2D$cuna$Interiores
100
AcDbVertex
100
AcDb2dVertex
 10
670.0112125328255
 20
303.820431249489
 30
-0.0000000000001157
  0
VERTEX
  5
515
330
48A
100
AcDbEntity
  8
2D$cuna$Interiores
100
AcDbVertex
100
AcDb2dVertex
 10
669.631633628839
 20
304.3126719862601
 30
-0.0000000000001157
  0
VERTEX
  5
516
330
48A
100
AcDbEntity
  8
2D$cuna$Interiores
100
AcDbVertex
100
AcDb2dVertex
 10
669.269367487215
 20
304.8177901208794
 30
-0.0000000000001157
  0
VERTEX
  5
517
330
48A
100
AcDbEntity
  8
2D$cuna$Interiores
100
AcDbVertex
100
AcDb2dVertex
 10
668.9248506104382
 20
305.3351770253371
 30
-0.0000000000001157
  0
VERTEX
  5
518
330
48A
100
AcDbEntity
  8
2D$cuna$Interiores
100
AcDbVertex
100
AcDb2dVertex
 10
668.5984981145114
 20
305.8642092887113
 30
-0.0000000000001157
  0
VERTEX
  5
519
330
48A
100
AcDbEntity
  8
2D$cuna$Interiores
100
AcDbVertex
100
AcDb2dVertex
 10
668.2907032287735
 20
306.4042494683295
 30
-0.0000000000001157
  0
VERTEX
  5
51A
330
48A
100
AcDbEntity
  8
2D$cuna$Interiores
100
AcDbVertex
100
AcDb2dVertex
 10
668.0018368220886
 20
306.9546468578377
 30
-0.0000000000001157
  0
VERTEX
  5
51B
330
48A
100
AcDbEntity
  8
2D$cuna$Interiores
100
AcDbVertex
100
AcDb2dVertex
 10
667.7322469559776
 20
307.5147382712505
 30
-0.0000000000001157
  0
VERTEX
  5
51C
330
48A
100
AcDbEntity
  8
2D$cuna$Interiores
100
AcDbVertex
100
AcDb2dVertex
 10
667.4822584652317
 20
308.0838488420388
 30
-0.0000000000001157
  0
VERTEX
  5
51D
330
48A
100
AcDbEntity
  8
2D$cuna$Interiores
100
AcDbVertex
100
AcDb2dVertex
 10
667.2521725665109
 20
308.6612928362914
 30
-0.0000000000001157
  0
VERTEX
  5
51E
330
48A
100
AcDbEntity
  8
2D$cuna$Interiores
100
AcDbVertex
100
AcDb2dVertex
 10
667.0422664954028
 20
309.2463744789707
 30
-0.0000000000001157
  0
VERTEX
  5
51F
330
48A
100
AcDbEntity
  8
2D$cuna$Interiores
100
AcDbVertex
100
AcDb2dVertex
 10
666.8527931723736
 20
309.8383887922679
 30
-0.0000000000001157
  0
VERTEX
  5
520
330
48A
100
AcDbEntity
  8
2D$cuna$Interiores
100
AcDbVertex
100
AcDb2dVertex
 10
666.6839808980204
 20
310.4366224450459
 30
-0.0000000000001157
  0
VERTEX
  5
521
330
48A
100
AcDbEntity
  8
2D$cuna$Interiores
100
AcDbVertex
100
AcDb2dVertex
 10
666.5360330779853
 20
311.040354612348
 30
-0.0000000000001157
  0
VERTEX
  5
522
330
48A
100
AcDbEntity
  8
2D$cuna$Interiores
100
AcDbVertex
100
AcDb2dVertex
 10
666.4091279778679
 20
311.6488578439357
 30
-0.0000000000001157
  0
VERTEX
  5
523
330
48A
100
AcDbEntity
  8
2D$cuna$Interiores
100
AcDbVertex
100
AcDb2dVertex
 10
666.3034185084299
 20
312.2613989408097
 30
-0.0000000000001157
  0
VERTEX
  5
524
330
48A
100
AcDbEntity
  8
2D$cuna$Interiores
100
AcDbVertex
100
AcDb2dVertex
 10
666.2190320413483
 20
312.8772398386575
 30
-0.0000000000001157
  0
VERTEX
  5
525
330
48A
100
AcDbEntity
  8
2D$cuna$Interiores
100
AcDbVertex
100
AcDb2dVertex
 10
666.1560702557434
 20
313.4956384971634
 30
-0.0000000000001157
  0
VERTEX
  5
526
330
48A
100
AcDbEntity
  8
2D$cuna$Interiores
100
AcDbVertex
100
AcDb2dVertex
 10
666.114609015663
 20
314.1158497941094
 30
-0.0000000000001157
  0
VERTEX
  5
527
330
48A
100
AcDbEntity
  8
2D$cuna$Interiores
100
AcDbVertex
100
AcDb2dVertex
 10
666.0946982786719
 20
314.7371264231893
 30
-0.0000000000001157
  0
VERTEX
  5
528
330
48A
100
AcDbEntity
  8
2D$cuna$Interiores
100
AcDbVertex
100
AcDb2dVertex
 10
666.0963620356575
 20
315.3587197944548
 30
-0.0000000000001157
  0
VERTEX
  5
529
330
48A
100
AcDbEntity
  8
2D$cuna$Interiores
100
AcDbVertex
100
AcDb2dVertex
 10
666.1195982819221
 20
315.9798809363077
 30
-0.0000000000001157
  0
VERTEX
  5
52A
330
48A
100
AcDbEntity
  8
2D$cuna$Interiores
100
AcDbVertex
100
AcDb2dVertex
 10
666.1643790195989
 20
316.5998613979527
 30
-0.0000000000001157
  0
VERTEX
  5
52B
330
48A
100
AcDbEntity
  8
2D$cuna$Interiores
100
AcDbVertex
100
AcDb2dVertex
 10
666.2306502913868
 20
317.2179141512223
 30
-0.0000000000001157
  0
VERTEX
  5
52C
330
48A
100
AcDbEntity
  8
2D$cuna$Interiores
100
AcDbVertex
100
AcDb2dVertex
 10
666.3183322455651
 20
317.8332944906871
 30
-0.0000000000001157
  0
VERTEX
  5
52D
330
48A
100
AcDbEntity
  8
2D$cuna$Interiores
100
AcDbVertex
100
AcDb2dVertex
 10
666.4273192322082
 20
318.4452609309687
 30
-0.0000000000001157
  0
VERTEX
  5
52E
330
48A
100
AcDbEntity
  8
2D$cuna$Interiores
100
AcDbVertex
100
AcDb2dVertex
 10
666.5574799304858
 20
319.053076100171
 30
-0.0000000000001157
  0
VERTEX
  5
52F
330
48A
100
AcDbEntity
  8
2D$cuna$Interiores
100
AcDbVertex
100
AcDb2dVertex
 10
666.7086575068946
 20
319.656007628356
 30
-0.0000000000001157
  0
VERTEX
  5
530
330
48A
100
AcDbEntity
  8
2D$cuna$Interiores
100
AcDbVertex
100
AcDb2dVertex
 10
666.8806698042297
 20
320.2533290299934
 30
-0.0000000000001157
  0
VERTEX
  5
531
330
48A
100
AcDbEntity
  8
2D$cuna$Interiores
100
AcDbVertex
100
AcDb2dVertex
 10
667.0733095610706
 20
320.8443205793176
 30
-0.0000000000001157
  0
VERTEX
  5
532
330
48A
100
AcDbEntity
  8
2D$cuna$Interiores
100
AcDbVertex
100
AcDb2dVertex
 10
667.2863446615142
 20
321.4282701775429
 30
-0.0000000000001157
  0
VERTEX
  5
533
330
48A
100
AcDbEntity
  8
2D$cuna$Interiores
100
AcDbVertex
100
AcDb2dVertex
 10
667.5195184148574
 20
322.0044742108855
 30
-0.0000000000001157
  0
VERTEX
  5
534
330
48A
100
AcDbEntity
  8
2D$cuna$Interiores
100
AcDbVertex
100
AcDb2dVertex
 10
667.7725498648889
 20
322.5722383983643
 30
-0.0000000000001157
  0
VERTEX
  5
535
330
48A
100
AcDbEntity
  8
2D$cuna$Interiores
100
AcDbVertex
100
AcDb2dVertex
 10
668.045134128419
 20
323.1308786283551
 30
-0.0000000000001157
  0
VERTEX
  5
536
330
48A
100
AcDbEntity
  8
2D$cuna$Interiores
100
AcDbVertex
100
AcDb2dVertex
 10
668.3369427626412
 20
323.6797217828918
 30
-0.0000000000001157
  0
VERTEX
  5
537
330
48A
100
AcDbEntity
  8
2D$cuna$Interiores
100
AcDbVertex
100
AcDb2dVertex
 10
668.6476241608797
 20
324.2181065487212
 30
-0.0000000000001157
  0
VERTEX
  5
538
330
48A
100
AcDbEntity
  8
2D$cuna$Interiores
100
AcDbVertex
100
AcDb2dVertex
 10
668.9768039762474
 20
324.7453842141337
 30
-0.0000000000001157
  0
VERTEX
  5
539
330
48A
100
AcDbEntity
  8
2D$cuna$Interiores
100
AcDbVertex
100
AcDb2dVertex
 10
669.324085572706
 20
325.260919450611
 30
-0.0000000000001157
  0
VERTEX
  5
53A
330
48A
100
AcDbEntity
  8
2D$cuna$Interiores
100
AcDbVertex
100
AcDb2dVertex
 10
669.6890505029805
 20
325.7640910783466
 30
-0.0000000000001157
  0
VERTEX
  5
53B
330
48A
100
AcDbEntity
  8
2D$cuna$Interiores
100
AcDbVertex
100
AcDb2dVertex
 10
670.0712590127563
 20
326.25429281472
 30
-0.0000000000001157
  0
VERTEX
  5
53C
330
48A
100
AcDbEntity
  8
2D$cuna$Interiores
100
AcDbVertex
100
AcDb2dVertex
 10
670.470250570548
 20
326.7309340048193
 30
-0.0000000000001157
  0
VERTEX
  5
53D
330
48A
100
AcDbEntity
  8
2D$cuna$Interiores
100
AcDbVertex
100
AcDb2dVertex
 10
670.8855444226052
 20
327.1934403331349
 30
-0.0000000000001157
  0
VERTEX
  5
53E
330
48A
100
AcDbEntity
  8
2D$cuna$Interiores
100
AcDbVertex
100
AcDb2dVertex
 10
671.3166401721822
 20
327.6412545155645
 30
-0.0000000000001157
  0
VERTEX
  5
53F
330
48A
100
AcDbEntity
  8
2D$cuna$Interiores
100
AcDbVertex
100
AcDb2dVertex
 10
671.7630183824778
 20
328.0738369708974
 30
-0.0000000000001157
  0
VERTEX
  5
540
330
48A
100
AcDbEntity
  8
2D$cuna$Interiores
100
AcDbVertex
100
AcDb2dVertex
 10
672.2241412025156
 20
328.4906664709677
 30
-0.0000000000001157
  0
SEQEND
  5
541
330
48A
100
AcDbEntity
  8
2D$cuna$Interiores
  0
POLYLINE
  5
542
330
1F
100
AcDbEntity
  8
2D$cuna$Interiores
100
AcDb2dPolyline
 66
     1
 10
0.0
 20
0.0
 30
0.0000000000000568
  0
VERTEX
  5
543
330
542
100
AcDbEntity
  8
2D$cuna$Interiores
100
AcDbVertex
100
AcDb2dVertex
 10
99.99999999999989
 20
269.9999999999999
 30
0.0000000000000568
  0
VERTEX
  5
544
330
542
100
AcDbEntity
  8
2D$cuna$Interiores
100
AcDbVertex
100
AcDb2dVertex
 10
623.9999999999999
 20
270.0000000000001
 30
0.0000000000000568
  0
VERTEX
  5
545
330
542
100
AcDbEntity
  8
2D$cuna$Interiores
100
AcDbVertex
100
AcDb2dVertex
 10
625.1097971880802
 20
269.9876819846784
 30
0.0000000000000568
  0
VERTEX
  5
546
330
542
100
AcDbEntity
  8
2D$cuna$Interiores
100
AcDbVertex
100
AcDb2dVertex
 10
626.2290122074327
 20
269.9502903352836
 30
0.0000000000000568
  0
VERTEX
  5
547
330
542
100
AcDbEntity
  8
2D$cuna$Interiores
100
AcDbVertex
100
AcDb2dVertex
 10
627.35691196947
 20
269.8871841461235
 30
0.0000000000000568
  0
VERTEX
  5
548
330
542
100
AcDbEntity
  8
2D$cuna$Interiores
100
AcDbVertex
100
AcDb2dVertex
 10
628.492721894885
 20
269.797745430644
 30
0.0000000000000568
  0
VERTEX
  5
549
330
542
100
AcDbEntity
  8
2D$cuna$Interiores
100
AcDbVertex
100
AcDb2dVertex
 10
629.6356263991931
 20
269.6813819764379
 30
0.0000000000000568
  0
VERTEX
  5
54A
330
542
100
AcDbEntity
  8
2D$cuna$Interiores
100
AcDbVertex
100
AcDb2dVertex
 10
630.7847695888491
 20
269.5375302334123
 30
0.0000000000000568
  0
VERTEX
  5
54B
330
542
100
AcDbEntity
  8
2D$cuna$Interiores
100
AcDbVertex
100
AcDb2dVertex
 10
631.9392561762465
 20
269.3656582187247
 30
0.0000000000000568
  0
VERTEX
  5
54C
330
542
100
AcDbEntity
  8
2D$cuna$Interiores
100
AcDbVertex
100
AcDb2dVertex
 10
633.0981526206069
 20
269.1652684208288
 30
0.0000000000000568
  0
VERTEX
  5
54D
330
542
100
AcDbEntity
  8
2D$cuna$Interiores
100
AcDbVertex
100
AcDb2dVertex
 10
634.2604885002792
 20
268.9359006838092
 30
0.0000000000000568
  0
VERTEX
  5
54E
330
542
100
AcDbEntity
  8
2D$cuna$Interiores
100
AcDbVertex
100
AcDb2dVertex
 10
635.425258120322
 20
268.6771350521373
 30
0.0000000000000568
  0
VERTEX
  5
54F
330
542
100
AcDbEntity
  8
2D$cuna$Interiores
100
AcDbVertex
100
AcDb2dVertex
 10
636.5914223574258
 20
268.3885945550903
 30
0.0000000000000568
  0
VERTEX
  5
550
330
542
100
AcDbEntity
  8
2D$cuna$Interiores
100
AcDbVertex
100
AcDb2dVertex
 10
637.7579107422682
 20
268.0699479093516
 30
0.0000000000000568
  0
VERTEX
  5
551
330
542
100
AcDbEntity
  8
2D$cuna$Interiores
100
AcDbVertex
100
AcDb2dVertex
 10
638.9236237773015
 20
267.7209121177871
 30
0.0000000000000568
  0
VERTEX
  5
552
330
542
100
AcDbEntity
  8
2D$cuna$Interiores
100
AcDbVertex
100
AcDb2dVertex
 10
640.0874354857636
 20
267.3412549420839
 30
0.0000000000000568
  0
VERTEX
  5
553
330
542
100
AcDbEntity
  8
2D$cuna$Interiores
100
AcDbVertex
100
AcDb2dVertex
 10
641.248196185408
 20
266.9307972268709
 30
0.0000000000000568
  0
VERTEX
  5
554
330
542
100
AcDbEntity
  8
2D$cuna$Interiores
100
AcDbVertex
100
AcDb2dVertex
 10
642.4047354780935
 20
266.4894150531215
 30
0.0000000000000568
  0
VERTEX
  5
555
330
542
100
AcDbEntity
  8
2D$cuna$Interiores
100
AcDbVertex
100
AcDb2dVertex
 10
643.5558654439859
 20
266.0170416991001
 30
0.0000000000000568
  0
VERTEX
  5
556
330
542
100
AcDbEntity
  8
2D$cuna$Interiores
100
AcDbVertex
100
AcDb2dVertex
 10
644.7003840267423
 20
265.5136693878378
 30
0.0000000000000568
  0
VERTEX
  5
557
330
542
100
AcDbEntity
  8
2D$cuna$Interiores
100
AcDbVertex
100
AcDb2dVertex
 10
645.8370785936964
 20
264.979350801148
 30
0.0000000000000568
  0
VERTEX
  5
558
330
542
100
AcDbEntity
  8
2D$cuna$Interiores
100
AcDbVertex
100
AcDb2dVertex
 10
646.9647296528001
 20
264.4142003414877
 30
0.0000000000000568
  0
VERTEX
  5
559
330
542
100
AcDbEntity
  8
2D$cuna$Interiores
100
AcDbVertex
100
AcDb2dVertex
 10
648.0821147059038
 20
263.8183951245559
 30
0.0000000000000568
  0
VERTEX
  5
55A
330
542
100
AcDbEntity
  8
2D$cuna$Interiores
100
AcDbVertex
100
AcDb2dVertex
 10
649.1880122159574
 20
263.1921756873717
 30
0.0000000000000568
  0
VERTEX
  5
55B
330
542
100
AcDbEntity
  8
2D$cuna$Interiores
100
AcDbVertex
100
AcDb2dVertex
 10
650.281205663882
 20
262.5358463986875
 30
0.0000000000000568
  0
VERTEX
  5
55C
330
542
100
AcDbEntity
  8
2D$cuna$Interiores
100
AcDbVertex
100
AcDb2dVertex
 10
651.3604876692569
 20
261.8497755609326
 30
0.0000000000000568
  0
VERTEX
  5
55D
330
542
100
AcDbEntity
  8
2D$cuna$Interiores
100
AcDbVertex
100
AcDb2dVertex
 10
652.4246641476249
 20
261.134395195441
 30
0.0000000000000568
  0
VERTEX
  5
55E
330
542
100
AcDbEntity
  8
2D$cuna$Interiores
100
AcDbVertex
100
AcDb2dVertex
 10
653.4725584761397
 20
260.3902005054507
 30
0.0000000000000568
  0
VERTEX
  5
55F
330
542
100
AcDbEntity
  8
2D$cuna$Interiores
100
AcDbVertex
100
AcDb2dVertex
 10
654.503015638536
 20
259.6177490142388
 30
0.0000000000000568
  0
VERTEX
  5
560
330
542
100
AcDbEntity
  8
2D$cuna$Interiores
100
AcDbVertex
100
AcDb2dVertex
 10
655.5149063199614
 20
258.8176593787422
 30
0.0000000000000568
  0
VERTEX
  5
561
330
542
100
AcDbEntity
  8
2D$cuna$Interiores
100
AcDbVertex
100
AcDb2dVertex
 10
656.5071309221416
 20
257.9906098820582
 30
0.0000000000000568
  0
VERTEX
  5
562
330
542
100
AcDbEntity
  8
2D$cuna$Interiores
100
AcDbVertex
100
AcDb2dVertex
 10
657.4786234696095
 20
257.1373366112879
 30
0.0000000000000568
  0
VERTEX
  5
563
330
542
100
AcDbEntity
  8
2D$cuna$Interiores
100
AcDbVertex
100
AcDb2dVertex
 10
658.4283553783667
 20
256.258631330221
 30
0.0000000000000568
  0
VERTEX
  5
564
330
542
100
AcDbEntity
  8
2D$cuna$Interiores
100
AcDbVertex
100
AcDb2dVertex
 10
659.3553390593272
 20
255.3553390593274
 30
0.0000000000000568
  0
VERTEX
  5
565
330
542
100
AcDbEntity
  8
2D$cuna$Interiores
100
AcDbVertex
100
AcDb2dVertex
 10
660.2586313302207
 20
254.4283553783669
 30
0.0000000000000568
  0
VERTEX
  5
566
330
542
100
AcDbEntity
  8
2D$cuna$Interiores
100
AcDbVertex
100
AcDb2dVertex
 10
661.1373366112875
 20
253.4786234696097
 30
0.0000000000000568
  0
VERTEX
  5
567
330
542
100
AcDbEntity
  8
2D$cuna$Interiores
100
AcDbVertex
100
AcDb2dVertex
 10
661.9906098820579
 20
252.5071309221418
 30
0.0000000000000568
  0
VERTEX
  5
568
330
542
100
AcDbEntity
  8
2D$cuna$Interiores
100
AcDbVertex
100
AcDb2dVertex
 10
662.817659378742
 20
251.5149063199616
 30
0.0000000000000568
  0
VERTEX
  5
569
330
542
100
AcDbEntity
  8
2D$cuna$Interiores
100
AcDbVertex
100
AcDb2dVertex
 10
663.6177490142386
 20
250.5030156385363
 30
0.0000000000000568
  0
VERTEX
  5
56A
330
542
100
AcDbEntity
  8
2D$cuna$Interiores
100
AcDbVertex
100
AcDb2dVertex
 10
664.3902005054503
 20
249.4725584761402
 30
0.0000000000000568
  0
VERTEX
  5
56B
330
542
100
AcDbEntity
  8
2D$cuna$Interiores
100
AcDbVertex
100
AcDb2dVertex
 10
665.1343951954407
 20
248.4246641476252
 30
0.0000000000000568
  0
VERTEX
  5
56C
330
542
100
AcDbEntity
  8
2D$cuna$Interiores
100
AcDbVertex
100
AcDb2dVertex
 10
665.8497755609324
 20
247.3604876692571
 30
0.0000000000000568
  0
VERTEX
  5
56D
330
542
100
AcDbEntity
  8
2D$cuna$Interiores
100
AcDbVertex
100
AcDb2dVertex
 10
666.5358463986873
 20
246.2812056638821
 30
0.0000000000000568
  0
VERTEX
  5
56E
330
542
100
AcDbEntity
  8
2D$cuna$Interiores
100
AcDbVertex
100
AcDb2dVertex
 10
667.1921756873714
 20
245.1880122159576
 30
0.0000000000000568
  0
VERTEX
  5
56F
330
542
100
AcDbEntity
  8
2D$cuna$Interiores
100
AcDbVertex
100
AcDb2dVertex
 10
667.8183951245558
 20
244.0821147059039
 30
0.0000000000000568
  0
VERTEX
  5
570
330
542
100
AcDbEntity
  8
2D$cuna$Interiores
100
AcDbVertex
100
AcDb2dVertex
 10
668.4142003414875
 20
242.9647296528002
 30
0.0000000000000568
  0
VERTEX
  5
571
330
542
100
AcDbEntity
  8
2D$cuna$Interiores
100
AcDbVertex
100
AcDb2dVertex
 10
668.9793508011478
 20
241.8370785936966
 30
0.0000000000000568
  0
VERTEX
  5
572
330
542
100
AcDbEntity
  8
2D$cuna$Interiores
100
AcDbVertex
100
AcDb2dVertex
 10
669.5136693878376
 20
240.7003840267424
 30
0.0000000000000568
  0
VERTEX
  5
573
330
542
100
AcDbEntity
  8
2D$cuna$Interiores
100
AcDbVertex
100
AcDb2dVertex
 10
670.0170416990999
 20
239.5558654439861
 30
0.0000000000000568
  0
VERTEX
  5
574
330
542
100
AcDbEntity
  8
2D$cuna$Interiores
100
AcDbVertex
100
AcDb2dVertex
 10
670.4894150531213
 20
238.4047354780937
 30
0.0000000000000568
  0
VERTEX
  5
575
330
542
100
AcDbEntity
  8
2D$cuna$Interiores
100
AcDbVertex
100
AcDb2dVertex
 10
670.9307972268706
 20
237.2481961854083
 30
0.0000000000000568
  0
VERTEX
  5
576
330
542
100
AcDbEntity
  8
2D$cuna$Interiores
100
AcDbVertex
100
AcDb2dVertex
 10
671.3412549420837
 20
236.087435485764
 30
0.0000000000000568
  0
VERTEX
  5
577
330
542
100
AcDbEntity
  8
2D$cuna$Interiores
100
AcDbVertex
100
AcDb2dVertex
 10
671.7209121177866
 20
234.9236237773019
 30
0.0000000000000568
  0
VERTEX
  5
578
330
542
100
AcDbEntity
  8
2D$cuna$Interiores
100
AcDbVertex
100
AcDb2dVertex
 10
672.0699479093513
 20
233.7579107422685
 30
0.0000000000000568
  0
VERTEX
  5
579
330
542
100
AcDbEntity
  8
2D$cuna$Interiores
100
AcDbVertex
100
AcDb2dVertex
 10
672.38859455509
 20
232.5914223574261
 30
0.0000000000000568
  0
VERTEX
  5
57A
330
542
100
AcDbEntity
  8
2D$cuna$Interiores
100
AcDbVertex
100
AcDb2dVertex
 10
672.677135052137
 20
231.4252581203223
 30
0.0000000000000568
  0
VERTEX
  5
57B
330
542
100
AcDbEntity
  8
2D$cuna$Interiores
100
AcDbVertex
100
AcDb2dVertex
 10
672.9359006838088
 20
230.2604885002795
 30
0.0000000000000568
  0
VERTEX
  5
57C
330
542
100
AcDbEntity
  8
2D$cuna$Interiores
100
AcDbVertex
100
AcDb2dVertex
 10
673.1652684208284
 20
229.0981526206073
 30
0.0000000000000568
  0
VERTEX
  5
57D
330
542
100
AcDbEntity
  8
2D$cuna$Interiores
100
AcDbVertex
100
AcDb2dVertex
 10
673.3656582187243
 20
227.9392561762468
 30
0.0000000000000568
  0
VERTEX
  5
57E
330
542
100
AcDbEntity
  8
2D$cuna$Interiores
100
AcDbVertex
100
AcDb2dVertex
 10
673.537530233412
 20
226.7847695888494
 30
0.0000000000000568
  0
VERTEX
  5
57F
330
542
100
AcDbEntity
  8
2D$cuna$Interiores
100
AcDbVertex
100
AcDb2dVertex
 10
673.6813819764375
 20
225.6356263991935
 30
0.0000000000000568
  0
VERTEX
  5
580
330
542
100
AcDbEntity
  8
2D$cuna$Interiores
100
AcDbVertex
100
AcDb2dVertex
 10
673.7977454306437
 20
224.4927218948853
 30
0.0000000000000568
  0
VERTEX
  5
581
330
542
100
AcDbEntity
  8
2D$cuna$Interiores
100
AcDbVertex
100
AcDb2dVertex
 10
673.8871841461232
 20
223.3569119694703
 30
0.0000000000000568
  0
VERTEX
  5
582
330
542
100
AcDbEntity
  8
2D$cuna$Interiores
100
AcDbVertex
100
AcDb2dVertex
 10
673.9502903352833
 20
222.2290122074329
 30
0.0000000000000568
  0
VERTEX
  5
583
330
542
100
AcDbEntity
  8
2D$cuna$Interiores
100
AcDbVertex
100
AcDb2dVertex
 10
673.9876819846781
 20
221.1097971880803
 30
0.0000000000000568
  0
VERTEX
  5
584
330
542
100
AcDbEntity
  8
2D$cuna$Interiores
100
AcDbVertex
100
AcDb2dVertex
 10
673.9999999999999
 20
220.0
 30
0.0000000000000568
  0
VERTEX
  5
585
330
542
100
AcDbEntity
  8
2D$cuna$Interiores
100
AcDbVertex
100
AcDb2dVertex
 10
674.0
 20
79.99999999999983
 30
0.0000000000000568
  0
VERTEX
  5
586
330
542
100
AcDbEntity
  8
2D$cuna$Interiores
100
AcDbVertex
100
AcDb2dVertex
 10
673.9876819846783
 20
78.89020281191955
 30
0.0000000000000568
  0
VERTEX
  5
587
330
542
100
AcDbEntity
  8
2D$cuna$Interiores
100
AcDbVertex
100
AcDb2dVertex
 10
673.9502903352836
 20
77.77098779256694
 30
0.0000000000000568
  0
VERTEX
  5
588
330
542
100
AcDbEntity
  8
2D$cuna$Interiores
100
AcDbVertex
100
AcDb2dVertex
 10
673.8871841461236
 20
76.64308803052961
 30
0.0000000000000568
  0
VERTEX
  5
589
330
542
100
AcDbEntity
  8
2D$cuna$Interiores
100
AcDbVertex
100
AcDb2dVertex
 10
673.797745430644
 20
75.50727810511462
 30
0.0000000000000568
  0
VERTEX
  5
58A
330
542
100
AcDbEntity
  8
2D$cuna$Interiores
100
AcDbVertex
100
AcDb2dVertex
 10
673.6813819764378
 20
74.36437360080649
 30
0.0000000000000568
  0
VERTEX
  5
58B
330
542
100
AcDbEntity
  8
2D$cuna$Interiores
100
AcDbVertex
100
AcDb2dVertex
 10
673.5375302334121
 20
73.21523041115057
 30
0.0000000000000568
  0
VERTEX
  5
58C
330
542
100
AcDbEntity
  8
2D$cuna$Interiores
100
AcDbVertex
100
AcDb2dVertex
 10
673.3656582187244
 20
72.06074382375311
 30
0.0000000000000568
  0
VERTEX
  5
58D
330
542
100
AcDbEntity
  8
2D$cuna$Interiores
100
AcDbVertex
100
AcDb2dVertex
 10
673.1652684208286
 20
70.90184737939265
 30
0.0000000000000568
  0
VERTEX
  5
58E
330
542
100
AcDbEntity
  8
2D$cuna$Interiores
100
AcDbVertex
100
AcDb2dVertex
 10
672.9359006838092
 20
69.7395114997204
 30
0.0000000000000568
  0
VERTEX
  5
58F
330
542
100
AcDbEntity
  8
2D$cuna$Interiores
100
AcDbVertex
100
AcDb2dVertex
 10
672.6771350521373
 20
68.5747418796776
 30
0.0000000000000568
  0
VERTEX
  5
590
330
542
100
AcDbEntity
  8
2D$cuna$Interiores
100
AcDbVertex
100
AcDb2dVertex
 10
672.3885945550902
 20
67.40857764257386
 30
0.0000000000000568
  0
VERTEX
  5
591
330
542
100
AcDbEntity
  8
2D$cuna$Interiores
100
AcDbVertex
100
AcDb2dVertex
 10
672.0699479093516
 20
66.24208925773146
 30
0.0000000000000568
  0
VERTEX
  5
592
330
542
100
AcDbEntity
  8
2D$cuna$Interiores
100
AcDbVertex
100
AcDb2dVertex
 10
671.7209121177872
 20
65.0763762226981
 30
0.0000000000000568
  0
VERTEX
  5
593
330
542
100
AcDbEntity
  8
2D$cuna$Interiores
100
AcDbVertex
100
AcDb2dVertex
 10
671.3412549420839
 20
63.91256451423599
 30
0.0000000000000568
  0
VERTEX
  5
594
330
542
100
AcDbEntity
  8
2D$cuna$Interiores
100
AcDbVertex
100
AcDb2dVertex
 10
670.9307972268708
 20
62.75180381459165
 30
0.0000000000000568
  0
VERTEX
  5
595
330
542
100
AcDbEntity
  8
2D$cuna$Interiores
100
AcDbVertex
100
AcDb2dVertex
 10
670.4894150531215
 20
61.59526452190632
 30
0.0000000000000568
  0
VERTEX
  5
596
330
542
100
AcDbEntity
  8
2D$cuna$Interiores
100
AcDbVertex
100
AcDb2dVertex
 10
670.0170416991001
 20
60.44413455601391
 30
0.0000000000000568
  0
VERTEX
  5
597
330
542
100
AcDbEntity
  8
2D$cuna$Interiores
100
AcDbVertex
100
AcDb2dVertex
 10
669.5136693878377
 20
59.29961597325767
 30
0.0000000000000568
  0
VERTEX
  5
598
330
542
100
AcDbEntity
  8
2D$cuna$Interiores
100
AcDbVertex
100
AcDb2dVertex
 10
668.9793508011478
 20
58.16292140630348
 30
0.0000000000000568
  0
VERTEX
  5
599
330
542
100
AcDbEntity
  8
2D$cuna$Interiores
100
AcDbVertex
100
AcDb2dVertex
 10
668.4142003414877
 20
57.03527034719983
 30
0.0000000000000568
  0
VERTEX
  5
59A
330
542
100
AcDbEntity
  8
2D$cuna$Interiores
100
AcDbVertex
100
AcDb2dVertex
 10
667.8183951245559
 20
55.91788529409619
 30
0.0000000000000568
  0
VERTEX
  5
59B
330
542
100
AcDbEntity
  8
2D$cuna$Interiores
100
AcDbVertex
100
AcDb2dVertex
 10
667.1921756873717
 20
54.81198778404244
 30
0.0000000000000568
  0
VERTEX
  5
59C
330
542
100
AcDbEntity
  8
2D$cuna$Interiores
100
AcDbVertex
100
AcDb2dVertex
 10
666.5358463986875
 20
53.71879433611794
 30
0.0000000000000568
  0
VERTEX
  5
59D
330
542
100
AcDbEntity
  8
2D$cuna$Interiores
100
AcDbVertex
100
AcDb2dVertex
 10
665.8497755609325
 20
52.6395123307429
 30
0.0000000000000568
  0
VERTEX
  5
59E
330
542
100
AcDbEntity
  8
2D$cuna$Interiores
100
AcDbVertex
100
AcDb2dVertex
 10
665.134395195441
 20
51.57533585237493
 30
0.0000000000000568
  0
VERTEX
  5
59F
330
542
100
AcDbEntity
  8
2D$cuna$Interiores
100
AcDbVertex
100
AcDb2dVertex
 10
664.3902005054505
 20
50.52744152385996
 30
0.0000000000000568
  0
VERTEX
  5
5A0
330
542
100
AcDbEntity
  8
2D$cuna$Interiores
100
AcDbVertex
100
AcDb2dVertex
 10
663.6177490142388
 20
49.49698436146387
 30
0.0000000000000568
  0
VERTEX
  5
5A1
330
542
100
AcDbEntity
  8
2D$cuna$Interiores
100
AcDbVertex
100
AcDb2dVertex
 10
662.8176593787422
 20
48.48509368003853
 30
0.0000000000000568
  0
VERTEX
  5
5A2
330
542
100
AcDbEntity
  8
2D$cuna$Interiores
100
AcDbVertex
100
AcDb2dVertex
 10
661.9906098820582
 20
47.49286907785829
 30
0.0000000000000568
  0
VERTEX
  5
5A3
330
542
100
AcDbEntity
  8
2D$cuna$Interiores
100
AcDbVertex
100
AcDb2dVertex
 10
661.1373366112878
 20
46.52137653039038
 30
0.0000000000000568
  0
VERTEX
  5
5A4
330
542
100
AcDbEntity
  8
2D$cuna$Interiores
100
AcDbVertex
100
AcDb2dVertex
 10
660.2586313302209
 20
45.5716446216332
 30
0.0000000000000568
  0
VERTEX
  5
5A5
330
542
100
AcDbEntity
  8
2D$cuna$Interiores
100
AcDbVertex
100
AcDb2dVertex
 10
659.3553390593274
 20
44.64466094067271
 30
0.0000000000000568
  0
VERTEX
  5
5A6
330
542
100
AcDbEntity
  8
2D$cuna$Interiores
100
AcDbVertex
100
AcDb2dVertex
 10
658.4283553783669
 20
43.74136866977918
 30
0.0000000000000568
  0
VERTEX
  5
5A7
330
542
100
AcDbEntity
  8
2D$cuna$Interiores
100
AcDbVertex
100
AcDb2dVertex
 10
657.4786234696096
 20
42.86266338871227
 30
0.0000000000000568
  0
VERTEX
  5
5A8
330
542
100
AcDbEntity
  8
2D$cuna$Interiores
100
AcDbVertex
100
AcDb2dVertex
 10
656.5071309221418
 20
42.00939011794195
 30
0.0000000000000568
  0
VERTEX
  5
5A9
330
542
100
AcDbEntity
  8
2D$cuna$Interiores
100
AcDbVertex
100
AcDb2dVertex
 10
655.5149063199615
 20
41.18234062125794
 30
0.0000000000000568
  0
VERTEX
  5
5AA
330
542
100
AcDbEntity
  8
2D$cuna$Interiores
100
AcDbVertex
100
AcDb2dVertex
 10
654.5030156385362
 20
40.38225098576135
 30
0.0000000000000568
  0
VERTEX
  5
5AB
330
542
100
AcDbEntity
  8
2D$cuna$Interiores
100
AcDbVertex
100
AcDb2dVertex
 10
653.47255847614
 20
39.60979949454948
 30
0.0000000000000568
  0
VERTEX
  5
5AC
330
542
100
AcDbEntity
  8
2D$cuna$Interiores
100
AcDbVertex
100
AcDb2dVertex
 10
652.4246641476252
 20
38.86560480455917
 30
0.0000000000000568
  0
VERTEX
  5
5AD
330
542
100
AcDbEntity
  8
2D$cuna$Interiores
100
AcDbVertex
100
AcDb2dVertex
 10
651.360487669257
 20
38.15022443906755
 30
0.0000000000000568
  0
VERTEX
  5
5AE
330
542
100
AcDbEntity
  8
2D$cuna$Interiores
100
AcDbVertex
100
AcDb2dVertex
 10
650.281205663882
 20
37.46415360131267
 30
0.0000000000000568
  0
VERTEX
  5
5AF
330
542
100
AcDbEntity
  8
2D$cuna$Interiores
100
AcDbVertex
100
AcDb2dVertex
 10
649.1880122159577
 20
36.80782431262855
 30
0.0000000000000568
  0
VERTEX
  5
5B0
330
542
100
AcDbEntity
  8
2D$cuna$Interiores
100
AcDbVertex
100
AcDb2dVertex
 10
648.082114705904
 20
36.18160487544438
 30
0.0000000000000568
  0
VERTEX
  5
5B1
330
542
100
AcDbEntity
  8
2D$cuna$Interiores
100
AcDbVertex
100
AcDb2dVertex
 10
646.9647296528002
 20
35.58579965851249
 30
0.0000000000000568
  0
VERTEX
  5
5B2
330
542
100
AcDbEntity
  8
2D$cuna$Interiores
100
AcDbVertex
100
AcDb2dVertex
 10
645.8370785936964
 20
35.02064919885225
 30
0.0000000000000568
  0
VERTEX
  5
5B3
330
542
100
AcDbEntity
  8
2D$cuna$Interiores
100
AcDbVertex
100
AcDb2dVertex
 10
644.7003840267424
 20
34.48633061216245
 30
0.0000000000000568
  0
VERTEX
  5
5B4
330
542
100
AcDbEntity
  8
2D$cuna$Interiores
100
AcDbVertex
100
AcDb2dVertex
 10
643.5558654439862
 20
33.98295830090009
 30
0.0000000000000568
  0
VERTEX
  5
5B5
330
542
100
AcDbEntity
  8
2D$cuna$Interiores
100
AcDbVertex
100
AcDb2dVertex
 10
642.4047354780937
 20
33.5105849468786
 30
0.0000000000000568
  0
VERTEX
  5
5B6
330
542
100
AcDbEntity
  8
2D$cuna$Interiores
100
AcDbVertex
100
AcDb2dVertex
 10
641.2481961854083
 20
33.06920277312929
 30
0.0000000000000568
  0
VERTEX
  5
5B7
330
542
100
AcDbEntity
  8
2D$cuna$Interiores
100
AcDbVertex
100
AcDb2dVertex
 10
640.087435485764
 20
32.65874505791623
 30
0.0000000000000568
  0
VERTEX
  5
5B8
330
542
100
AcDbEntity
  8
2D$cuna$Interiores
100
AcDbVertex
100
AcDb2dVertex
 10
638.9236237773019
 20
32.27908788221311
 30
0.0000000000000568
  0
VERTEX
  5
5B9
330
542
100
AcDbEntity
  8
2D$cuna$Interiores
100
AcDbVertex
100
AcDb2dVertex
 10
637.7579107422687
 20
31.93005209064854
 30
0.0000000000000568
  0
VERTEX
  5
5BA
330
542
100
AcDbEntity
  8
2D$cuna$Interiores
100
AcDbVertex
100
AcDb2dVertex
 10
636.5914223574263
 20
31.61140544490985
 30
0.0000000000000568
  0
VERTEX
  5
5BB
330
542
100
AcDbEntity
  8
2D$cuna$Interiores
100
AcDbVertex
100
AcDb2dVertex
 10
635.4252581203225
 20
31.32286494786285
 30
0.0000000000000568
  0
VERTEX
  5
5BC
330
542
100
AcDbEntity
  8
2D$cuna$Interiores
100
AcDbVertex
100
AcDb2dVertex
 10
634.2604885002798
 20
31.06409931619097
 30
0.0000000000000568
  0
VERTEX
  5
5BD
330
542
100
AcDbEntity
  8
2D$cuna$Interiores
100
AcDbVertex
100
AcDb2dVertex
 10
633.0981526206074
 20
30.83473157917138
 30
0.0000000000000568
  0
VERTEX
  5
5BE
330
542
100
AcDbEntity
  8
2D$cuna$Interiores
100
AcDbVertex
100
AcDb2dVertex
 10
631.9392561762469
 20
30.63434178127553
 30
0.0000000000000568
  0
VERTEX
  5
5BF
330
542
100
AcDbEntity
  8
2D$cuna$Interiores
100
AcDbVertex
100
AcDb2dVertex
 10
630.7847695888495
 20
30.46246976658791
 30
0.0000000000000568
  0
VERTEX
  5
5C0
330
542
100
AcDbEntity
  8
2D$cuna$Interiores
100
AcDbVertex
100
AcDb2dVertex
 10
629.6356263991937
 20
30.31861802356233
 30
0.0000000000000568
  0
VERTEX
  5
5C1
330
542
100
AcDbEntity
  8
2D$cuna$Interiores
100
AcDbVertex
100
AcDb2dVertex
 10
628.4927218948856
 20
30.20225456935615
 30
0.0000000000000568
  0
VERTEX
  5
5C2
330
542
100
AcDbEntity
  8
2D$cuna$Interiores
100
AcDbVertex
100
AcDb2dVertex
 10
627.3569119694706
 20
30.11281585387666
 30
0.0000000000000568
  0
VERTEX
  5
5C3
330
542
100
AcDbEntity
  8
2D$cuna$Interiores
100
AcDbVertex
100
AcDb2dVertex
 10
626.2290122074332
 20
30.04970966471658
 30
0.0000000000000568
  0
VERTEX
  5
5C4
330
542
100
AcDbEntity
  8
2D$cuna$Interiores
100
AcDbVertex
100
AcDb2dVertex
 10
625.1097971880805
 20
30.01231801532179
 30
0.0000000000000568
  0
VERTEX
  5
5C5
330
542
100
AcDbEntity
  8
2D$cuna$Interiores
100
AcDbVertex
100
AcDb2dVertex
 10
624.0000000000002
 20
30.00000000000006
 30
0.0000000000000568
  0
VERTEX
  5
5C6
330
542
100
AcDbEntity
  8
2D$cuna$Interiores
100
AcDbVertex
100
AcDb2dVertex
 10
100.0
 20
29.99999999999989
 30
0.0000000000000568
  0
VERTEX
  5
5C7
330
542
100
AcDbEntity
  8
2D$cuna$Interiores
100
AcDbVertex
100
AcDb2dVertex
 10
98.89020281191975
 20
30.01231801532161
 30
0.0000000000000568
  0
VERTEX
  5
5C8
330
542
100
AcDbEntity
  8
2D$cuna$Interiores
100
AcDbVertex
100
AcDb2dVertex
 10
97.7709877925671
 20
30.04970966471639
 30
0.0000000000000568
  0
VERTEX
  5
5C9
330
542
100
AcDbEntity
  8
2D$cuna$Interiores
100
AcDbVertex
100
AcDb2dVertex
 10
96.6430880305298
 20
30.11281585387647
 30
0.0000000000000568
  0
VERTEX
  5
5CA
330
542
100
AcDbEntity
  8
2D$cuna$Interiores
100
AcDbVertex
100
AcDb2dVertex
 10
95.50727810511476
 20
30.20225456935594
 30
0.0000000000000568
  0
VERTEX
  5
5CB
330
542
100
AcDbEntity
  8
2D$cuna$Interiores
100
AcDbVertex
100
AcDb2dVertex
 10
94.3643736008066
 20
30.31861802356212
 30
0.0000000000000568
  0
VERTEX
  5
5CC
330
542
100
AcDbEntity
  8
2D$cuna$Interiores
100
AcDbVertex
100
AcDb2dVertex
 10
93.2152304111507
 20
30.4624697665877
 30
0.0000000000000568
  0
VERTEX
  5
5CD
330
542
100
AcDbEntity
  8
2D$cuna$Interiores
100
AcDbVertex
100
AcDb2dVertex
 10
92.06074382375323
 20
30.63434178127532
 30
0.0000000000000568
  0
VERTEX
  5
5CE
330
542
100
AcDbEntity
  8
2D$cuna$Interiores
100
AcDbVertex
100
AcDb2dVertex
 10
90.90184737939276
 20
30.83473157917116
 30
0.0000000000000568
  0
VERTEX
  5
5CF
330
542
100
AcDbEntity
  8
2D$cuna$Interiores
100
AcDbVertex
100
AcDb2dVertex
 10
89.73951149972048
 20
31.06409931619074
 30
0.0000000000000568
  0
VERTEX
  5
5D0
330
542
100
AcDbEntity
  8
2D$cuna$Interiores
100
AcDbVertex
100
AcDb2dVertex
 10
88.57474187967769
 20
31.32286494786262
 30
0.0000000000000568
  0
VERTEX
  5
5D1
330
542
100
AcDbEntity
  8
2D$cuna$Interiores
100
AcDbVertex
100
AcDb2dVertex
 10
87.40857764257396
 20
31.61140544490961
 30
0.0000000000000568
  0
VERTEX
  5
5D2
330
542
100
AcDbEntity
  8
2D$cuna$Interiores
100
AcDbVertex
100
AcDb2dVertex
 10
86.24208925773154
 20
31.9300520906483
 30
0.0000000000000568
  0
VERTEX
  5
5D3
330
542
100
AcDbEntity
  8
2D$cuna$Interiores
100
AcDbVertex
100
AcDb2dVertex
 10
85.07637622269814
 20
32.27908788221287
 30
0.0000000000000568
  0
VERTEX
  5
5D4
330
542
100
AcDbEntity
  8
2D$cuna$Interiores
100
AcDbVertex
100
AcDb2dVertex
 10
83.91256451423604
 20
32.65874505791598
 30
0.0000000000000568
  0
VERTEX
  5
5D5
330
542
100
AcDbEntity
  8
2D$cuna$Interiores
100
AcDbVertex
100
AcDb2dVertex
 10
82.75180381459171
 20
33.06920277312904
 30
0.0000000000000568
  0
VERTEX
  5
5D6
330
542
100
AcDbEntity
  8
2D$cuna$Interiores
100
AcDbVertex
100
AcDb2dVertex
 10
81.59526452190637
 20
33.51058494687836
 30
0.0000000000000568
  0
VERTEX
  5
5D7
330
542
100
AcDbEntity
  8
2D$cuna$Interiores
100
AcDbVertex
100
AcDb2dVertex
 10
80.44413455601394
 20
33.98295830089984
 30
0.0000000000000568
  0
VERTEX
  5
5D8
330
542
100
AcDbEntity
  8
2D$cuna$Interiores
100
AcDbVertex
100
AcDb2dVertex
 10
79.2996159732577
 20
34.48633061216221
 30
0.0000000000000568
  0
VERTEX
  5
5D9
330
542
100
AcDbEntity
  8
2D$cuna$Interiores
100
AcDbVertex
100
AcDb2dVertex
 10
78.16292140630352
 20
35.020649198852
 30
0.0000000000000568
  0
VERTEX
  5
5DA
330
542
100
AcDbEntity
  8
2D$cuna$Interiores
100
AcDbVertex
100
AcDb2dVertex
 10
77.03527034719986
 20
35.58579965851224
 30
0.0000000000000568
  0
VERTEX
  5
5DB
330
542
100
AcDbEntity
  8
2D$cuna$Interiores
100
AcDbVertex
100
AcDb2dVertex
 10
75.91788529409622
 20
36.18160487544413
 30
0.0000000000000568
  0
VERTEX
  5
5DC
330
542
100
AcDbEntity
  8
2D$cuna$Interiores
100
AcDbVertex
100
AcDb2dVertex
 10
74.81198778404244
 20
36.8078243126283
 30
0.0000000000000568
  0
VERTEX
  5
5DD
330
542
100
AcDbEntity
  8
2D$cuna$Interiores
100
AcDbVertex
100
AcDb2dVertex
 10
73.71879433611794
 20
37.46415360131243
 30
0.0000000000000568
  0
VERTEX
  5
5DE
330
542
100
AcDbEntity
  8
2D$cuna$Interiores
100
AcDbVertex
100
AcDb2dVertex
 10
72.63951233074286
 20
38.1502244390673
 30
0.0000000000000568
  0
VERTEX
  5
5DF
330
542
100
AcDbEntity
  8
2D$cuna$Interiores
100
AcDbVertex
100
AcDb2dVertex
 10
71.57533585237489
 20
38.86560480455892
 30
0.0000000000000568
  0
VERTEX
  5
5E0
330
542
100
AcDbEntity
  8
2D$cuna$Interiores
100
AcDbVertex
100
AcDb2dVertex
 10
70.52744152385992
 20
39.60979949454925
 30
0.0000000000000568
  0
VERTEX
  5
5E1
330
542
100
AcDbEntity
  8
2D$cuna$Interiores
100
AcDbVertex
100
AcDb2dVertex
 10
69.49698436146382
 20
40.3822509857611
 30
0.0000000000000568
  0
VERTEX
  5
5E2
330
542
100
AcDbEntity
  8
2D$cuna$Interiores
100
AcDbVertex
100
AcDb2dVertex
 10
68.48509368003847
 20
41.18234062125772
 30
0.0000000000000568
  0
VERTEX
  5
5E3
330
542
100
AcDbEntity
  8
2D$cuna$Interiores
100
AcDbVertex
100
AcDb2dVertex
 10
67.49286907785823
 20
42.00939011794173
 30
0.0000000000000568
  0
VERTEX
  5
5E4
330
542
100
AcDbEntity
  8
2D$cuna$Interiores
100
AcDbVertex
100
AcDb2dVertex
 10
66.52137653039031
 20
42.86266338871205
 30
0.0000000000000568
  0
VERTEX
  5
5E5
330
542
100
AcDbEntity
  8
2D$cuna$Interiores
100
AcDbVertex
100
AcDb2dVertex
 10
65.57164462163313
 20
43.74136866977897
 30
0.0000000000000568
  0
VERTEX
  5
5E6
330
542
100
AcDbEntity
  8
2D$cuna$Interiores
100
AcDbVertex
100
AcDb2dVertex
 10
64.64466094067262
 20
44.64466094067249
 30
0.0000000000000568
  0
VERTEX
  5
5E7
330
542
100
AcDbEntity
  8
2D$cuna$Interiores
100
AcDbVertex
100
AcDb2dVertex
 10
63.7413686697791
 20
45.571644621633
 30
0.0000000000000568
  0
VERTEX
  5
5E8
330
542
100
AcDbEntity
  8
2D$cuna$Interiores
100
AcDbVertex
100
AcDb2dVertex
 10
62.86266338871218
 20
46.52137653039018
 30
0.0000000000000568
  0
VERTEX
  5
5E9
330
542
100
AcDbEntity
  8
2D$cuna$Interiores
100
AcDbVertex
100
AcDb2dVertex
 10
62.00939011794186
 20
47.49286907785811
 30
0.0000000000000568
  0
VERTEX
  5
5EA
330
542
100
AcDbEntity
  8
2D$cuna$Interiores
100
AcDbVertex
100
AcDb2dVertex
 10
61.18234062125784
 20
48.48509368003835
 30
0.0000000000000568
  0
VERTEX
  5
5EB
330
542
100
AcDbEntity
  8
2D$cuna$Interiores
100
AcDbVertex
100
AcDb2dVertex
 10
60.38225098576123
 20
49.4969843614637
 30
0.0000000000000568
  0
VERTEX
  5
5EC
330
542
100
AcDbEntity
  8
2D$cuna$Interiores
100
AcDbVertex
100
AcDb2dVertex
 10
59.60979949454938
 20
50.52744152385979
 30
0.0000000000000568
  0
VERTEX
  5
5ED
330
542
100
AcDbEntity
  8
2D$cuna$Interiores
100
AcDbVertex
100
AcDb2dVertex
 10
58.86560480455905
 20
51.57533585237476
 30
0.0000000000000568
  0
VERTEX
  5
5EE
330
542
100
AcDbEntity
  8
2D$cuna$Interiores
100
AcDbVertex
100
AcDb2dVertex
 10
58.15022443906743
 20
52.63951233074274
 30
0.0000000000000568
  0
VERTEX
  5
5EF
330
542
100
AcDbEntity
  8
2D$cuna$Interiores
100
AcDbVertex
100
AcDb2dVertex
 10
57.46415360131255
 20
53.71879433611781
 30
0.0000000000000568
  0
VERTEX
  5
5F0
330
542
100
AcDbEntity
  8
2D$cuna$Interiores
100
AcDbVertex
100
AcDb2dVertex
 10
56.80782431262842
 20
54.81198778404231
 30
0.0000000000000568
  0
VERTEX
  5
5F1
330
542
100
AcDbEntity
  8
2D$cuna$Interiores
100
AcDbVertex
100
AcDb2dVertex
 10
56.18160487544425
 20
55.91788529409607
 30
0.0000000000000568
  0
VERTEX
  5
5F2
330
542
100
AcDbEntity
  8
2D$cuna$Interiores
100
AcDbVertex
100
AcDb2dVertex
 10
55.58579965851236
 20
57.03527034719971
 30
0.0000000000000568
  0
VERTEX
  5
5F3
330
542
100
AcDbEntity
  8
2D$cuna$Interiores
100
AcDbVertex
100
AcDb2dVertex
 10
55.02064919885213
 20
58.16292140630338
 30
0.0000000000000568
  0
VERTEX
  5
5F4
330
542
100
AcDbEntity
  8
2D$cuna$Interiores
100
AcDbVertex
100
AcDb2dVertex
 10
54.48633061216233
 20
59.29961597325757
 30
0.0000000000000568
  0
VERTEX
  5
5F5
330
542
100
AcDbEntity
  8
2D$cuna$Interiores
100
AcDbVertex
100
AcDb2dVertex
 10
53.98295830089997
 20
60.44413455601381
 30
0.0000000000000568
  0
VERTEX
  5
5F6
330
542
100
AcDbEntity
  8
2D$cuna$Interiores
100
AcDbVertex
100
AcDb2dVertex
 10
53.5105849468785
 20
61.59526452190624
 30
0.0000000000000568
  0
VERTEX
  5
5F7
330
542
100
AcDbEntity
  8
2D$cuna$Interiores
100
AcDbVertex
100
AcDb2dVertex
 10
53.06920277312918
 20
62.75180381459158
 30
0.0000000000000568
  0
VERTEX
  5
5F8
330
542
100
AcDbEntity
  8
2D$cuna$Interiores
100
AcDbVertex
100
AcDb2dVertex
 10
52.65874505791611
 20
63.91256451423592
 30
0.0000000000000568
  0
VERTEX
  5
5F9
330
542
100
AcDbEntity
  8
2D$cuna$Interiores
100
AcDbVertex
100
AcDb2dVertex
 10
52.27908788221299
 20
65.07637622269803
 30
0.0000000000000568
  0
VERTEX
  5
5FA
330
542
100
AcDbEntity
  8
2D$cuna$Interiores
100
AcDbVertex
100
AcDb2dVertex
 10
51.93005209064842
 20
66.24208925773141
 30
0.0000000000000568
  0
VERTEX
  5
5FB
330
542
100
AcDbEntity
  8
2D$cuna$Interiores
100
AcDbVertex
100
AcDb2dVertex
 10
51.61140544490975
 20
67.40857764257383
 30
0.0000000000000568
  0
VERTEX
  5
5FC
330
542
100
AcDbEntity
  8
2D$cuna$Interiores
100
AcDbVertex
100
AcDb2dVertex
 10
51.32286494786275
 20
68.57474187967757
 30
0.0000000000000568
  0
VERTEX
  5
5FD
330
542
100
AcDbEntity
  8
2D$cuna$Interiores
100
AcDbVertex
100
AcDb2dVertex
 10
51.06409931619086
 20
69.73951149972034
 30
0.0000000000000568
  0
VERTEX
  5
5FE
330
542
100
AcDbEntity
  8
2D$cuna$Interiores
100
AcDbVertex
100
AcDb2dVertex
 10
50.83473157917128
 20
70.90184737939263
 30
0.0000000000000568
  0
VERTEX
  5
5FF
330
542
100
AcDbEntity
  8
2D$cuna$Interiores
100
AcDbVertex
100
AcDb2dVertex
 10
50.63434178127544
 20
72.0607438237531
 30
0.0000000000000568
  0
VERTEX
  5
600
330
542
100
AcDbEntity
  8
2D$cuna$Interiores
100
AcDbVertex
100
AcDb2dVertex
 10
50.46246976658782
 20
73.21523041115057
 30
0.0000000000000568
  0
VERTEX
  5
601
330
542
100
AcDbEntity
  8
2D$cuna$Interiores
100
AcDbVertex
100
AcDb2dVertex
 10
50.31861802356224
 20
74.36437360080647
 30
0.0000000000000568
  0
VERTEX
  5
602
330
542
100
AcDbEntity
  8
2D$cuna$Interiores
100
AcDbVertex
100
AcDb2dVertex
 10
50.20225456935606
 20
75.50727810511464
 30
0.0000000000000568
  0
VERTEX
  5
603
330
542
100
AcDbEntity
  8
2D$cuna$Interiores
100
AcDbVertex
100
AcDb2dVertex
 10
50.11281585387658
 20
76.64308803052965
 30
0.0000000000000568
  0
VERTEX
  5
604
330
542
100
AcDbEntity
  8
2D$cuna$Interiores
100
AcDbVertex
100
AcDb2dVertex
 10
50.0497096647165
 20
77.77098779256697
 30
0.0000000000000568
  0
VERTEX
  5
605
330
542
100
AcDbEntity
  8
2D$cuna$Interiores
100
AcDbVertex
100
AcDb2dVertex
 10
50.01231801532172
 20
78.89020281191962
 30
0.0000000000000568
  0
VERTEX
  5
606
330
542
100
AcDbEntity
  8
2D$cuna$Interiores
100
AcDbVertex
100
AcDb2dVertex
 10
50.0
 20
79.99999999999989
 30
0.0000000000000568
  0
VERTEX
  5
607
330
542
100
AcDbEntity
  8
2D$cuna$Interiores
100
AcDbVertex
100
AcDb2dVertex
 10
49.99999999999989
 20
220.0
 30
0.0000000000000568
  0
VERTEX
  5
608
330
542
100
AcDbEntity
  8
2D$cuna$Interiores
100
AcDbVertex
100
AcDb2dVertex
 10
50.0123180153216
 20
221.1097971880803
 30
0.0000000000000568
  0
VERTEX
  5
609
330
542
100
AcDbEntity
  8
2D$cuna$Interiores
100
AcDbVertex
100
AcDb2dVertex
 10
50.0497096647164
 20
222.2290122074329
 30
0.0000000000000568
  0
VERTEX
  5
60A
330
542
100
AcDbEntity
  8
2D$cuna$Interiores
100
AcDbVertex
100
AcDb2dVertex
 10
50.11281585387647
 20
223.3569119694702
 30
0.0000000000000568
  0
VERTEX
  5
60B
330
542
100
AcDbEntity
  8
2D$cuna$Interiores
100
AcDbVertex
100
AcDb2dVertex
 10
50.20225456935594
 20
224.4927218948852
 30
0.0000000000000568
  0
VERTEX
  5
60C
330
542
100
AcDbEntity
  8
2D$cuna$Interiores
100
AcDbVertex
100
AcDb2dVertex
 10
50.31861802356212
 20
225.6356263991933
 30
0.0000000000000568
  0
VERTEX
  5
60D
330
542
100
AcDbEntity
  8
2D$cuna$Interiores
100
AcDbVertex
100
AcDb2dVertex
 10
50.4624697665877
 20
226.7847695888493
 30
0.0000000000000568
  0
VERTEX
  5
60E
330
542
100
AcDbEntity
  8
2D$cuna$Interiores
100
AcDbVertex
100
AcDb2dVertex
 10
50.63434178127532
 20
227.9392561762467
 30
0.0000000000000568
  0
VERTEX
  5
60F
330
542
100
AcDbEntity
  8
2D$cuna$Interiores
100
AcDbVertex
100
AcDb2dVertex
 10
50.83473157917117
 20
229.0981526206072
 30
0.0000000000000568
  0
VERTEX
  5
610
330
542
100
AcDbEntity
  8
2D$cuna$Interiores
100
AcDbVertex
100
AcDb2dVertex
 10
51.06409931619074
 20
230.2604885002795
 30
0.0000000000000568
  0
VERTEX
  5
611
330
542
100
AcDbEntity
  8
2D$cuna$Interiores
100
AcDbVertex
100
AcDb2dVertex
 10
51.32286494786263
 20
231.4252581203223
 30
0.0000000000000568
  0
VERTEX
  5
612
330
542
100
AcDbEntity
  8
2D$cuna$Interiores
100
AcDbVertex
100
AcDb2dVertex
 10
51.61140544490962
 20
232.591422357426
 30
0.0000000000000568
  0
VERTEX
  5
613
330
542
100
AcDbEntity
  8
2D$cuna$Interiores
100
AcDbVertex
100
AcDb2dVertex
 10
51.93005209064831
 20
233.7579107422685
 30
0.0000000000000568
  0
VERTEX
  5
614
330
542
100
AcDbEntity
  8
2D$cuna$Interiores
100
AcDbVertex
100
AcDb2dVertex
 10
52.27908788221288
 20
234.9236237773018
 30
0.0000000000000568
  0
VERTEX
  5
615
330
542
100
AcDbEntity
  8
2D$cuna$Interiores
100
AcDbVertex
100
AcDb2dVertex
 10
52.658745057916
 20
236.0874354857639
 30
0.0000000000000568
  0
VERTEX
  5
616
330
542
100
AcDbEntity
  8
2D$cuna$Interiores
100
AcDbVertex
100
AcDb2dVertex
 10
53.06920277312906
 20
237.2481961854082
 30
0.0000000000000568
  0
VERTEX
  5
617
330
542
100
AcDbEntity
  8
2D$cuna$Interiores
100
AcDbVertex
100
AcDb2dVertex
 10
53.51058494687837
 20
238.4047354780936
 30
0.0000000000000568
  0
VERTEX
  5
618
330
542
100
AcDbEntity
  8
2D$cuna$Interiores
100
AcDbVertex
100
AcDb2dVertex
 10
53.98295830089987
 20
239.5558654439861
 30
0.0000000000000568
  0
VERTEX
  5
619
330
542
100
AcDbEntity
  8
2D$cuna$Interiores
100
AcDbVertex
100
AcDb2dVertex
 10
54.48633061216222
 20
240.7003840267423
 30
0.0000000000000568
  0
VERTEX
  5
61A
330
542
100
AcDbEntity
  8
2D$cuna$Interiores
100
AcDbVertex
100
AcDb2dVertex
 10
55.02064919885202
 20
241.8370785936964
 30
0.0000000000000568
  0
VERTEX
  5
61B
330
542
100
AcDbEntity
  8
2D$cuna$Interiores
100
AcDbVertex
100
AcDb2dVertex
 10
55.58579965851225
 20
242.9647296528001
 30
0.0000000000000568
  0
VERTEX
  5
61C
330
542
100
AcDbEntity
  8
2D$cuna$Interiores
100
AcDbVertex
100
AcDb2dVertex
 10
56.18160487544414
 20
244.0821147059038
 30
0.0000000000000568
  0
VERTEX
  5
61D
330
542
100
AcDbEntity
  8
2D$cuna$Interiores
100
AcDbVertex
100
AcDb2dVertex
 10
56.80782431262831
 20
245.1880122159575
 30
0.0000000000000568
  0
VERTEX
  5
61E
330
542
100
AcDbEntity
  8
2D$cuna$Interiores
100
AcDbVertex
100
AcDb2dVertex
 10
57.46415360131245
 20
246.281205663882
 30
0.0000000000000568
  0
VERTEX
  5
61F
330
542
100
AcDbEntity
  8
2D$cuna$Interiores
100
AcDbVertex
100
AcDb2dVertex
 10
58.15022443906733
 20
247.3604876692571
 30
0.0000000000000568
  0
VERTEX
  5
620
330
542
100
AcDbEntity
  8
2D$cuna$Interiores
100
AcDbVertex
100
AcDb2dVertex
 10
58.86560480455895
 20
248.4246641476251
 30
0.0000000000000568
  0
VERTEX
  5
621
330
542
100
AcDbEntity
  8
2D$cuna$Interiores
100
AcDbVertex
100
AcDb2dVertex
 10
59.60979949454928
 20
249.4725584761401
 30
0.0000000000000568
  0
VERTEX
  5
622
330
542
100
AcDbEntity
  8
2D$cuna$Interiores
100
AcDbVertex
100
AcDb2dVertex
 10
60.38225098576113
 20
250.5030156385362
 30
0.0000000000000568
  0
VERTEX
  5
623
330
542
100
AcDbEntity
  8
2D$cuna$Interiores
100
AcDbVertex
100
AcDb2dVertex
 10
61.18234062125774
 20
251.5149063199615
 30
0.0000000000000568
  0
VERTEX
  5
624
330
542
100
AcDbEntity
  8
2D$cuna$Interiores
100
AcDbVertex
100
AcDb2dVertex
 10
62.00939011794175
 20
252.5071309221417
 30
0.0000000000000568
  0
VERTEX
  5
625
330
542
100
AcDbEntity
  8
2D$cuna$Interiores
100
AcDbVertex
100
AcDb2dVertex
 10
62.86266338871205
 20
253.4786234696096
 30
0.0000000000000568
  0
VERTEX
  5
626
330
542
100
AcDbEntity
  8
2D$cuna$Interiores
100
AcDbVertex
100
AcDb2dVertex
 10
63.74136866977899
 20
254.4283553783668
 30
0.0000000000000568
  0
VERTEX
  5
627
330
542
100
AcDbEntity
  8
2D$cuna$Interiores
100
AcDbVertex
100
AcDb2dVertex
 10
64.64466094067251
 20
255.3553390593273
 30
0.0000000000000568
  0
VERTEX
  5
628
330
542
100
AcDbEntity
  8
2D$cuna$Interiores
100
AcDbVertex
100
AcDb2dVertex
 10
65.57164462163301
 20
256.2586313302207
 30
0.0000000000000568
  0
VERTEX
  5
629
330
542
100
AcDbEntity
  8
2D$cuna$Interiores
100
AcDbVertex
100
AcDb2dVertex
 10
66.52137653039019
 20
257.1373366112877
 30
0.0000000000000568
  0
VERTEX
  5
62A
330
542
100
AcDbEntity
  8
2D$cuna$Interiores
100
AcDbVertex
100
AcDb2dVertex
 10
67.49286907785812
 20
257.990609882058
 30
0.0000000000000568
  0
VERTEX
  5
62B
330
542
100
AcDbEntity
  8
2D$cuna$Interiores
100
AcDbVertex
100
AcDb2dVertex
 10
68.48509368003836
 20
258.8176593787421
 30
0.0000000000000568
  0
VERTEX
  5
62C
330
542
100
AcDbEntity
  8
2D$cuna$Interiores
100
AcDbVertex
100
AcDb2dVertex
 10
69.49698436146372
 20
259.6177490142387
 30
0.0000000000000568
  0
VERTEX
  5
62D
330
542
100
AcDbEntity
  8
2D$cuna$Interiores
100
AcDbVertex
100
AcDb2dVertex
 10
70.5274415238598
 20
260.3902005054505
 30
0.0000000000000568
  0
VERTEX
  5
62E
330
542
100
AcDbEntity
  8
2D$cuna$Interiores
100
AcDbVertex
100
AcDb2dVertex
 10
71.57533585237479
 20
261.1343951954408
 30
0.0000000000000568
  0
VERTEX
  5
62F
330
542
100
AcDbEntity
  8
2D$cuna$Interiores
100
AcDbVertex
100
AcDb2dVertex
 10
72.63951233074276
 20
261.8497755609324
 30
0.0000000000000568
  0
VERTEX
  5
630
330
542
100
AcDbEntity
  8
2D$cuna$Interiores
100
AcDbVertex
100
AcDb2dVertex
 10
73.71879433611782
 20
262.5358463986873
 30
0.0000000000000568
  0
VERTEX
  5
631
330
542
100
AcDbEntity
  8
2D$cuna$Interiores
100
AcDbVertex
100
AcDb2dVertex
 10
74.81198778404232
 20
263.1921756873714
 30
0.0000000000000568
  0
VERTEX
  5
632
330
542
100
AcDbEntity
  8
2D$cuna$Interiores
100
AcDbVertex
100
AcDb2dVertex
 10
75.9178852940961
 20
263.8183951245556
 30
0.0000000000000568
  0
VERTEX
  5
633
330
542
100
AcDbEntity
  8
2D$cuna$Interiores
100
AcDbVertex
100
AcDb2dVertex
 10
77.03527034719973
 20
264.4142003414875
 30
0.0000000000000568
  0
VERTEX
  5
634
330
542
100
AcDbEntity
  8
2D$cuna$Interiores
100
AcDbVertex
100
AcDb2dVertex
 10
78.1629214063034
 20
264.9793508011477
 30
0.0000000000000568
  0
VERTEX
  5
635
330
542
100
AcDbEntity
  8
2D$cuna$Interiores
100
AcDbVertex
100
AcDb2dVertex
 10
79.29961597325757
 20
265.5136693878375
 30
0.0000000000000568
  0
VERTEX
  5
636
330
542
100
AcDbEntity
  8
2D$cuna$Interiores
100
AcDbVertex
100
AcDb2dVertex
 10
80.44413455601384
 20
266.0170416990999
 30
0.0000000000000568
  0
VERTEX
  5
637
330
542
100
AcDbEntity
  8
2D$cuna$Interiores
100
AcDbVertex
100
AcDb2dVertex
 10
81.59526452190624
 20
266.4894150531213
 30
0.0000000000000568
  0
VERTEX
  5
638
330
542
100
AcDbEntity
  8
2D$cuna$Interiores
100
AcDbVertex
100
AcDb2dVertex
 10
82.7518038145916
 20
266.9307972268707
 30
0.0000000000000568
  0
VERTEX
  5
639
330
542
100
AcDbEntity
  8
2D$cuna$Interiores
100
AcDbVertex
100
AcDb2dVertex
 10
83.91256451423594
 20
267.3412549420838
 30
0.0000000000000568
  0
VERTEX
  5
63A
330
542
100
AcDbEntity
  8
2D$cuna$Interiores
100
AcDbVertex
100
AcDb2dVertex
 10
85.07637622269804
 20
267.7209121177869
 30
0.0000000000000568
  0
VERTEX
  5
63B
330
542
100
AcDbEntity
  8
2D$cuna$Interiores
100
AcDbVertex
100
AcDb2dVertex
 10
86.24208925773142
 20
268.0699479093514
 30
0.0000000000000568
  0
VERTEX
  5
63C
330
542
100
AcDbEntity
  8
2D$cuna$Interiores
100
AcDbVertex
100
AcDb2dVertex
 10
87.40857764257382
 20
268.3885945550901
 30
0.0000000000000568
  0
VERTEX
  5
63D
330
542
100
AcDbEntity
  8
2D$cuna$Interiores
100
AcDbVertex
100
AcDb2dVertex
 10
88.57474187967757
 20
268.6771350521371
 30
0.0000000000000568
  0
VERTEX
  5
63E
330
542
100
AcDbEntity
  8
2D$cuna$Interiores
100
AcDbVertex
100
AcDb2dVertex
 10
89.73951149972035
 20
268.9359006838089
 30
0.0000000000000568
  0
VERTEX
  5
63F
330
542
100
AcDbEntity
  8
2D$cuna$Interiores
100
AcDbVertex
100
AcDb2dVertex
 10
90.90184737939263
 20
269.1652684208286
 30
0.0000000000000568
  0
VERTEX
  5
640
330
542
100
AcDbEntity
  8
2D$cuna$Interiores
100
AcDbVertex
100
AcDb2dVertex
 10
92.06074382375311
 20
269.3656582187244
 30
0.0000000000000568
  0
VERTEX
  5
641
330
542
100
AcDbEntity
  8
2D$cuna$Interiores
100
AcDbVertex
100
AcDb2dVertex
 10
93.2152304111506
 20
269.537530233412
 30
0.0000000000000568
  0
VERTEX
  5
642
330
542
100
AcDbEntity
  8
2D$cuna$Interiores
100
AcDbVertex
100
AcDb2dVertex
 10
94.36437360080649
 20
269.6813819764376
 30
0.0000000000000568
  0
VERTEX
  5
643
330
542
100
AcDbEntity
  8
2D$cuna$Interiores
100
AcDbVertex
100
AcDb2dVertex
 10
95.50727810511464
 20
269.7977454306437
 30
0.0000000000000568
  0
VERTEX
  5
644
330
542
100
AcDbEntity
  8
2D$cuna$Interiores
100
AcDbVertex
100
AcDb2dVertex
 10
96.64308803052965
 20
269.8871841461232
 30
0.0000000000000568
  0
VERTEX
  5
645
330
542
100
AcDbEntity
  8
2D$cuna$Interiores
100
AcDbVertex
100
AcDb2dVertex
 10
97.77098779256697
 20
269.9502903352833
 30
0.0000000000000568
  0
VERTEX
  5
646
330
542
100
AcDbEntity
  8
2D$cuna$Interiores
100
AcDbVertex
100
AcDb2dVertex
 10
98.89020281191961
 20
269.9876819846781
 30
0.0000000000000568
  0
VERTEX
  5
647
330
542
100
AcDbEntity
  8
2D$cuna$Interiores
100
AcDbVertex
100
AcDb2dVertex
 10
99.99999999999989
 20
269.9999999999999
 30
0.0000000000000568
  0
SEQEND
  5
648
330
542
100
AcDbEntity
  8
2D$cuna$Interiores
  0
POLYLINE
  5
649
330
1F
100
AcDbEntity
  8
2D$cuna$rebaje 5mm
100
AcDb2dPolyline
 66
     1
 10
0.0
 20
0.0
 30
-0.0734818749125736
  0
VERTEX
  5
64A
330
649
100
AcDbEntity
  8
2D$cuna$rebaje 5mm
100
AcDbVertex
100
AcDb2dVertex
 10
273.5307556155543
 20
264.3630120344275
 30
-0.0734818749125736
  0
VERTEX
  5
64B
330
649
100
AcDbEntity
  8
2D$cuna$rebaje 5mm
100
AcDbVertex
100
AcDb2dVertex
 10
325.9671940902309
 20
264.3630120344275
 30
-0.0734818749125736
  0
SEQEND
  5
64C
330
649
100
AcDbEntity
  8
2D$cuna$rebaje 5mm
  0
POLYLINE
  5
64D
330
1F
100
AcDbEntity
  8
2D$cuna$rebaje 5mm
100
AcDb2dPolyline
 66
     1
 10
0.0
 20
0.0
 30
-0.0734818749126589
  0
VERTEX
  5
64E
330
64D
100
AcDbEntity
  8
2D$cuna$rebaje 5mm
100
AcDbVertex
100
AcDb2dVertex
 10
325.9671940902309
 20
264.3630120344275
 30
-0.0734818749126589
  0
VERTEX
  5
64F
330
64D
100
AcDbEntity
  8
2D$cuna$rebaje 5mm
100
AcDbVertex
100
AcDb2dVertex
 10
314.7488509330581
 20
295.3052516446593
 30
-0.0734818749126589
  0
SEQEND
  5
650
330
64D
100
AcDbEntity
  8
2D$cuna$rebaje 5mm
  0
POLYLINE
  5
651
330
1F
100
AcDbEntity
  8
2D$cuna$rebaje 5mm
100
AcDb2dPolyline
 66
     1
 10
0.0
 20
0.0
 30
-0.0734818749126614
  0
VERTEX
  5
652
330
651
100
AcDbEntity
  8
2D$cuna$rebaje 5mm
100
AcDbVertex
100
AcDb2dVertex
 10
314.7488509330581
 20
295.3052516446592
 30
-0.0734818749126614
  0
VERTEX
  5
653
330
651
100
AcDbEntity
  8
2D$cuna$rebaje 5mm
100
AcDbVertex
100
AcDb2dVertex
 10
314.7419767628286
 20
295.8243652060556
 30
-0.0734818749126614
  0
VERTEX
  5
654
330
651
100
AcDbEntity
  8
2D$cuna$rebaje 5mm
100
AcDbVertex
100
AcDb2dVertex
 10
314.7171425659794
 20
296.3429299623869
 30
-0.0734818749126614
  0
VERTEX
  5
655
330
651
100
AcDbEntity
  8
2D$cuna$rebaje 5mm
100
AcDbVertex
100
AcDb2dVertex
 10
314.6743780912455
 20
296.8603247280569
 30
-0.0734818749126614
  0
VERTEX
  5
656
330
651
100
AcDbEntity
  8
2D$cuna$rebaje 5mm
100
AcDbVertex
100
AcDb2dVertex
 10
314.6137345659332
 20
297.3759297189945
 30
-0.0734818749126614
  0
VERTEX
  5
657
330
651
100
AcDbEntity
  8
2D$cuna$rebaje 5mm
100
AcDbVertex
100
AcDb2dVertex
 10
314.535284634556
 20
297.8891272950887
 30
-0.0734818749126614
  0
VERTEX
  5
658
330
651
100
AcDbEntity
  8
2D$cuna$rebaje 5mm
100
AcDbVertex
100
AcDb2dVertex
 10
314.439122271814
 20
298.3993027000563
 30
-0.0734818749126614
  0
VERTEX
  5
659
330
651
100
AcDbEntity
  8
2D$cuna$rebaje 5mm
100
AcDbVertex
100
AcDb2dVertex
 10
314.3253626700218
 20
298.9058447978548
 30
-0.0734818749126614
  0
VERTEX
  5
65A
330
651
100
AcDbEntity
  8
2D$cuna$rebaje 5mm
100
AcDbVertex
100
AcDb2dVertex
 10
314.1941421011206
 20
299.4081468047583
 30
-0.0734818749126614
  0
VERTEX
  5
65B
330
651
100
AcDbEntity
  8
2D$cuna$rebaje 5mm
100
AcDbVertex
100
AcDb2dVertex
 10
314.0456177534392
 20
299.9056070162203
 30
-0.0734818749126614
  0
VERTEX
  5
65C
330
651
100
AcDbEntity
  8
2D$cuna$rebaje 5mm
100
AcDbVertex
100
AcDb2dVertex
 10
313.8799675433984
 20
300.3976295276519
 30
-0.0734818749126614
  0
VERTEX
  5
65D
330
651
100
AcDbEntity
  8
2D$cuna$rebaje 5mm
100
AcDbVertex
100
AcDb2dVertex
 10
313.6973899023863
 20
300.8836249482522
 30
-0.0734818749126614
  0
VERTEX
  5
65E
330
651
100
AcDbEntity
  8
2D$cuna$rebaje 5mm
100
AcDbVertex
100
AcDb2dVertex
 10
313.4981035390587
 20
301.3630111070362
 30
-0.0734818749126614
  0
VERTEX
  5
65F
330
651
100
AcDbEntity
  8
2D$cuna$rebaje 5mm
100
AcDbVertex
100
AcDb2dVertex
 10
313.2823471773489
 20
301.8352137502137
 30
-0.0734818749126614
  0
VERTEX
  5
660
330
651
100
AcDbEntity
  8
2D$cuna$rebaje 5mm
100
AcDbVertex
100
AcDb2dVertex
 10
313.0503792705023
 20
302.2996672290845
 30
-0.0734818749126614
  0
VERTEX
  5
661
330
651
100
AcDbEntity
  8
2D$cuna$rebaje 5mm
100
AcDbVertex
100
AcDb2dVertex
 10
312.8024776914764
 20
302.7558151776258
 30
-0.0734818749126614
  0
VERTEX
  5
662
330
651
100
AcDbEntity
  8
2D$cuna$rebaje 5mm
100
AcDbVertex
100
AcDb2dVertex
 10
312.5389394000783
 20
303.2031111789594
 30
-0.0734818749126614
  0
VERTEX
  5
663
330
651
100
AcDbEntity
  8
2D$cuna$rebaje 5mm
100
AcDbVertex
100
AcDb2dVertex
 10
312.2600800872391
 20
303.6410194199013
 30
-0.0734818749126614
  0
VERTEX
  5
664
330
651
100
AcDbEntity
  8
2D$cuna$rebaje 5mm
100
AcDbVertex
100
AcDb2dVertex
 10
311.9662337968487
 20
304.0690153328092
 30
-0.0734818749126614
  0
VERTEX
  5
665
330
651
100
AcDbEntity
  8
2D$cuna$rebaje 5mm
100
AcDbVertex
100
AcDb2dVertex
 10
311.6577525256072
 20
304.4865862239585
 30
-0.0734818749126614
  0
VERTEX
  5
666
330
651
100
AcDbEntity
  8
2D$cuna$rebaje 5mm
100
AcDbVertex
100
AcDb2dVertex
 10
311.3350058013701
 20
304.8932318876958
 30
-0.0734818749126614
  0
VERTEX
  5
667
330
651
100
AcDbEntity
  8
2D$cuna$rebaje 5mm
100
AcDbVertex
100
AcDb2dVertex
 10
310.9983802404932
 20
305.2884652056313
 30
-0.0734818749126614
  0
VERTEX
  5
668
330
651
100
AcDbEntity
  8
2D$cuna$rebaje 5mm
100
AcDbVertex
100
AcDb2dVertex
 10
310.6482790847068
 20
305.6718127301558
 30
-0.0734818749126614
  0
VERTEX
  5
669
330
651
100
AcDbEntity
  8
2D$cuna$rebaje 5mm
100
AcDbVertex
100
AcDb2dVertex
 10
310.2851217180752
 20
306.0428152515801
 30
-0.0734818749126614
  0
VERTEX
  5
66A
330
651
100
AcDbEntity
  8
2D$cuna$rebaje 5mm
100
AcDbVertex
100
AcDb2dVertex
 10
309.9093431646191
 20
306.4010283482201
 30
-0.0734818749126614
  0
VERTEX
  5
66B
330
651
100
AcDbEntity
  8
2D$cuna$rebaje 5mm
100
AcDbVertex
100
AcDb2dVertex
 10
309.5213935672026
 20
306.7460229187664
 30
-0.0734818749126614
  0
VERTEX
  5
66C
330
651
100
AcDbEntity
  8
2D$cuna$rebaje 5mm
100
AcDbVertex
100
AcDb2dVertex
 10
309.1217376483102
 20
307.0773856963023
 30
-0.0734818749126614
  0
VERTEX
  5
66D
330
651
100
AcDbEntity
  8
2D$cuna$rebaje 5mm
100
AcDbVertex
100
AcDb2dVertex
 10
308.7108541533583
 20
307.3947197433538
 30
-0.0734818749126614
  0
VERTEX
  5
66E
330
651
100
AcDbEntity
  8
2D$cuna$rebaje 5mm
100
AcDbVertex
100
AcDb2dVertex
 10
308.2892352772089
 20
307.6976449273788
 30
-0.0734818749126614
  0
VERTEX
  5
66F
330
651
100
AcDbEntity
  8
2D$cuna$rebaje 5mm
100
AcDbVertex
100
AcDb2dVertex
 10
307.8573860745726
 20
307.985798376125
 30
-0.0734818749126614
  0
VERTEX
  5
670
330
651
100
AcDbEntity
  8
2D$cuna$rebaje 5mm
100
AcDbVertex
100
AcDb2dVertex
 10
307.4158238550061
 20
308.2588349123131
 30
-0.0734818749126614
  0
VERTEX
  5
671
330
651
100
AcDbEntity
  8
2D$cuna$rebaje 5mm
100
AcDbVertex
100
AcDb2dVertex
 10
306.965077563231
 20
308.516427467122
 30
-0.0734818749126614
  0
VERTEX
  5
672
330
651
100
AcDbEntity
  8
2D$cuna$rebaje 5mm
100
AcDbVertex
100
AcDb2dVertex
 10
306.5056871455132
 20
308.7582674719829
 30
-0.0734818749126614
  0
VERTEX
  5
673
330
651
100
AcDbEntity
  8
2D$cuna$rebaje 5mm
100
AcDbVertex
100
AcDb2dVertex
 10
306.0382029028654
 20
308.9840652282117
 30
-0.0734818749126614
  0
VERTEX
  5
674
330
651
100
AcDbEntity
  8
2D$cuna$rebaje 5mm
100
AcDbVertex
100
AcDb2dVertex
 10
305.5631848318439
 20
309.1935502540372
 30
-0.0734818749126614
  0
VERTEX
  5
675
330
651
100
AcDbEntity
  8
2D$cuna$rebaje 5mm
100
AcDbVertex
100
AcDb2dVertex
 10
305.0812019537331
 20
309.3864716086094
 30
-0.0734818749126614
  0
VERTEX
  5
676
330
651
100
AcDbEntity
  8
2D$cuna$rebaje 5mm
100
AcDbVertex
100
AcDb2dVertex
 10
304.5928316329174
 20
309.5625981926008
 30
-0.0734818749126614
  0
VERTEX
  5
677
330
651
100
AcDbEntity
  8
2D$cuna$rebaje 5mm
100
AcDbVertex
100
AcDb2dVertex
 10
304.0986588852606
 20
309.7217190250377
 30
-0.0734818749126614
  0
VERTEX
  5
678
330
651
100
AcDbEntity
  8
2D$cuna$rebaje 5mm
100
AcDbVertex
100
AcDb2dVertex
 10
303.5992756773187
 20
309.8636434960342
 30
-0.0734818749126614
  0
VERTEX
  5
679
330
651
100
AcDbEntity
  8
2D$cuna$rebaje 5mm
100
AcDbVertex
100
AcDb2dVertex
 10
303.0952802172264
 20
309.9882015951218
 30
-0.0734818749126614
  0
VERTEX
  5
67A
330
651
100
AcDbEntity
  8
2D$cuna$rebaje 5mm
100
AcDbVertex
100
AcDb2dVertex
 10
302.5872762381075
 20
310.0952441149045
 30
-0.0734818749126614
  0
VERTEX
  5
67B
330
651
100
AcDbEntity
  8
2D$cuna$rebaje 5mm
100
AcDbVertex
100
AcDb2dVertex
 10
302.0758722748668
 20
310.1846428297929
 30
-0.0734818749126614
  0
VERTEX
  5
67C
330
651
100
AcDbEntity
  8
2D$cuna$rebaje 5mm
100
AcDbVertex
100
AcDb2dVertex
 10
301.5616809352293
 20
310.2562906496054
 30
-0.0734818749126614
  0
VERTEX
  5
67D
330
651
100
AcDbEntity
  8
2D$cuna$rebaje 5mm
100
AcDbVertex
100
AcDb2dVertex
 10
301.0453181659017
 20
310.3101017478504
 30
-0.0734818749126614
  0
VERTEX
  5
67E
330
651
100
AcDbEntity
  8
2D$cuna$rebaje 5mm
100
AcDbVertex
100
AcDb2dVertex
 10
300.527402514733
 20
310.3460116645377
 30
-0.0734818749126614
  0
VERTEX
  5
67F
330
651
100
AcDbEntity
  8
2D$cuna$rebaje 5mm
100
AcDbVertex
100
AcDb2dVertex
 10
300.00855438976
 20
310.3639773833945
 30
-0.0734818749126614
  0
VERTEX
  5
680
330
651
100
AcDbEntity
  8
2D$cuna$rebaje 5mm
100
AcDbVertex
100
AcDb2dVertex
 10
299.4893953160244
 20
310.3639773833945
 30
-0.0734818749126614
  0
VERTEX
  5
681
330
651
100
AcDbEntity
  8
2D$cuna$rebaje 5mm
100
AcDbVertex
100
AcDb2dVertex
 10
298.9705471910514
 20
310.3460116645376
 30
-0.0734818749126614
  0
VERTEX
  5
682
330
651
100
AcDbEntity
  8
2D$cuna$rebaje 5mm
100
AcDbVertex
100
AcDb2dVertex
 10
298.4526315398827
 20
310.3101017478504
 30
-0.0734818749126614
  0
VERTEX
  5
683
330
651
100
AcDbEntity
  8
2D$cuna$rebaje 5mm
100
AcDbVertex
100
AcDb2dVertex
 10
297.9362687705551
 20
310.2562906496053
 30
-0.0734818749126614
  0
VERTEX
  5
684
330
651
100
AcDbEntity
  8
2D$cuna$rebaje 5mm
100
AcDbVertex
100
AcDb2dVertex
 10
297.4220774309176
 20
310.1846428297928
 30
-0.0734818749126614
  0
VERTEX
  5
685
330
651
100
AcDbEntity
  8
2D$cuna$rebaje 5mm
100
AcDbVertex
100
AcDb2dVertex
 10
296.9106734676769
 20
310.0952441149044
 30
-0.0734818749126614
  0
VERTEX
  5
686
330
651
100
AcDbEntity
  8
2D$cuna$rebaje 5mm
100
AcDbVertex
100
AcDb2dVertex
 10
296.402669488558
 20
309.9882015951217
 30
-0.0734818749126614
  0
VERTEX
  5
687
330
651
100
AcDbEntity
  8
2D$cuna$rebaje 5mm
100
AcDbVertex
100
AcDb2dVertex
 10
295.8986740284657
 20
309.863643496034
 30
-0.0734818749126614
  0
VERTEX
  5
688
330
651
100
AcDbEntity
  8
2D$cuna$rebaje 5mm
100
AcDbVertex
100
AcDb2dVertex
 10
295.3992908205238
 20
309.7217190250375
 30
-0.0734818749126614
  0
VERTEX
  5
689
330
651
100
AcDbEntity
  8
2D$cuna$rebaje 5mm
100
AcDbVertex
100
AcDb2dVertex
 10
294.9051180728671
 20
309.5625981926005
 30
-0.0734818749126614
  0
VERTEX
  5
68A
330
651
100
AcDbEntity
  8
2D$cuna$rebaje 5mm
100
AcDbVertex
100
AcDb2dVertex
 10
294.4167477520514
 20
309.3864716086092
 30
-0.0734818749126614
  0
VERTEX
  5
68B
330
651
100
AcDbEntity
  8
2D$cuna$rebaje 5mm
100
AcDbVertex
100
AcDb2dVertex
 10
293.9347648739406
 20
309.1935502540369
 30
-0.0734818749126614
  0
VERTEX
  5
68C
330
651
100
AcDbEntity
  8
2D$cuna$rebaje 5mm
100
AcDbVertex
100
AcDb2dVertex
 10
293.4597468029191
 20
308.9840652282114
 30
-0.0734818749126614
  0
VERTEX
  5
68D
330
651
100
AcDbEntity
  8
2D$cuna$rebaje 5mm
100
AcDbVertex
100
AcDb2dVertex
 10
292.9922625602713
 20
308.7582674719826
 30
-0.0734818749126614
  0
VERTEX
  5
68E
330
651
100
AcDbEntity
  8
2D$cuna$rebaje 5mm
100
AcDbVertex
100
AcDb2dVertex
 10
292.5328721425536
 20
308.5164274671217
 30
-0.0734818749126614
  0
VERTEX
  5
68F
330
651
100
AcDbEntity
  8
2D$cuna$rebaje 5mm
100
AcDbVertex
100
AcDb2dVertex
 10
292.0821258507784
 20
308.2588349123128
 30
-0.0734818749126614
  0
VERTEX
  5
690
330
651
100
AcDbEntity
  8
2D$cuna$rebaje 5mm
100
AcDbVertex
100
AcDb2dVertex
 10
291.640563631212
 20
307.9857983761246
 30
-0.0734818749126614
  0
VERTEX
  5
691
330
651
100
AcDbEntity
  8
2D$cuna$rebaje 5mm
100
AcDbVertex
100
AcDb2dVertex
 10
291.2087144285756
 20
307.6976449273784
 30
-0.0734818749126614
  0
VERTEX
  5
692
330
651
100
AcDbEntity
  8
2D$cuna$rebaje 5mm
100
AcDbVertex
100
AcDb2dVertex
 10
290.7870955524263
 20
307.3947197433534
 30
-0.0734818749126614
  0
VERTEX
  5
693
330
651
100
AcDbEntity
  8
2D$cuna$rebaje 5mm
100
AcDbVertex
100
AcDb2dVertex
 10
290.3762120574744
 20
307.0773856963019
 30
-0.0734818749126614
  0
VERTEX
  5
694
330
651
100
AcDbEntity
  8
2D$cuna$rebaje 5mm
100
AcDbVertex
100
AcDb2dVertex
 10
289.976556138582
 20
306.7460229187659
 30
-0.0734818749126614
  0
VERTEX
  5
695
330
651
100
AcDbEntity
  8
2D$cuna$rebaje 5mm
100
AcDbVertex
100
AcDb2dVertex
 10
289.5886065411656
 20
306.4010283482197
 30
-0.0734818749126614
  0
VERTEX
  5
696
330
651
100
AcDbEntity
  8
2D$cuna$rebaje 5mm
100
AcDbVertex
100
AcDb2dVertex
 10
289.2128279877094
 20
306.0428152515796
 30
-0.0734818749126614
  0
VERTEX
  5
697
330
651
100
AcDbEntity
  8
2D$cuna$rebaje 5mm
100
AcDbVertex
100
AcDb2dVertex
 10
288.8496706210778
 20
305.6718127301552
 30
-0.0734818749126614
  0
VERTEX
  5
698
330
651
100
AcDbEntity
  8
2D$cuna$rebaje 5mm
100
AcDbVertex
100
AcDb2dVertex
 10
288.4995694652914
 20
305.2884652056308
 30
-0.0734818749126614
  0
VERTEX
  5
699
330
651
100
AcDbEntity
  8
2D$cuna$rebaje 5mm
100
AcDbVertex
100
AcDb2dVertex
 10
288.1629439044145
 20
304.8932318876952
 30
-0.0734818749126614
  0
VERTEX
  5
69A
330
651
100
AcDbEntity
  8
2D$cuna$rebaje 5mm
100
AcDbVertex
100
AcDb2dVertex
 10
287.8401971801775
 20
304.486586223958
 30
-0.0734818749126614
  0
VERTEX
  5
69B
330
651
100
AcDbEntity
  8
2D$cuna$rebaje 5mm
100
AcDbVertex
100
AcDb2dVertex
 10
287.5317159089361
 20
304.0690153328086
 30
-0.0734818749126614
  0
VERTEX
  5
69C
330
651
100
AcDbEntity
  8
2D$cuna$rebaje 5mm
100
AcDbVertex
100
AcDb2dVertex
 10
287.2378696185456
 20
303.6410194199008
 30
-0.0734818749126614
  0
VERTEX
  5
69D
330
651
100
AcDbEntity
  8
2D$cuna$rebaje 5mm
100
AcDbVertex
100
AcDb2dVertex
 10
286.9590103057064
 20
303.2031111789589
 30
-0.0734818749126614
  0
VERTEX
  5
69E
330
651
100
AcDbEntity
  8
2D$cuna$rebaje 5mm
100
AcDbVertex
100
AcDb2dVertex
 10
286.6954720143084
 20
302.7558151776253
 30
-0.0734818749126614
  0
VERTEX
  5
69F
330
651
100
AcDbEntity
  8
2D$cuna$rebaje 5mm
100
AcDbVertex
100
AcDb2dVertex
 10
286.4475704352824
 20
302.2996672290839
 30
-0.0734818749126614
  0
VERTEX
  5
6A0
330
651
100
AcDbEntity
  8
2D$cuna$rebaje 5mm
100
AcDbVertex
100
AcDb2dVertex
 10
286.2156025284359
 20
301.835213750213
 30
-0.0734818749126614
  0
VERTEX
  5
6A1
330
651
100
AcDbEntity
  8
2D$cuna$rebaje 5mm
100
AcDbVertex
100
AcDb2dVertex
 10
285.9998461667262
 20
301.3630111070356
 30
-0.0734818749126614
  0
VERTEX
  5
6A2
330
651
100
AcDbEntity
  8
2D$cuna$rebaje 5mm
100
AcDbVertex
100
AcDb2dVertex
 10
285.8005598033986
 20
300.8836249482516
 30
-0.0734818749126614
  0
VERTEX
  5
6A3
330
651
100
AcDbEntity
  8
2D$cuna$rebaje 5mm
100
AcDbVertex
100
AcDb2dVertex
 10
285.6179821623865
 20
300.3976295276512
 30
-0.0734818749126614
  0
VERTEX
  5
6A4
330
651
100
AcDbEntity
  8
2D$cuna$rebaje 5mm
100
AcDbVertex
100
AcDb2dVertex
 10
285.4523319523457
 20
299.9056070162197
 30
-0.0734818749126614
  0
VERTEX
  5
6A5
330
651
100
AcDbEntity
  8
2D$cuna$rebaje 5mm
100
AcDbVertex
100
AcDb2dVertex
 10
285.3038076046643
 20
299.4081468047576
 30
-0.0734818749126614
  0
VERTEX
  5
6A6
330
651
100
AcDbEntity
  8
2D$cuna$rebaje 5mm
100
AcDbVertex
100
AcDb2dVertex
 10
285.1725870357632
 20
298.9058447978541
 30
-0.0734818749126614
  0
VERTEX
  5
6A7
330
651
100
AcDbEntity
  8
2D$cuna$rebaje 5mm
100
AcDbVertex
100
AcDb2dVertex
 10
285.058827433971
 20
298.3993027000556
 30
-0.0734818749126614
  0
VERTEX
  5
6A8
330
651
100
AcDbEntity
  8
2D$cuna$rebaje 5mm
100
AcDbVertex
100
AcDb2dVertex
 10
284.9626650712289
 20
297.889127295088
 30
-0.0734818749126614
  0
VERTEX
  5
6A9
330
651
100
AcDbEntity
  8
2D$cuna$rebaje 5mm
100
AcDbVertex
100
AcDb2dVertex
 10
284.8842151398518
 20
297.3759297189938
 30
-0.0734818749126614
  0
VERTEX
  5
6AA
330
651
100
AcDbEntity
  8
2D$cuna$rebaje 5mm
100
AcDbVertex
100
AcDb2dVertex
 10
284.8235716145396
 20
296.8603247280562
 30
-0.0734818749126614
  0
VERTEX
  5
6AB
330
651
100
AcDbEntity
  8
2D$cuna$rebaje 5mm
100
AcDbVertex
100
AcDb2dVertex
 10
284.7808071398056
 20
296.3429299623862
 30
-0.0734818749126614
  0
VERTEX
  5
6AC
330
651
100
AcDbEntity
  8
2D$cuna$rebaje 5mm
100
AcDbVertex
100
AcDb2dVertex
 10
284.7559729429565
 20
295.8243652060549
 30
-0.0734818749126614
  0
VERTEX
  5
6AD
330
651
100
AcDbEntity
  8
2D$cuna$rebaje 5mm
100
AcDbVertex
100
AcDb2dVertex
 10
284.749098772727
 20
295.3052516446585
 30
-0.0734818749126614
  0
SEQEND
  5
6AE
330
651
100
AcDbEntity
  8
2D$cuna$rebaje 5mm
  0
POLYLINE
  5
6AF
330
1F
100
AcDbEntity
  8
2D$cuna$rebaje 5mm
100
AcDb2dPolyline
 66
     1
 10
0.0
 20
0.0
 30
-0.0734818749126589
  0
VERTEX
  5
6B0
330
6AF
100
AcDbEntity
  8
2D$cuna$rebaje 5mm
100
AcDbVertex
100
AcDb2dVertex
 10
284.749098772727
 20
295.3052516446585
 30
-0.0734818749126589
  0
VERTEX
  5
6B1
330
6AF
100
AcDbEntity
  8
2D$cuna$rebaje 5mm
100
AcDbVertex
100
AcDb2dVertex
 10
273.5307556155543
 20
264.3630120344275
 30
-0.0734818749126589
  0
SEQEND
  5
6B2
330
6AF
100
AcDbEntity
  8
2D$cuna$rebaje 5mm
  0
POLYLINE
  5
6B3
330
1F
100
AcDbEntity
  8
2D$cuna$Interiores
100
AcDb2dPolyline
 66
     1
 10
0.0
 20
0.0
 30
-0.0000000000000853
  0
VERTEX
  5
6B4
330
6B3
100
AcDbEntity
  8
2D$cuna$Interiores
100
AcDbVertex
100
AcDb2dVertex
 10
590.8370212043001
 20
335.0
 30
-0.0000000000000853
  0
VERTEX
  5
6B5
330
6B3
100
AcDbEntity
  8
2D$cuna$Interiores
100
AcDbVertex
100
AcDb2dVertex
 10
600.8370212043001
 20
335.0
 30
-0.0000000000000853
  0
VERTEX
  5
6B6
330
6B3
100
AcDbEntity
  8
2D$cuna$Interiores
100
AcDbVertex
100
AcDb2dVertex
 10
600.8370212043001
 20
320.0
 30
-0.0000000000000853
  0
VERTEX
  5
6B7
330
6B3
100
AcDbEntity
  8
2D$cuna$Interiores
100
AcDbVertex
100
AcDb2dVertex
 10
590.8370212043001
 20
320.0
 30
-0.0000000000000853
  0
VERTEX
  5
6B8
330
6B3
100
AcDbEntity
  8
2D$cuna$Interiores
100
AcDbVertex
100
AcDb2dVertex
 10
590.8370212043001
 20
300.0
 30
-0.0000000000000853
  0
VERTEX
  5
6B9
330
6B3
100
AcDbEntity
  8
2D$cuna$Interiores
100
AcDbVertex
100
AcDb2dVertex
 10
600.8370212043001
 20
300.0
 30
-0.0000000000000853
  0
VERTEX
  5
6BA
330
6B3
100
AcDbEntity
  8
2D$cuna$Interiores
100
AcDbVertex
100
AcDb2dVertex
 10
600.8370212043001
 20
285.0
 30
-0.0000000000000853
  0
VERTEX
  5
6BB
330
6B3
100
AcDbEntity
  8
2D$cuna$Interiores
100
AcDbVertex
100
AcDb2dVertex
 10
480.8370212043001
 20
285.0
 30
-0.0000000000000853
  0
VERTEX
  5
6BC
330
6B3
100
AcDbEntity
  8
2D$cuna$Interiores
100
AcDbVertex
100
AcDb2dVertex
 10
480.8370212043001
 20
300.0
 30
-0.0000000000000853
  0
VERTEX
  5
6BD
330
6B3
100
AcDbEntity
  8
2D$cuna$Interiores
100
AcDbVertex
100
AcDb2dVertex
 10
490.8370212043001
 20
300.0
 30
-0.0000000000000853
  0
VERTEX
  5
6BE
330
6B3
100
AcDbEntity
  8
2D$cuna$Interiores
100
AcDbVertex
100
AcDb2dVertex
 10
490.8370212043001
 20
320.0
 30
-0.0000000000000853
  0
VERTEX
  5
6BF
330
6B3
100
AcDbEntity
  8
2D$cuna$Interiores
100
AcDbVertex
100
AcDb2dVertex
 10
480.8370212043001
 20
320.0
 30
-0.0000000000000853
  0
VERTEX
  5
6C0
330
6B3
100
AcDbEntity
  8
2D$cuna$Interiores
100
AcDbVertex
100
AcDb2dVertex
 10
480.8370212043001
 20
335.0
 30
-0.0000000000000853
  0
VERTEX
  5
6C1
330
6B3
100
AcDbEntity
  8
2D$cuna$Interiores
100
AcDbVertex
100
AcDb2dVertex
 10
510.8370212043001
 20
335.0
 30
-0.0000000000000853
  0
VERTEX
  5
6C2
330
6B3
100
AcDbEntity
  8
2D$cuna$Interiores
100
AcDbVertex
100
AcDb2dVertex
 10
510.8370212043001
 20
325.0
 30
-0.0000000000000853
  0
VERTEX
  5
6C3
330
6B3
100
AcDbEntity
  8
2D$cuna$Interiores
100
AcDbVertex
100
AcDb2dVertex
 10
530.8370212043001
 20
325.0
 30
-0.0000000000000853
  0
VERTEX
  5
6C4
330
6B3
100
AcDbEntity
  8
2D$cuna$Interiores
100
AcDbVertex
100
AcDb2dVertex
 10
530.8370212043001
 20
335.0
 30
-0.0000000000000853
  0
VERTEX
  5
6C5
330
6B3
100
AcDbEntity
  8
2D$cuna$Interiores
100
AcDbVertex
100
AcDb2dVertex
 10
550.8370212043001
 20
335.0
 30
-0.0000000000000853
  0
VERTEX
  5
6C6
330
6B3
100
AcDbEntity
  8
2D$cuna$Interiores
100
AcDbVertex
100
AcDb2dVertex
 10
550.8370212043001
 20
325.0
 30
-0.0000000000000853
  0
VERTEX
  5
6C7
330
6B3
100
AcDbEntity
  8
2D$cuna$Interiores
100
AcDbVertex
100
AcDb2dVertex
 10
570.8370212043001
 20
325.0
 30
-0.0000000000000853
  0
VERTEX
  5
6C8
330
6B3
100
AcDbEntity
  8
2D$cuna$Interiores
100
AcDbVertex
100
AcDb2dVertex
 10
570.8370212043001
 20
335.0
 30
-0.0000000000000853
  0
VERTEX
  5
6C9
330
6B3
100
AcDbEntity
  8
2D$cuna$Interiores
100
AcDbVertex
100
AcDb2dVertex
 10
590.8370212043001
 20
335.0
 30
-0.0000000000000853
  0
SEQEND
  5
6CA
330
6B3
100
AcDbEntity
  8
2D$cuna$Interiores
  0
POLYLINE
  5
6CB
330
1F
100
AcDbEntity
  8
2D$cuna$rebaje 5mm
100
AcDb2dPolyline
 66
     1
 10
0.0
 20
0.0
 30
0.0000000000000284
  0
VERTEX
  5
6CC
330
6CB
100
AcDbEntity
  8
2D$cuna$rebaje 5mm
100
AcDbVertex
100
AcDb2dVertex
 10
0.0
 20
369.9999999999998
 30
0.0000000000000284
  0
VERTEX
  5
6CD
330
6CB
100
AcDbEntity
  8
2D$cuna$rebaje 5mm
100
AcDbVertex
100
AcDb2dVertex
 10
723.9999999999999
 20
370.0000000000001
 30
0.0000000000000284
  0
VERTEX
  5
6CE
330
6CB
100
AcDbEntity
  8
2D$cuna$rebaje 5mm
100
AcDbVertex
100
AcDb2dVertex
 10
723.9999999999999
 20
345.0000000000001
 30
0.0000000000000284
  0
VERTEX
  5
6CF
330
6CB
100
AcDbEntity
  8
2D$cuna$rebaje 5mm
100
AcDbVertex
100
AcDb2dVertex
 10
0.0
 20
344.9999999999998
 30
0.0000000000000284
  0
VERTEX
  5
6D0
330
6CB
100
AcDbEntity
  8
2D$cuna$rebaje 5mm
100
AcDbVertex
100
AcDb2dVertex
 10
0.0
 20
369.9999999999998
 30
0.0000000000000284
  0
SEQEND
  5
6D1
330
6CB
100
AcDbEntity
  8
2D$cuna$rebaje 5mm
  0
DIMENSION
  5
6D5
330
1F
100
AcDbEntity
  8
2D
100
AcDbDimension
  2
*D1
 10
472.8370212043001
 20
320.0
 30
0.0
 11
472.0765212043001
 21
327.5
 31
0.0
 70
    32
  1
<>
 71
     5
 42
15.0
  3
Default
100
AcDbAlignedDimension
 13
480.8370212043001
 23
335.0
 33
-0.0000000000000853
 14
480.8370212043001
 24
320.0
 34
-0.0000000000000853
 50
90.0
100
AcDbRotatedDimension
  0
DIMENSION
  5
6E3
330
1F
100
AcDbEntity
  8
2D
100
AcDbDimension
  2
*D2
 10
530.8370212043001
 20
310.0
 30
0.0
 11
520.8370212043001
 21
310.7605
 31
0.0
 70
    32
  1
<>
 71
     5
 42
20.0
  3
Default
100
AcDbAlignedDimension
 13
510.8370212043001
 23
325.0
 33
-0.0000000000001137
 14
530.8370212043001
 24
325.0
 34
-0.0000000000001137
100
AcDbRotatedDimension
  0
ENDSEC
  0
SECTION
  2
OBJECTS
  0
DICTIONARY
  5
C
330
0
100
AcDbDictionary
281
     1
  3
ACAD_GROUP
350
D
  3
ACAD_LAYOUT
350
1A
  3
ACAD_MATERIAL
350
3B
  3
ACAD_MLEADERSTYLE
350
717
  3
ACAD_MLINESTYLE
350
17
  3
ACAD_PLOTSETTINGS
350
19
  3
ACAD_PLOTSTYLENAME
350
E
  3
ACAD_TABLESTYLE
350
716
  3
ACAD_VISUALSTYLE
350
2A
  0
DICTIONARY
  5
D
102
{ACAD_REACTORS
330
C
102
}
330
C
100
AcDbDictionary
281
     1
  0
DICTIONARY
  5
1A
102
{ACAD_REACTORS
330
C
102
}
330
C
100
AcDbDictionary
281
     1
  3
Layout1
350
1E
  3
Layout2
350
26
  3
Model
350
22
  0
DICTIONARY
  5
3B
102
{ACAD_REACTORS
330
C
102
}
330
C
100
AcDbDictionary
281
     1
  3
ByBlock
350
3D
  3
ByLayer
350
3C
  3
Global
350
3E
  0
DICTIONARY
  5
717
102
{ACAD_REACTORS
330
C
102
}
330
C
100
AcDbDictionary
281
     1
  0
DICTIONARY
  5
17
102
{ACAD_REACTORS
330
C
102
}
330
C
100
AcDbDictionary
281
     1
  3
Standard
350
18
  0
DICTIONARY
  5
19
102
{ACAD_REACTORS
330
C
102
}
330
C
100
AcDbDictionary
281
     1
  0
ACDBDICTIONARYWDFLT
  5
E
102
{ACAD_REACTORS
330
C
102
}
330
C
100
AcDbDictionary
281
     1
  3
Normal
350
F
100
AcDbDictionaryWithDefault
340
F
  0
DICTIONARY
  5
716
102
{ACAD_REACTORS
330
C
102
}
330
C
100
AcDbDictionary
281
     1
  0
DICTIONARY
  5
2A
102
{ACAD_REACTORS
330
C
102
}
330
C
100
AcDbDictionary
281
     1
  3
2dWireframe
350
2F
  3
3D Hidden
350
31
  3
3dWireframe
350
30
  3
Basic
350
32
  3
Brighten
350
36
  3
ColorChange
350
3A
  3
Conceptual
350
34
  3
Dim
350
35
  3
Facepattern
350
39
  3
Flat
350
2B
  3
FlatWithEdges
350
2C
  3
Gouraud
350
2D
  3
GouraudWithEdges
350
2E
  3
Linepattern
350
38
  3
Realistic
350
33
  3
Thicken
350
37
  0
LAYOUT
  5
1E
102
{ACAD_REACTORS
330
1A
102
}
330
1A
100
AcDbPlotSettings
  1

  2
none_device
  4

  6

 40
0.0
 41
0.0
 42
0.0
 43
0.0
 44
0.0
 45
0.0
 46
0.0
 47
0.0
 48
0.0
 49
0.0
140
0.0
141
0.0
142
1.0
143
1.0
 70
   688
 72
     0
 73
     0
 74
     5
  7

 75
    16
 76
     0
 77
     2
 78
   300
147
1.0
148
0.0
149
0.0
100
AcDbLayout
  1
Layout1
 70
     1
 71
     1
 10
0.0
 20
0.0
 11
12.0
 21
9.0
 12
0.0
 22
0.0
 32
0.0
 14
1.000000000000000E+20
 24
1.000000000000000E+20
 34
1.000000000000000E+20
 15
-1.000000000000000E+20
 25
-1.000000000000000E+20
 35
-1.000000000000000E+20
146
0.0
 13
0.0
 23
0.0
 33
0.0
 16
1.0
 26
0.0
 36
0.0
 17
0.0
 27
1.0
 37
0.0
 76
     0
330
1B
  0
LAYOUT
  5
26
102
{ACAD_REACTORS
330
1A
102
}
330
1A
100
AcDbPlotSettings
  1

  2
none_device
  4

  6

 40
0.0
 41
0.0
 42
0.0
 43
0.0
 44
0.0
 45
0.0
 46
0.0
 47
0.0
 48
0.0
 49
0.0
140
0.0
141
0.0
142
1.0
143
1.0
 70
   688
 72
     0
 73
     0
 74
     5
  7

 75
    16
 76
     0
 77
     2
 78
   300
147
1.0
148
0.0
149
0.0
100
AcDbLayout
  1
Layout2
 70
     1
 71
     2
 10
0.0
 20
0.0
 11
0.0
 21
0.0
 12
0.0
 22
0.0
 32
0.0
 14
0.0
 24
0.0
 34
0.0
 15
0.0
 25
0.0
 35
0.0
146
0.0
 13
0.0
 23
0.0
 33
0.0
 16
1.0
 26
0.0
 36
0.0
 17
0.0
 27
1.0
 37
0.0
 76
     0
330
23
  0
LAYOUT
  5
22
102
{ACAD_REACTORS
330
1A
102
}
330
1A
100
AcDbPlotSettings
  1

  2
none_device
  4

  6

 40
0.0
 41
0.0
 42
0.0
 43
0.0
 44
0.0
 45
0.0
 46
0.0
 47
0.0
 48
0.0
 49
0.0
140
0.0
141
0.0
142
1.0
143
1.0
 70
  1712
 72
     0
 73
     0
 74
     0
  7

 75
     0
 76
     0
 77
     2
 78
   300
147
1.0
148
0.0
149
0.0
100
AcDbLayout
  1
Model
 70
     1
 71
     0
 10
0.0
 20
0.0
 11
12.0
 21
9.0
 12
0.0
 22
0.0
 32
0.0
 14
-10.00000000000034
 24
-4.438348972101267
 34
-0.0734818749126873
 15
1222.44033797353
 25
913.7845766827191
 35
0.0000000000005684
146
0.0
 13
0.0
 23
0.0
 33
0.0
 16
1.0
 26
0.0
 36
0.0
 17
0.0
 27
1.0
 37
0.0
 76
     0
330
1F
331
29
  0
MATERIAL
  5
3D
102
{ACAD_REACTORS
330
3B
102
}
102
{ACAD_XDICTIONARY
360
712
102
}
330
3B
100
AcDbMaterial
  1
ByBlock
  0
MATERIAL
  5
3C
102
{ACAD_REACTORS
330
3B
102
}
102
{ACAD_XDICTIONARY
360
710
102
}
330
3B
100
AcDbMaterial
  1
ByLayer
  0
MATERIAL
  5
3E
102
{ACAD_REACTORS
330
3B
102
}
102
{ACAD_XDICTIONARY
360
714
102
}
330
3B
100
AcDbMaterial
  1
Global
  0
MLINESTYLE
  5
18
102
{ACAD_REACTORS
330
17
102
}
330
17
100
AcDbMlineStyle
  2
Standard
 70
     0
  3

 62
   256
 51
90.0
 52
90.0
 71
     2
 49
0.5
 62
   256
  6
BYLAYER
 49
-0.5
 62
   256
  6
BYLAYER
  0
ACDBPLACEHOLDER
  5
F
102
{ACAD_REACTORS
330
E
102
}
330
E
  0
VISUALSTYLE
  5
2F
102
{ACAD_REACTORS
330
2A
102
}
102
{ACAD_XDICTIONARY
360
6F8
102
}
330
2A
100
AcDbVisualStyle
  2
2dWireframe
 70
     4
 71
     0
 72
     2
 73
     0
 90
        0
 40
-0.6
 41
-30.0
 62
     5
 63
     7
421
 16777215
 74
     1
 91
        4
 64
     7
 65
   257
 75
     1
175
     1
 42
1.0
 92
        0
 66
   257
 43
1.0
 76
     1
 77
     6
 78
     2
 67
     7
 79
     5
170
     0
171
     0
290
     0
174
     0
 93
        1
 44
0.0
173
     0
291
     0
 45
0.0
1001
ACAD
1000
AcDbSavedByObjectVersion
1070
     0
  0
VISUALSTYLE
  5
31
102
{ACAD_REACTORS
330
2A
102
}
102
{ACAD_XDICTIONARY
360
6FC
102
}
330
2A
100
AcDbVisualStyle
  2
3D Hidden
 70
     6
 71
     1
 72
     2
 73
     2
 90
        0
 40
-0.6
 41
-30.0
 62
     5
 63
     7
421
 16777215
 74
     2
 91
        2
 64
     7
 65
   257
 75
     2
175
     1
 42
40.0
 92
        0
 66
   257
 43
1.0
 76
     1
 77
     6
 78
     2
 67
     7
 79
     3
170
     0
171
     0
290
     0
174
     0
 93
        1
 44
0.0
173
     0
291
     0
 45
0.0
1001
ACAD
1000
AcDbSavedByObjectVersion
1070
     0
  0
VISUALSTYLE
  5
30
102
{ACAD_REACTORS
330
2A
102
}
102
{ACAD_XDICTIONARY
360
6FA
102
}
330
2A
100
AcDbVisualStyle
  2
3dWireframe
 70
     5
 71
     0
 72
     2
 73
     0
 90
        0
 40
-0.6
 41
-30.0
 62
     5
 63
     7
421
 16777215
 74
     1
 91
        4
 64
     7
 65
   257
 75
     1
175
     1
 42
1.0
 92
        0
 66
   257
 43
1.0
 76
     1
 77
     6
 78
     2
 67
     7
 79
     5
170
     0
171
     0
290
     0
174
     0
 93
        1
 44
0.0
173
     0
291
     0
 45
0.0
1001
ACAD
1000
AcDbSavedByObjectVersion
1070
     0
  0
VISUALSTYLE
  5
32
102
{ACAD_REACTORS
330
2A
102
}
102
{ACAD_XDICTIONARY
360
6FE
102
}
330
2A
100
AcDbVisualStyle
  2
Basic
 70
     7
 71
     1
 72
     0
 73
     1
 90
        0
 40
-0.6
 41
-30.0
 62
     5
 63
     7
421
 16777215
 74
     0
 91
        4
 64
     7
 65
   257
 75
     1
175
     1
 42
1.0
 92
        8
 66
     7
 43
1.0
 76
     1
 77
     6
 78
     2
 67
     7
 79
     5
170
     0
171
     0
290
     0
174
     0
 93
        1
 44
0.0
173
     0
291
     1
 45
0.0
1001
ACAD
1000
AcDbSavedByObjectVersion
1070
     0
  0
VISUALSTYLE
  5
36
102
{ACAD_REACTORS
330
2A
102
}
102
{ACAD_XDICTIONARY
360
706
102
}
330
2A
100
AcDbVisualStyle
  2
Brighten
 70
    12
 71
     2
 72
     2
 73
     0
 90
        0
 40
-0.6
 41
-30.0
 62
     5
 63
     7
421
 16777215
 74
     1
 91
        4
 64
     7
 65
   257
 75
     1
175
     1
 42
1.0
 92
        8
 66
     7
 43
1.0
 76
     1
 77
     6
 78
     2
 67
     7
 79
     5
170
     0
171
     0
290
     0
174
     0
 93
        1
 44
50.0
173
     0
291
     1
 45
0.0
1001
ACAD
1000
AcDbSavedByObjectVersion
1070
     0
  0
VISUALSTYLE
  5
3A
102
{ACAD_REACTORS
330
2A
102
}
102
{ACAD_XDICTIONARY
360
70E
102
}
330
2A
100
AcDbVisualStyle
  2
ColorChange
 70
    16
 71
     2
 72
     2
 73
     3
 90
        0
 40
-0.6
 41
-30.0
 62
     5
 63
     8
421
  8421504
 74
     1
 91
        4
 64
     7
 65
   257
 75
     1
175
     1
 42
1.0
 92
        8
 66
     8
424
  8421504
 43
1.0
 76
     1
 77
     6
 78
     2
 67
     7
 79
     5
170
     0
171
     0
290
     0
174
     0
 93
        1
 44
0.0
173
     0
291
     1
 45
0.0
1001
ACAD
1000
AcDbSavedByObjectVersion
1070
     0
  0
VISUALSTYLE
  5
34
102
{ACAD_REACTORS
330
2A
102
}
102
{ACAD_XDICTIONARY
360
702
102
}
330
2A
100
AcDbVisualStyle
  2
Conceptual
 70
     9
 71
     3
 72
     2
 73
     0
 90
        0
 40
-0.6
 41
-30.0
 62
     5
 63
     7
421
 16777215
 74
     2
 91
        2
 64
     7
 65
   257
 75
     1
175
     1
 42
40.0
 92
        8
 66
     7
 43
1.0
 76
     1
 77
     6
 78
     2
 67
     7
 79
     3
170
     0
171
     0
290
     0
174
     0
 93
        1
 44
0.0
173
     0
291
     0
 45
0.0
1001
ACAD
1000
AcDbSavedByObjectVersion
1070
     0
  0
VISUALSTYLE
  5
35
102
{ACAD_REACTORS
330
2A
102
}
102
{ACAD_XDICTIONARY
360
704
102
}
330
2A
100
AcDbVisualStyle
  2
Dim
 70
    11
 71
     2
 72
     2
 73
     0
 90
        0
 40
-0.6
 41
-30.0
 62
     5
 63
     7
421
 16777215
 74
     1
 91
        4
 64
     7
 65
   257
 75
     1
175
     1
 42
1.0
 92
        8
 66
     7
 43
1.0
 76
     1
 77
     6
 78
     2
 67
     7
 79
     5
170
     0
171
     0
290
     0
174
     0
 93
        1
 44
-50.0
173
     0
291
     1
 45
0.0
1001
ACAD
1000
AcDbSavedByObjectVersion
1070
     0
  0
VISUALSTYLE
  5
39
102
{ACAD_REACTORS
330
2A
102
}
102
{ACAD_XDICTIONARY
360
70C
102
}
330
2A
100
AcDbVisualStyle
  2
Facepattern
 70
    15
 71
     2
 72
     2
 73
     0
 90
        0
 40
-0.6
 41
-30.0
 62
     5
 63
     7
421
 16777215
 74
     1
 91
        4
 64
     7
 65
   257
 75
     1
175
     1
 42
1.0
 92
        8
 66
     7
 43
1.0
 76
     1
 77
     6
 78
     2
 67
     7
 79
     5
170
     0
171
     0
290
     0
174
     0
 93
        1
 44
0.0
173
     0
291
     1
 45
0.0
1001
ACAD
1000
AcDbSavedByObjectVersion
1070
     0
  0
VISUALSTYLE
  5
2B
102
{ACAD_REACTORS
330
2A
102
}
102
{ACAD_XDICTIONARY
360
6F0
102
}
330
2A
100
AcDbVisualStyle
  2
Flat
 70
     0
 71
     2
 72
     1
 73
     1
 90
        2
 40
-0.6
 41
30.0
 62
     5
 63
     7
421
 16777215
 74
     0
 91
        4
 64
     7
 65
   257
 75
     1
175
     1
 42
1.0
 92
        8
 66
     7
 43
1.0
 76
     1
 77
     6
 78
     2
 67
     7
 79
     5
170
     0
171
     0
290
     0
174
     0
 93
       13
 44
0.0
173
     0
291
     1
 45
0.0
1001
ACAD
1000
AcDbSavedByObjectVersion
1070
     0
  0
VISUALSTYLE
  5
2C
102
{ACAD_REACTORS
330
2A
102
}
102
{ACAD_XDICTIONARY
360
6F2
102
}
330
2A
100
AcDbVisualStyle
  2
FlatWithEdges
 70
     1
 71
     2
 72
     1
 73
     1
 90
        2
 40
-0.6
 41
30.0
 62
     5
 63
     7
421
 16777215
 74
     1
 91
        4
 64
     7
 65
   257
 75
     1
175
     1
 42
1.0
 92
        0
 66
   257
 43
1.0
 76
     1
 77
     6
 78
     2
 67
     7
 79
     5
170
     0
171
     0
290
     0
174
     0
 93
       13
 44
0.0
173
     0
291
     1
 45
0.0
1001
ACAD
1000
AcDbSavedByObjectVersion
1070
     0
  0
VISUALSTYLE
  5
2D
102
{ACAD_REACTORS
330
2A
102
}
102
{ACAD_XDICTIONARY
360
6F4
102
}
330
2A
100
AcDbVisualStyle
  2
Gouraud
 70
     2
 71
     2
 72
     2
 73
     1
 90
        2
 40
-0.6
 41
30.0
 62
     5
 63
     7
421
 16777215
 74
     0
 91
        4
 64
     7
 65
   257
 75
     1
175
     1
 42
1.0
 92
        0
 66
     7
 43
1.0
 76
     1
 77
     6
 78
     2
 67
     7
 79
     5
170
     0
171
     0
290
     0
174
     0
 93
       13
 44
0.0
173
     0
291
     1
 45
0.0
1001
ACAD
1000
AcDbSavedByObjectVersion
1070
     0
  0
VISUALSTYLE
  5
2E
102
{ACAD_REACTORS
330
2A
102
}
102
{ACAD_XDICTIONARY
360
6F6
102
}
330
2A
100
AcDbVisualStyle
  2
GouraudWithEdges
 70
     3
 71
     2
 72
     2
 73
     1
 90
        2
 40
-0.6
 41
30.0
 62
     5
 63
     7
421
 16777215
 74
     1
 91
        4
 64
     7
 65
   257
 75
     1
175
     1
 42
1.0
 92
        0
 66
   257
 43
1.0
 76
     1
 77
     6
 78
     2
 67
     7
 79
     5
170
     0
171
     0
290
     0
174
     0
 93
       13
 44
0.0
173
     0
291
     1
 45
0.0
1001
ACAD
1000
AcDbSavedByObjectVersion
1070
     0
  0
VISUALSTYLE
  5
38
102
{ACAD_REACTORS
330
2A
102
}
102
{ACAD_XDICTIONARY
360
70A
102
}
330
2A
100
AcDbVisualStyle
  2
Linepattern
 70
    14
 71
     2
 72
     2
 73
     0
 90
        0
 40
-0.6
 41
-30.0
 62
     5
 63
     7
421
 16777215
 74
     1
 91
        4
 64
     7
 65
   257
 75
     7
175
     7
 42
1.0
 92
        8
 66
     7
 43
1.0
 76
     1
 77
     6
 78
     2
 67
     7
 79
     5
170
     0
171
     0
290
     0
174
     0
 93
        1
 44
0.0
173
     0
291
     1
 45
0.0
1001
ACAD
1000
AcDbSavedByObjectVersion
1070
     0
  0
VISUALSTYLE
  5
33
102
{ACAD_REACTORS
330
2A
102
}
102
{ACAD_XDICTIONARY
360
700
102
}
330
2A
100
AcDbVisualStyle
  2
Realistic
 70
     8
 71
     2
 72
     2
 73
     0
 90
        0
 40
-0.6
 41
-30.0
 62
     5
 63
     7
421
 16777215
 74
     1
 91
        0
 64
     7
 65
   257
 75
     1
175
     1
 42
1.0
 92
        8
 66
     8
424
  7895160
 43
1.0
 76
     1
 77
     6
 78
     2
 67
     7
 79
     5
170
     0
171
     0
290
     0
174
     0
 93
       13
 44
0.0
173
     0
291
     0
 45
0.0
1001
ACAD
1000
AcDbSavedByObjectVersion
1070
     0
  0
VISUALSTYLE
  5
37
102
{ACAD_REACTORS
330
2A
102
}
102
{ACAD_XDICTIONARY
360
708
102
}
330
2A
100
AcDbVisualStyle
  2
Thicken
 70
    13
 71
     2
 72
     2
 73
     0
 90
        0
 40
-0.6
 41
-30.0
 62
     5
 63
     7
421
 16777215
 74
     1
 91
        4
 64
     7
 65
   257
 75
     1
175
     1
 42
1.0
 92
       12
 66
     7
 43
1.0
 76
     1
 77
     6
 78
     2
 67
     7
 79
     5
170
     0
171
     0
290
     0
174
     0
 93
        1
 44
0.0
173
     0
291
     1
 45
0.0
1001
ACAD
1000
AcDbSavedByObjectVersion
1070
     0
  0
DICTIONARY
  5
712
330
3D
100
AcDbDictionary
280
     1
281
     1
  3
ACAD_XREC_ROUNDTRIP
360
713
  0
DICTIONARY
  5
710
330
3C
100
AcDbDictionary
280
     1
281
     1
  3
ACAD_XREC_ROUNDTRIP
360
711
  0
DICTIONARY
  5
714
330
3E
100
AcDbDictionary
280
     1
281
     1
  3
ACAD_XREC_ROUNDTRIP
360
715
  0
DICTIONARY
  5
6F8
330
2F
100
AcDbDictionary
280
     1
281
     1
  3
ACAD_XREC_ROUNDTRIP
360
6F9
  0
DICTIONARY
  5
6FC
330
31
100
AcDbDictionary
280
     1
281
     1
  3
ACAD_XREC_ROUNDTRIP
360
6FD
  0
DICTIONARY
  5
6FA
330
30
100
AcDbDictionary
280
     1
281
     1
  3
ACAD_XREC_ROUNDTRIP
360
6FB
  0
DICTIONARY
  5
6FE
330
32
100
AcDbDictionary
280
     1
281
     1
  3
ACAD_XREC_ROUNDTRIP
360
6FF
  0
DICTIONARY
  5
706
330
36
100
AcDbDictionary
280
     1
281
     1
  3
ACAD_XREC_ROUNDTRIP
360
707
  0
DICTIONARY
  5
70E
330
3A
100
AcDbDictionary
280
     1
281
     1
  3
ACAD_XREC_ROUNDTRIP
360
70F
  0
DICTIONARY
  5
702
330
34
100
AcDbDictionary
280
     1
281
     1
  3
ACAD_XREC_ROUNDTRIP
360
703
  0
DICTIONARY
  5
704
330
35
100
AcDbDictionary
280
     1
281
     1
  3
ACAD_XREC_ROUNDTRIP
360
705
  0
DICTIONARY
  5
70C
330
39
100
AcDbDictionary
280
     1
281
     1
  3
ACAD_XREC_ROUNDTRIP
360
70D
  0
DICTIONARY
  5
6F0
330
2B
100
AcDbDictionary
280
     1
281
     1
  3
ACAD_XREC_ROUNDTRIP
360
6F1
  0
DICTIONARY
  5
6F2
330
2C
100
AcDbDictionary
280
     1
281
     1
  3
ACAD_XREC_ROUNDTRIP
360
6F3
  0
DICTIONARY
  5
6F4
330
2D
100
AcDbDictionary
280
     1
281
     1
  3
ACAD_XREC_ROUNDTRIP
360
6F5
  0
DICTIONARY
  5
6F6
330
2E
100
AcDbDictionary
280
     1
281
     1
  3
ACAD_XREC_ROUNDTRIP
360
6F7
  0
DICTIONARY
  5
70A
330
38
100
AcDbDictionary
280
     1
281
     1
  3
ACAD_XREC_ROUNDTRIP
360
70B
  0
DICTIONARY
  5
700
330
33
100
AcDbDictionary
280
     1
281
     1
  3
ACAD_XREC_ROUNDTRIP
360
701
  0
DICTIONARY
  5
708
330
37
100
AcDbDictionary
280
     1
281
     1
  3
ACAD_XREC_ROUNDTRIP
360
709
  0
XRECORD
  5
713
102
{ACAD_REACTORS
330
712
102
}
330
712
100
AcDbXrecord
280
     1
102
MATERIAL
148
0.0
149
0.0
149
0.0
 93
        0
 94
      127
282
     0
 72
     1
 77
     1
171
     1
175
     1
179
     1
273
     0
  0
XRECORD
  5
711
102
{ACAD_REACTORS
330
710
102
}
330
710
100
AcDbXrecord
280
     1
102
MATERIAL
148
0.0
149
0.0
149
0.0
 93
        0
 94
      127
282
     0
 72
     1
 77
     1
171
     1
175
     1
179
     1
273
     0
  0
XRECORD
  5
715
102
{ACAD_REACTORS
330
714
102
}
330
714
100
AcDbXrecord
280
     1
102
MATERIAL
148
0.0
149
0.0
149
0.0
 93
        0
 94
      127
282
     0
 72
     1
 77
     1
171
     1
175
     1
179
     1
273
     0
  0
XRECORD
  5
6F9
102
{ACAD_REACTORS
330
6F8
102
}
330
6F8
100
AcDbXrecord
280
     1
102
RTVSPropertyOp0
 70
     1
102
RTVSPropertyOp1
 70
     1
102
RTVSPropertyOp2
 70
     1
102
RTVSPropertyOp3
 70
     1
102
RTVSPropertyOp4
 70
     1
102
RTVSPropertyOp5
 70
     1
102
RTVSPropertyOp6
 70
     1
102
RTVSPropertyOp7
 70
     1
102
RTVSPropertyOp8
 70
     1
102
RTVSPropertyOp9
 70
     1
102
RTVSPropertyOp10
 70
     1
102
RTVSPropertyOp11
 70
     1
102
RTVSPropertyOp12
 70
     1
102
RTVSPropertyOp13
 70
     1
102
RTVSPropertyOp14
 70
     1
102
RTVSPropertyOp15
 70
     1
102
RTVSPropertyOp16
 70
     1
102
RTVSPropertyOp17
 70
     1
102
RTVSPropertyOp18
 70
     1
102
RTVSPropertyOp19
 70
     1
102
RTVSPropertyOp20
 70
     1
102
RTVSPropertyOp21
 70
     1
102
RTVSPropertyOp22
 70
     1
102
RTVSPropertyOp23
 70
     1
102
RTVSPropertyOp24
 70
     1
102
RTVSPropertyOp25
 70
     1
102
RTVSPropertyOp26
 70
     1
102
RTVSPropertyOp27
 70
     1
102
RTVSPropertyOp28
 70
     1
102
RTVSPropertyOp29
 70
     1
102
RTVSPropertyOp30
 70
     1
102
RTVSPropertyOp31
 70
     1
102
RTVSPropertyOp32
 70
     1
  0
XRECORD
  5
6FD
102
{ACAD_REACTORS
330
6FC
102
}
330
6FC
100
AcDbXrecord
280
     1
102
RTVSPropertyOp0
 70
     1
102
RTVSPropertyOp1
 70
     1
102
RTVSPropertyOp2
 70
     1
102
RTVSPropertyOp3
 70
     1
102
RTVSPropertyOp4
 70
     1
102
RTVSPropertyOp5
 70
     1
102
RTVSPropertyOp6
 70
     1
102
RTVSPropertyOp7
 70
     1
102
RTVSPropertyOp8
 70
     1
102
RTVSPropertyOp9
 70
     1
102
RTVSPropertyOp10
 70
     1
102
RTVSPropertyOp11
 70
     1
102
RTVSPropertyOp12
 70
     1
102
RTVSPropertyOp13
 70
     1
102
RTVSPropertyOp14
 70
     1
102
RTVSPropertyOp15
 70
     1
102
RTVSPropertyOp16
 70
     1
102
RTVSPropertyOp17
 70
     1
102
RTVSPropertyOp18
 70
     1
102
RTVSPropertyOp19
 70
     1
102
RTVSPropertyOp20
 70
     1
102
RTVSPropertyOp21
 70
     1
102
RTVSPropertyOp22
 70
     1
102
RTVSPropertyOp23
 70
     1
102
RTVSPropertyOp24
 70
     1
102
RTVSPropertyOp25
 70
     1
102
RTVSPropertyOp26
 70
     1
102
RTVSPropertyOp27
 70
     1
102
RTVSPropertyOp28
 70
     1
102
RTVSPropertyOp29
 70
     1
102
RTVSPropertyOp30
 70
     1
102
RTVSPropertyOp31
 70
     1
102
RTVSPropertyOp32
 70
     1
  0
XRECORD
  5
6FB
102
{ACAD_REACTORS
330
6FA
102
}
330
6FA
100
AcDbXrecord
280
     1
102
RTVSPropertyOp0
 70
     1
102
RTVSPropertyOp1
 70
     1
102
RTVSPropertyOp2
 70
     1
102
RTVSPropertyOp3
 70
     1
102
RTVSPropertyOp4
 70
     1
102
RTVSPropertyOp5
 70
     1
102
RTVSPropertyOp6
 70
     1
102
RTVSPropertyOp7
 70
     1
102
RTVSPropertyOp8
 70
     1
102
RTVSPropertyOp9
 70
     1
102
RTVSPropertyOp10
 70
     1
102
RTVSPropertyOp11
 70
     1
102
RTVSPropertyOp12
 70
     1
102
RTVSPropertyOp13
 70
     1
102
RTVSPropertyOp14
 70
     1
102
RTVSPropertyOp15
 70
     1
102
RTVSPropertyOp16
 70
     1
102
RTVSPropertyOp17
 70
     1
102
RTVSPropertyOp18
 70
     1
102
RTVSPropertyOp19
 70
     1
102
RTVSPropertyOp20
 70
     1
102
RTVSPropertyOp21
 70
     1
102
RTVSPropertyOp22
 70
     1
102
RTVSPropertyOp23
 70
     1
102
RTVSPropertyOp24
 70
     1
102
RTVSPropertyOp25
 70
     1
102
RTVSPropertyOp26
 70
     1
102
RTVSPropertyOp27
 70
     1
102
RTVSPropertyOp28
 70
     1
102
RTVSPropertyOp29
 70
     1
102
RTVSPropertyOp30
 70
     1
102
RTVSPropertyOp31
 70
     1
102
RTVSPropertyOp32
 70
     1
  0
XRECORD
  5
6FF
102
{ACAD_REACTORS
330
6FE
102
}
330
6FE
100
AcDbXrecord
280
     1
102
RTVSPropertyOp0
 70
     1
102
RTVSPropertyOp1
 70
     1
102
RTVSPropertyOp2
 70
     1
102
RTVSPropertyOp3
 70
     1
102
RTVSPropertyOp4
 70
     1
102
RTVSPropertyOp5
 70
     1
102
RTVSPropertyOp6
 70
     1
102
RTVSPropertyOp7
 70
     1
102
RTVSPropertyOp8
 70
     1
102
RTVSPropertyOp9
 70
     1
102
RTVSPropertyOp10
 70
     1
102
RTVSPropertyOp11
 70
     1
102
RTVSPropertyOp12
 70
     1
102
RTVSPropertyOp13
 70
     1
102
RTVSPropertyOp14
 70
     1
102
RTVSPropertyOp15
 70
     1
102
RTVSPropertyOp16
 70
     1
102
RTVSPropertyOp17
 70
     1
102
RTVSPropertyOp18
 70
     1
102
RTVSPropertyOp19
 70
     1
102
RTVSPropertyOp20
 70
     1
102
RTVSPropertyOp21
 70
     1
102
RTVSPropertyOp22
 70
     1
102
RTVSPropertyOp23
 70
     1
102
RTVSPropertyOp24
 70
     1
102
RTVSPropertyOp25
 70
     1
102
RTVSPropertyOp26
 70
     1
102
RTVSPropertyOp27
 70
     1
102
RTVSPropertyOp28
 70
     1
102
RTVSPropertyOp29
 70
     1
102
RTVSPropertyOp30
 70
     1
102
RTVSPropertyOp31
 70
     1
102
RTVSPropertyOp32
 70
     1
  0
XRECORD
  5
707
102
{ACAD_REACTORS
330
706
102
}
330
706
100
AcDbXrecord
280
     1
102
RTVSPropertyOp0
 70
     1
102
RTVSPropertyOp1
 70
     1
102
RTVSPropertyOp2
 70
     1
102
RTVSPropertyOp3
 70
     1
102
RTVSPropertyOp4
 70
     1
102
RTVSPropertyOp5
 70
     1
102
RTVSPropertyOp6
 70
     1
102
RTVSPropertyOp7
 70
     1
102
RTVSPropertyOp8
 70
     1
102
RTVSPropertyOp9
 70
     1
102
RTVSPropertyOp10
 70
     1
102
RTVSPropertyOp11
 70
     1
102
RTVSPropertyOp12
 70
     1
102
RTVSPropertyOp13
 70
     1
102
RTVSPropertyOp14
 70
     1
102
RTVSPropertyOp15
 70
     1
102
RTVSPropertyOp16
 70
     1
102
RTVSPropertyOp17
 70
     1
102
RTVSPropertyOp18
 70
     1
102
RTVSPropertyOp19
 70
     1
102
RTVSPropertyOp20
 70
     1
102
RTVSPropertyOp21
 70
     1
102
RTVSPropertyOp22
 70
     1
102
RTVSPropertyOp23
 70
     1
102
RTVSPropertyOp24
 70
     1
102
RTVSPropertyOp25
 70
     1
102
RTVSPropertyOp26
 70
     1
102
RTVSPropertyOp27
 70
     1
102
RTVSPropertyOp28
 70
     1
102
RTVSPropertyOp29
 70
     1
102
RTVSPropertyOp30
 70
     1
102
RTVSPropertyOp31
 70
     1
102
RTVSPropertyOp32
 70
     1
  0
XRECORD
  5
70F
102
{ACAD_REACTORS
330
70E
102
}
330
70E
100
AcDbXrecord
280
     1
102
RTVSPropertyOp0
 70
     1
102
RTVSPropertyOp1
 70
     1
102
RTVSPropertyOp2
 70
     1
102
RTVSPropertyOp3
 70
     1
102
RTVSPropertyOp4
 70
     1
102
RTVSPropertyOp5
 70
     1
102
RTVSPropertyOp6
 70
     1
102
RTVSPropertyOp7
 70
     1
102
RTVSPropertyOp8
 70
     1
102
RTVSPropertyOp9
 70
     1
102
RTVSPropertyOp10
 70
     1
102
RTVSPropertyOp11
 70
     1
102
RTVSPropertyOp12
 70
     1
102
RTVSPropertyOp13
 70
     1
102
RTVSPropertyOp14
 70
     1
102
RTVSPropertyOp15
 70
     1
102
RTVSPropertyOp16
 70
     1
102
RTVSPropertyOp17
 70
     1
102
RTVSPropertyOp18
 70
     1
102
RTVSPropertyOp19
 70
     1
102
RTVSPropertyOp20
 70
     1
102
RTVSPropertyOp21
 70
     1
102
RTVSPropertyOp22
 70
     1
102
RTVSPropertyOp23
 70
     1
102
RTVSPropertyOp24
 70
     1
102
RTVSPropertyOp25
 70
     1
102
RTVSPropertyOp26
 70
     1
102
RTVSPropertyOp27
 70
     1
102
RTVSPropertyOp28
 70
     1
102
RTVSPropertyOp29
 70
     1
102
RTVSPropertyOp30
 70
     1
102
RTVSPropertyOp31
 70
     1
102
RTVSPropertyOp32
 70
     1
  0
XRECORD
  5
703
102
{ACAD_REACTORS
330
702
102
}
330
702
100
AcDbXrecord
280
     1
102
RTVSPropertyOp0
 70
     1
102
RTVSPropertyOp1
 70
     1
102
RTVSPropertyOp2
 70
     1
102
RTVSPropertyOp3
 70
     1
102
RTVSPropertyOp4
 70
     1
102
RTVSPropertyOp5
 70
     1
102
RTVSPropertyOp6
 70
     1
102
RTVSPropertyOp7
 70
     1
102
RTVSPropertyOp8
 70
     1
102
RTVSPropertyOp9
 70
     1
102
RTVSPropertyOp10
 70
     1
102
RTVSPropertyOp11
 70
     1
102
RTVSPropertyOp12
 70
     1
102
RTVSPropertyOp13
 70
     1
102
RTVSPropertyOp14
 70
     1
102
RTVSPropertyOp15
 70
     1
102
RTVSPropertyOp16
 70
     1
102
RTVSPropertyOp17
 70
     1
102
RTVSPropertyOp18
 70
     1
102
RTVSPropertyOp19
 70
     1
102
RTVSPropertyOp20
 70
     1
102
RTVSPropertyOp21
 70
     1
102
RTVSPropertyOp22
 70
     1
102
RTVSPropertyOp23
 70
     1
102
RTVSPropertyOp24
 70
     1
102
RTVSPropertyOp25
 70
     1
102
RTVSPropertyOp26
 70
     1
102
RTVSPropertyOp27
 70
     1
102
RTVSPropertyOp28
 70
     1
102
RTVSPropertyOp29
 70
     1
102
RTVSPropertyOp30
 70
     1
102
RTVSPropertyOp31
 70
     1
102
RTVSPropertyOp32
 70
     1
  0
XRECORD
  5
705
102
{ACAD_REACTORS
330
704
102
}
330
704
100
AcDbXrecord
280
     1
102
RTVSPropertyOp0
 70
     1
102
RTVSPropertyOp1
 70
     1
102
RTVSPropertyOp2
 70
     1
102
RTVSPropertyOp3
 70
     1
102
RTVSPropertyOp4
 70
     1
102
RTVSPropertyOp5
 70
     1
102
RTVSPropertyOp6
 70
     1
102
RTVSPropertyOp7
 70
     1
102
RTVSPropertyOp8
 70
     1
102
RTVSPropertyOp9
 70
     1
102
RTVSPropertyOp10
 70
     1
102
RTVSPropertyOp11
 70
     1
102
RTVSPropertyOp12
 70
     1
102
RTVSPropertyOp13
 70
     1
102
RTVSPropertyOp14
 70
     1
102
RTVSPropertyOp15
 70
     1
102
RTVSPropertyOp16
 70
     1
102
RTVSPropertyOp17
 70
     1
102
RTVSPropertyOp18
 70
     1
102
RTVSPropertyOp19
 70
     1
102
RTVSPropertyOp20
 70
     1
102
RTVSPropertyOp21
 70
     1
102
RTVSPropertyOp22
 70
     1
102
RTVSPropertyOp23
 70
     1
102
RTVSPropertyOp24
 70
     1
102
RTVSPropertyOp25
 70
     1
102
RTVSPropertyOp26
 70
     1
102
RTVSPropertyOp27
 70
     1
102
RTVSPropertyOp28
 70
     1
102
RTVSPropertyOp29
 70
     1
102
RTVSPropertyOp30
 70
     1
102
RTVSPropertyOp31
 70
     1
102
RTVSPropertyOp32
 70
     1
  0
XRECORD
  5
70D
102
{ACAD_REACTORS
330
70C
102
}
330
70C
100
AcDbXrecord
280
     1
102
RTVSPropertyOp0
 70
     1
102
RTVSPropertyOp1
 70
     1
102
RTVSPropertyOp2
 70
     1
102
RTVSPropertyOp3
 70
     1
102
RTVSPropertyOp4
 70
     1
102
RTVSPropertyOp5
 70
     1
102
RTVSPropertyOp6
 70
     1
102
RTVSPropertyOp7
 70
     1
102
RTVSPropertyOp8
 70
     1
102
RTVSPropertyOp9
 70
     1
102
RTVSPropertyOp10
 70
     1
102
RTVSPropertyOp11
 70
     1
102
RTVSPropertyOp12
 70
     1
102
RTVSPropertyOp13
 70
     1
102
RTVSPropertyOp14
 70
     1
102
RTVSPropertyOp15
 70
     1
102
RTVSPropertyOp16
 70
     1
102
RTVSPropertyOp17
 70
     1
102
RTVSPropertyOp18
 70
     1
102
RTVSPropertyOp19
 70
     1
102
RTVSPropertyOp20
 70
     1
102
RTVSPropertyOp21
 70
     1
102
RTVSPropertyOp22
 70
     1
102
RTVSPropertyOp23
 70
     1
102
RTVSPropertyOp24
 70
     1
102
RTVSPropertyOp25
 70
     1
102
RTVSPropertyOp26
 70
     1
102
RTVSPropertyOp27
 70
     1
102
RTVSPropertyOp28
 70
     1
102
RTVSPropertyOp29
 70
     1
102
RTVSPropertyOp30
 70
     1
102
RTVSPropertyOp31
 70
     1
102
RTVSPropertyOp32
 70
     1
  0
XRECORD
  5
6F1
102
{ACAD_REACTORS
330
6F0
102
}
330
6F0
100
AcDbXrecord
280
     1
102
RTVSPropertyOp0
 70
     1
102
RTVSPropertyOp1
 70
     1
102
RTVSPropertyOp2
 70
     1
102
RTVSPropertyOp3
 70
     1
102
RTVSPropertyOp4
 70
     1
102
RTVSPropertyOp5
 70
     1
102
RTVSPropertyOp6
 70
     1
102
RTVSPropertyOp7
 70
     1
102
RTVSPropertyOp8
 70
     1
102
RTVSPropertyOp9
 70
     1
102
RTVSPropertyOp10
 70
     1
102
RTVSPropertyOp11
 70
     1
102
RTVSPropertyOp12
 70
     1
102
RTVSPropertyOp13
 70
     1
102
RTVSPropertyOp14
 70
     1
102
RTVSPropertyOp15
 70
     1
102
RTVSPropertyOp16
 70
     1
102
RTVSPropertyOp17
 70
     1
102
RTVSPropertyOp18
 70
     1
102
RTVSPropertyOp19
 70
     1
102
RTVSPropertyOp20
 70
     1
102
RTVSPropertyOp21
 70
     1
102
RTVSPropertyOp22
 70
     1
102
RTVSPropertyOp23
 70
     1
102
RTVSPropertyOp24
 70
     1
102
RTVSPropertyOp25
 70
     1
102
RTVSPropertyOp26
 70
     1
102
RTVSPropertyOp27
 70
     1
102
RTVSPropertyOp28
 70
     1
102
RTVSPropertyOp29
 70
     1
102
RTVSPropertyOp30
 70
     1
102
RTVSPropertyOp31
 70
     1
102
RTVSPropertyOp32
 70
     1
  0
XRECORD
  5
6F3
102
{ACAD_REACTORS
330
6F2
102
}
330
6F2
100
AcDbXrecord
280
     1
102
RTVSPropertyOp0
 70
     1
102
RTVSPropertyOp1
 70
     1
102
RTVSPropertyOp2
 70
     1
102
RTVSPropertyOp3
 70
     1
102
RTVSPropertyOp4
 70
     1
102
RTVSPropertyOp5
 70
     1
102
RTVSPropertyOp6
 70
     1
102
RTVSPropertyOp7
 70
     1
102
RTVSPropertyOp8
 70
     1
102
RTVSPropertyOp9
 70
     1
102
RTVSPropertyOp10
 70
     1
102
RTVSPropertyOp11
 70
     1
102
RTVSPropertyOp12
 70
     1
102
RTVSPropertyOp13
 70
     1
102
RTVSPropertyOp14
 70
     1
102
RTVSPropertyOp15
 70
     1
102
RTVSPropertyOp16
 70
     1
102
RTVSPropertyOp17
 70
     1
102
RTVSPropertyOp18
 70
     1
102
RTVSPropertyOp19
 70
     1
102
RTVSPropertyOp20
 70
     1
102
RTVSPropertyOp21
 70
     1
102
RTVSPropertyOp22
 70
     1
102
RTVSPropertyOp23
 70
     1
102
RTVSPropertyOp24
 70
     1
102
RTVSPropertyOp25
 70
     1
102
RTVSPropertyOp26
 70
     1
102
RTVSPropertyOp27
 70
     1
102
RTVSPropertyOp28
 70
     1
102
RTVSPropertyOp29
 70
     1
102
RTVSPropertyOp30
 70
     1
102
RTVSPropertyOp31
 70
     1
102
RTVSPropertyOp32
 70
     1
  0
XRECORD
  5
6F5
102
{ACAD_REACTORS
330
6F4
102
}
330
6F4
100
AcDbXrecord
280
     1
102
RTVSPropertyOp0
 70
     1
102
RTVSPropertyOp1
 70
     1
102
RTVSPropertyOp2
 70
     1
102
RTVSPropertyOp3
 70
     1
102
RTVSPropertyOp4
 70
     1
102
RTVSPropertyOp5
 70
     1
102
RTVSPropertyOp6
 70
     1
102
RTVSPropertyOp7
 70
     1
102
RTVSPropertyOp8
 70
     1
102
RTVSPropertyOp9
 70
     1
102
RTVSPropertyOp10
 70
     1
102
RTVSPropertyOp11
 70
     1
102
RTVSPropertyOp12
 70
     1
102
RTVSPropertyOp13
 70
     1
102
RTVSPropertyOp14
 70
     1
102
RTVSPropertyOp15
 70
     1
102
RTVSPropertyOp16
 70
     1
102
RTVSPropertyOp17
 70
     1
102
RTVSPropertyOp18
 70
     1
102
RTVSPropertyOp19
 70
     1
102
RTVSPropertyOp20
 70
     1
102
RTVSPropertyOp21
 70
     1
102
RTVSPropertyOp22
 70
     1
102
RTVSPropertyOp23
 70
     1
102
RTVSPropertyOp24
 70
     1
102
RTVSPropertyOp25
 70
     1
102
RTVSPropertyOp26
 70
     1
102
RTVSPropertyOp27
 70
     1
102
RTVSPropertyOp28
 70
     1
102
RTVSPropertyOp29
 70
     1
102
RTVSPropertyOp30
 70
     1
102
RTVSPropertyOp31
 70
     1
102
RTVSPropertyOp32
 70
     1
  0
XRECORD
  5
6F7
102
{ACAD_REACTORS
330
6F6
102
}
330
6F6
100
AcDbXrecord
280
     1
102
RTVSPropertyOp0
 70
     1
102
RTVSPropertyOp1
 70
     1
102
RTVSPropertyOp2
 70
     1
102
RTVSPropertyOp3
 70
     1
102
RTVSPropertyOp4
 70
     1
102
RTVSPropertyOp5
 70
     1
102
RTVSPropertyOp6
 70
     1
102
RTVSPropertyOp7
 70
     1
102
RTVSPropertyOp8
 70
     1
102
RTVSPropertyOp9
 70
     1
102
RTVSPropertyOp10
 70
     1
102
RTVSPropertyOp11
 70
     1
102
RTVSPropertyOp12
 70
     1
102
RTVSPropertyOp13
 70
     1
102
RTVSPropertyOp14
 70
     1
102
RTVSPropertyOp15
 70
     1
102
RTVSPropertyOp16
 70
     1
102
RTVSPropertyOp17
 70
     1
102
RTVSPropertyOp18
 70
     1
102
RTVSPropertyOp19
 70
     1
102
RTVSPropertyOp20
 70
     1
102
RTVSPropertyOp21
 70
     1
102
RTVSPropertyOp22
 70
     1
102
RTVSPropertyOp23
 70
     1
102
RTVSPropertyOp24
 70
     1
102
RTVSPropertyOp25
 70
     1
102
RTVSPropertyOp26
 70
     1
102
RTVSPropertyOp27
 70
     1
102
RTVSPropertyOp28
 70
     1
102
RTVSPropertyOp29
 70
     1
102
RTVSPropertyOp30
 70
     1
102
RTVSPropertyOp31
 70
     1
102
RTVSPropertyOp32
 70
     1
  0
XRECORD
  5
70B
102
{ACAD_REACTORS
330
70A
102
}
330
70A
100
AcDbXrecord
280
     1
102
RTVSPropertyOp0
 70
     1
102
RTVSPropertyOp1
 70
     1
102
RTVSPropertyOp2
 70
     1
102
RTVSPropertyOp3
 70
     1
102
RTVSPropertyOp4
 70
     1
102
RTVSPropertyOp5
 70
     1
102
RTVSPropertyOp6
 70
     1
102
RTVSPropertyOp7
 70
     1
102
RTVSPropertyOp8
 70
     1
102
RTVSPropertyOp9
 70
     1
102
RTVSPropertyOp10
 70
     1
102
RTVSPropertyOp11
 70
     1
102
RTVSPropertyOp12
 70
     1
102
RTVSPropertyOp13
 70
     1
102
RTVSPropertyOp14
 70
     1
102
RTVSPropertyOp15
 70
     1
102
RTVSPropertyOp16
 70
     1
102
RTVSPropertyOp17
 70
     1
102
RTVSPropertyOp18
 70
     1
102
RTVSPropertyOp19
 70
     1
102
RTVSPropertyOp20
 70
     1
102
RTVSPropertyOp21
 70
     1
102
RTVSPropertyOp22
 70
     1
102
RTVSPropertyOp23
 70
     1
102
RTVSPropertyOp24
 70
     1
102
RTVSPropertyOp25
 70
     1
102
RTVSPropertyOp26
 70
     1
102
RTVSPropertyOp27
 70
     1
102
RTVSPropertyOp28
 70
     1
102
RTVSPropertyOp29
 70
     1
102
RTVSPropertyOp30
 70
     1
102
RTVSPropertyOp31
 70
     1
102
RTVSPropertyOp32
 70
     1
  0
XRECORD
  5
701
102
{ACAD_REACTORS
330
700
102
}
330
700
100
AcDbXrecord
280
     1
102
RTVSPropertyOp0
 70
     1
102
RTVSPropertyOp1
 70
     1
102
RTVSPropertyOp2
 70
     1
102
RTVSPropertyOp3
 70
     1
102
RTVSPropertyOp4
 70
     1
102
RTVSPropertyOp5
 70
     1
102
RTVSPropertyOp6
 70
     1
102
RTVSPropertyOp7
 70
     1
102
RTVSPropertyOp8
 70
     1
102
RTVSPropertyOp9
 70
     1
102
RTVSPropertyOp10
 70
     1
102
RTVSPropertyOp11
 70
     1
102
RTVSPropertyOp12
 70
     1
102
RTVSPropertyOp13
 70
     1
102
RTVSPropertyOp14
 70
     1
102
RTVSPropertyOp15
 70
     1
102
RTVSPropertyOp16
 70
     1
102
RTVSPropertyOp17
 70
     1
102
RTVSPropertyOp18
 70
     1
102
RTVSPropertyOp19
 70
     1
102
RTVSPropertyOp20
 70
     1
102
RTVSPropertyOp21
 70
     1
102
RTVSPropertyOp22
 70
     1
102
RTVSPropertyOp23
 70
     1
102
RTVSPropertyOp24
 70
     1
102
RTVSPropertyOp25
 70
     1
102
RTVSPropertyOp26
 70
     1
102
RTVSPropertyOp27
 70
     1
102
RTVSPropertyOp28
 70
     1
102
RTVSPropertyOp29
 70
     1
102
RTVSPropertyOp30
 70
     1
102
RTVSPropertyOp31
 70
     1
102
RTVSPropertyOp32
 70
     1
  0
XRECORD
  5
709
102
{ACAD_REACTORS
330
708
102
}
330
708
100
AcDbXrecord
280
     1
102
RTVSPropertyOp0
 70
     1
102
RTVSPropertyOp1
 70
     1
102
RTVSPropertyOp2
 70
     1
102
RTVSPropertyOp3
 70
     1
102
RTVSPropertyOp4
 70
     1
102
RTVSPropertyOp5
 70
     1
102
RTVSPropertyOp6
 70
     1
102
RTVSPropertyOp7
 70
     1
102
RTVSPropertyOp8
 70
     1
102
RTVSPropertyOp9
 70
     1
102
RTVSPropertyOp10
 70
     1
102
RTVSPropertyOp11
 70
     1
102
RTVSPropertyOp12
 70
     1
102
RTVSPropertyOp13
 70
     1
102
RTVSPropertyOp14
 70
     1
102
RTVSPropertyOp15
 70
     1
102
RTVSPropertyOp16
 70
     1
102
RTVSPropertyOp17
 70
     1
102
RTVSPropertyOp18
 70
     1
102
RTVSPropertyOp19
 70
     1
102
RTVSPropertyOp20
 70
     1
102
RTVSPropertyOp21
 70
     1
102
RTVSPropertyOp22
 70
     1
102
RTVSPropertyOp23
 70
     1
102
RTVSPropertyOp24
 70
     1
102
RTVSPropertyOp25
 70
     1
102
RTVSPropertyOp26
 70
     1
102
RTVSPropertyOp27
 70
     1
102
RTVSPropertyOp28
 70
     1
102
RTVSPropertyOp29
 70
     1
102
RTVSPropertyOp30
 70
     1
102
RTVSPropertyOp31
 70
     1
102
RTVSPropertyOp32
 70
     1
  0
ENDSEC
  0
EOF
