  0
SECTION
  2
HEADER
  9
$ACADVER
  1
AC1009
  9
$DWGCODEPAGE
  3
ansi_1252
  9
$INSBASE
 10
0.0
 20
0.0
 30
0.0
  9
$EXTMIN
 10
1.000000000000000E+20
 20
1.000000000000000E+20
 30
1.000000000000000E+20
  9
$EXTMAX
 10
-1.000000000000000E+20
 20
-1.000000000000000E+20
 30
-1.000000000000000E+20
  9
$LIMMIN
 10
0.0
 20
0.0
  9
$LIMMAX
 10
12.0
 20
9.0
  9
$ORTHOMODE
 70
     0
  9
$REGENMODE
 70
     1
  9
$FILLMODE
 70
     1
  9
$QTEXTMODE
 70
     0
  9
$MIRRTEXT
 70
     1
  9
$DRAGMODE
 70
     2
  9
$LTSCALE
 40
1.0
  9
$OSMODE
 70
    37
  9
$ATTMODE
 70
     1
  9
$TEXTSIZE
 40
0.2
  9
$TRACEWID
 40
0.05
  9
$TEXTSTYLE
  7
STANDARD
  9
$CLAYER
  8
DEFAULT
  9
$CELTYPE
  6
BYLAYER
  9
$CECOLOR
 62
   256
  9
$DIMSCALE
 40
1.0
  9
$DIMASZ
 40
0.18
  9
$DIMEXO
 40
0.0625
  9
$DIMDLI
 40
0.38
  9
$DIMRND
 40
0.0
  9
$DIMDLE
 40
0.0
  9
$DIMEXE
 40
0.18
  9
$DIMTP
 40
0.0
  9
$DIMTM
 40
0.0
  9
$DIMTXT
 40
0.18
  9
$DIMCEN
 40
0.09
  9
$DIMTSZ
 40
0.0
  9
$DIMTOL
 70
     0
  9
$DIMLIM
 70
     0
  9
$DIMTIH
 70
     1
  9
$DIMTOH
 70
     1
  9
$DIMSE1
 70
     0
  9
$DIMSE2
 70
     0
  9
$DIMTAD
 70
     0
  9
$DIMZIN
 70
     0
  9
$DIMBLK
  1

  9
$DIMASO
 70
     1
  9
$DIMSHO
 70
     1
  9
$DIMPOST
  1

  9
$DIMAPOST
  1

  9
$DIMALT
 70
     0
  9
$DIMALTD
 70
     2
  9
$DIMALTF
 40
25.4
  9
$DIMLFAC
 40
1.0
  9
$DIMTOFL
 70
     0
  9
$DIMTVP
 40
0.0
  9
$DIMTIX
 70
     0
  9
$DIMSOXD
 70
     0
  9
$DIMSAH
 70
     0
  9
$DIMBLK1
  1

  9
$DIMBLK2
  1

  9
$DIMSTYLE
  2
STANDARD_ACAD
  9
$DIMCLRD
 70
     0
  9
$DIMCLRE
 70
     0
  9
$DIMCLRT
 70
     0
  9
$DIMTFAC
 40
1.0
  9
$DIMGAP
 40
0.09
  9
$LUNITS
 70
     2
  9
$LUPREC
 70
     3
  9
$SKETCHINC
 40
0.1
  9
$FILLETRAD
 40
0.5
  9
$AUNITS
 70
     0
  9
$AUPREC
 70
     0
  9
$MENU
  1
.
  9
$ELEVATION
 40
0.0
  9
$PELEVATION
 40
0.0
  9
$THICKNESS
 40
0.0
  9
$LIMCHECK
 70
     0
  9
$CHAMFERA
 40
0.0
  9
$CHAMFERB
 40
0.0
  9
$SKPOLY
 70
     0
  9
$TDCREATE
 40
2459388.670647026
  9
$TDUPDATE
 40
2459388.67067022
  9
$TDINDWG
 40
0.0000000116
  9
$TDUSRTIMER
 40
0.0000000116
  9
$USRTIMER
 70
     1
  9
$ANGBASE
 50
0.0
  9
$ANGDIR
 70
     0
  9
$PDMODE
 70
     0
  9
$PDSIZE
 40
0.0
  9
$PLINEWID
 40
0.0
  9
$COORDS
 70
     1
  9
$SPLFRAME
 70
     0
  9
$SPLINETYPE
 70
     6
  9
$SPLINESEGS
 70
     8
  9
$ATTDIA
 70
     0
  9
$ATTREQ
 70
     1
  9
$HANDLING
 70
     1
  9
$HANDSEED
  5
246
  9
$SURFTAB1
 70
     6
  9
$SURFTAB2
 70
     6
  9
$SURFTYPE
 70
     6
  9
$SURFU
 70
     6
  9
$SURFV
 70
     6
  9
$UCSNAME
  2

  9
$UCSORG
 10
0.0
 20
0.0
 30
0.0
  9
$UCSXDIR
 10
1.0
 20
0.0
 30
0.0
  9
$UCSYDIR
 10
0.0
 20
1.0
 30
0.0
  9
$PUCSNAME
  2

  9
$PUCSORG
 10
0.0
 20
0.0
 30
0.0
  9
$PUCSXDIR
 10
1.0
 20
0.0
 30
0.0
  9
$PUCSYDIR
 10
0.0
 20
1.0
 30
0.0
  9
$USERI1
 70
     0
  9
$USERI2
 70
     0
  9
$USERI3
 70
     0
  9
$USERI4
 70
     0
  9
$USERI5
 70
     0
  9
$USERR1
 40
0.0
  9
$USERR2
 40
0.0
  9
$USERR3
 40
0.0
  9
$USERR4
 40
0.0
  9
$USERR5
 40
0.0
  9
$WORLDVIEW
 70
     1
  9
$SHADEDGE
 70
     3
  9
$SHADEDIF
 70
    70
  9
$TILEMODE
 70
     1
  9
$MAXACTVP
 70
    64
  9
$PLIMCHECK
 70
     0
  9
$PEXTMIN
 10
1.000000000000000E+20
 20
1.000000000000000E+20
 30
1.000000000000000E+20
  9
$PEXTMAX
 10
-1.000000000000000E+20
 20
-1.000000000000000E+20
 30
-1.000000000000000E+20
  9
$PLIMMIN
 10
0.0
 20
0.0
  9
$PLIMMAX
 10
12.0
 20
9.0
  9
$UNITMODE
 70
     0
  9
$VISRETAIN
 70
     1
  9
$PLINEGEN
 70
     0
  9
$PSLTSCALE
 70
     1
  0
ENDSEC
  0
SECTION
  2
TABLES
  0
TABLE
  2
VPORT
 70
     1
  0
VPORT
  2
*ACTIVE
 70
     0
 10
0.0
 20
0.0
 11
1.0
 21
1.0
 12
10.42990654205607
 22
4.5
 13
0.0
 23
0.0
 14
0.5
 24
0.5
 15
0.5
 25
0.5
 16
0.0
 26
0.0
 36
1.0
 17
0.0
 27
0.0
 37
0.0
 40
9.0
 41
1.972972972850329
 42
50.0
 43
0.0
 44
0.0
 50
0.0
 51
0.0
 71
     0
 72
   100
 73
     1
 74
     3
 75
     0
 76
     0
 77
     0
 78
     0
  0
ENDTAB
  0
TABLE
  2
LTYPE
 70
     1
  0
LTYPE
  2
CONTINUOUS
 70
     0
  3
Solid line
 72
    65
 73
     0
 40
0.0
  0
ENDTAB
  0
TABLE
  2
LAYER
 70
     4
  0
LAYER
  2
0
 70
     0
 62
     7
  6
CONTINUOUS
  0
LAYER
  2
TESTS
 70
     0
 62
    96
  6
CONTINUOUS
  0
LAYER
  2
DEFAULT
 70
     0
 62
     7
  6
CONTINUOUS
  0
LAYER
  2
DEFPOINTS
 70
     0
 62
     7
  6
CONTINUOUS
  0
ENDTAB
  0
TABLE
  2
STYLE
 70
     2
  0
STYLE
  2
STANDARD
 70
     0
 40
0.0
 41
1.0
 50
0.0
 71
     0
 42
0.2
  3
txt
  4

  0
STYLE
  2
HELVETICA_NEUE_REGULAR
 70
     0
 40
0.0
 41
1.0
 50
0.0
 71
     0
 42
0.2
  3

  4

  0
ENDTAB
  0
TABLE
  2
VIEW
 70
     0
  0
ENDTAB
  0
TABLE
  2
UCS
 70
     0
  0
ENDTAB
  0
TABLE
  2
APPID
 70
     3
  0
APPID
  2
ACAD
 70
     0
  0
APPID
  2
RHINO
 70
     0
  0
APPID
  2
ACADANNOTATIVE
 70
     0
  0
ENDTAB
  0
TABLE
  2
DIMSTYLE
 70
     2
  0
DIMSTYLE
  2
STANDARD_ACAD
 70
     0
  3

  4

  5

  6

  7

 40
1.0
 41
0.18
 42
0.0625
 43
0.38
 44
0.18
 45
0.0
 46
0.0
 47
0.0
 48
0.0
140
0.18
141
0.09
142
0.0
143
25.4
144
1.0
145
0.0
146
1.0
147
0.09
 71
     0
 72
     0
 73
     1
 74
     1
 75
     0
 76
     0
 77
     0
 78
     0
170
     0
171
     2
172
     0
173
     0
174
     0
175
     0
176
     0
177
     0
178
     0
  0
DIMSTYLE
  2
DEFAULT
 70
     0
  3

  4

  5

  6

  7

 40
1.0
 41
1.0
 42
0.5
 43
0.38
 44
0.5
 45
0.0
 46
0.0
 47
0.0
 48
0.0
140
1.0
141
0.5
142
0.0
143
1.0
144
1.0
145
0.0
146
1.0
147
0.25
 71
     0
 72
     0
 73
     0
 74
     1
 75
     0
 76
     0
 77
     1
 78
     1
170
     0
171
     2
172
     0
173
     0
174
     1
175
     0
176
     0
177
     0
178
     0
  0
ENDTAB
  0
ENDSEC
  0
SECTION
  2
BLOCKS
  0
BLOCK
  8
0
  2
$MODEL_SPACE
 70
     0
 10
0.0
 20
0.0
 30
0.0
  3
$MODEL_SPACE
  1

  0
ENDBLK
  5
21
  8
0
  0
BLOCK
 67
     1
  8
0
  2
$PAPER_SPACE
 70
     0
 10
0.0
 20
0.0
 30
0.0
  3
$PAPER_SPACE
  1

  0
ENDBLK
  5
1D
 67
     1
  8
0
  0
BLOCK
  8
0
  2
*D1
 70
     1
 10
0.0
 20
0.0
 30
0.0
  3
*D1
  1

  0
LINE
  5
1F2
  8
DEFAULT
 62
     0
 10
929.0249966556398
 20
542.4997054247597
 30
0.0
 11
909.3421238459338
 21
542.4997054247597
 31
0.0
  0
LINE
  5
1F3
  8
DEFAULT
 62
     0
 10
935.0249966556398
 20
567.4997054247597
 30
0.0
 11
909.3421238459338
 21
567.4997054247597
 31
0.0
  0
LINE
  5
1F4
  8
DEFAULT
 62
     0
 10
909.8421238459338
 20
543.4997054247597
 30
0.0
 11
909.8421238459338
 21
566.4997054247597
 31
0.0
  0
SOLID
  5
1F5
  8
DEFAULT
 62
     0
 10
909.6754571792671
 20
543.4997054247597
 30
0.0
 11
910.0087905126004
 21
543.4997054247597
 31
0.0
 12
909.8421238459338
 22
542.4997054247597
 32
0.0
 13
909.8421238459338
 23
542.4997054247597
 33
0.0
  0
SOLID
  5
1F6
  8
DEFAULT
 62
     0
 10
910.0087905126004
 20
566.4997054247597
 30
0.0
 11
909.6754571792671
 21
566.4997054247597
 31
0.0
 12
909.8421238459338
 22
567.4997054247597
 32
0.0
 13
909.8421238459338
 23
567.4997054247597
 33
0.0
  0
TEXT
  5
1F7
  8
DEFAULT
  6
CONTINUOUS
 62
     0
 10
909.5921238459337
 20
546.4282768533311
 30
0.0
 40
4.0
  1
25.00
 50
90.0
  7
HELVETICA_NEUE_REGULAR
1001
ACADANNOTATIVE
1000
AnnotativeData
1002
{
1070
     1
1070
     0
1002
}
  0
POINT
  5
1F8
  8
DEFPOINTS
 62
     0
 10
929.5249966556398
 20
542.4997054247597
 30
0.0
  0
POINT
  5
1F9
  8
DEFPOINTS
 62
     0
 10
935.5249966556398
 20
567.4997054247597
 30
0.0
  0
POINT
  5
1FA
  8
DEFPOINTS
 62
     0
 10
909.8421238459338
 20
567.4997054247597
 30
0.0
  0
ENDBLK
  5
1F1
  8
0
  0
BLOCK
  8
0
  2
*D2
 70
     1
 10
0.0
 20
0.0
 30
0.0
  3
*D2
  1

  0
LINE
  5
1FF
  8
DEFAULT
 62
     0
 10
920.0249966556398
 20
527.4997054247597
 30
0.0
 11
900.7375153066766
 21
527.4997054247597
 31
0.0
  0
LINE
  5
200
  8
DEFAULT
 62
     0
 10
935.0249966556398
 20
567.4997054247597
 30
0.0
 11
900.7375153066766
 21
567.4997054247597
 31
0.0
  0
LINE
  5
201
  8
DEFAULT
 62
     0
 10
901.2375153066766
 20
528.4997054247597
 30
0.0
 11
901.2375153066766
 21
566.4997054247597
 31
0.0
  0
SOLID
  5
202
  8
DEFAULT
 62
     0
 10
901.07084864001
 20
528.4997054247597
 30
0.0
 11
901.4041819733433
 21
528.4997054247597
 31
0.0
 12
901.2375153066766
 22
527.4997054247597
 32
0.0
 13
901.2375153066766
 23
527.4997054247597
 33
0.0
  0
SOLID
  5
203
  8
DEFAULT
 62
     0
 10
901.4041819733433
 20
566.4997054247597
 30
0.0
 11
901.07084864001
 21
566.4997054247597
 31
0.0
 12
901.2375153066766
 22
567.4997054247597
 32
0.0
 13
901.2375153066766
 23
567.4997054247597
 33
0.0
  0
TEXT
  5
204
  8
DEFAULT
  6
CONTINUOUS
 62
     0
 10
900.9875153066766
 20
538.9282768533311
 30
0.0
 40
4.0
  1
40.00
 50
90.0
  7
HELVETICA_NEUE_REGULAR
1001
ACADANNOTATIVE
1000
AnnotativeData
1002
{
1070
     1
1070
     0
1002
}
  0
POINT
  5
205
  8
DEFPOINTS
 62
     0
 10
920.5249966556398
 20
527.4997054247597
 30
0.0
  0
POINT
  5
206
  8
DEFPOINTS
 62
     0
 10
935.5249966556398
 20
567.4997054247597
 30
0.0
  0
POINT
  5
207
  8
DEFPOINTS
 62
     0
 10
901.2375153066766
 20
567.4997054247597
 30
0.0
  0
ENDBLK
  5
1FE
  8
0
  0
BLOCK
  8
0
  2
*D3
 70
     1
 10
0.0
 20
0.0
 30
0.0
  3
*D3
  1

  0
LINE
  5
20C
  8
DEFAULT
 62
     0
 10
920.0249966556398
 20
476.1499545856402
 30
0.0
 11
912.2851790584153
 21
476.1499545856402
 31
0.0
  0
LINE
  5
20D
  8
DEFAULT
 62
     0
 10
935.0249966556398
 20
491.1499545856402
 30
0.0
 11
912.2851790584153
 21
491.1499545856402
 31
0.0
  0
LINE
  5
20E
  8
DEFAULT
 62
     0
 10
912.7851790584153
 20
491.1499545856402
 30
0.0
 11
912.7851790584153
 21
508.0785260142115
 31
0.0
  0
LINE
  5
20F
  8
DEFAULT
 62
     0
 10
912.7851790584153
 20
477.1499545856402
 30
0.0
 11
912.7851790584153
 21
490.1499545856402
 31
0.0
  0
SOLID
  5
210
  8
DEFAULT
 62
     0
 10
912.6185123917487
 20
477.1499545856402
 30
0.0
 11
912.951845725082
 21
477.1499545856402
 31
0.0
 12
912.7851790584153
 22
476.1499545856402
 32
0.0
 13
912.7851790584153
 23
476.1499545856402
 33
0.0
  0
SOLID
  5
211
  8
DEFAULT
 62
     0
 10
912.951845725082
 20
490.1499545856402
 30
0.0
 11
912.6185123917487
 21
490.1499545856402
 31
0.0
 12
912.7851790584153
 22
491.1499545856402
 32
0.0
 13
912.7851790584153
 23
491.1499545856402
 33
0.0
  0
TEXT
  5
212
  8
DEFAULT
  6
CONTINUOUS
 62
     0
 10
912.5351790584155
 20
491.257097442783
 30
0.0
 40
4.0
  1
15.00
 50
90.0
  7
HELVETICA_NEUE_REGULAR
1001
ACADANNOTATIVE
1000
AnnotativeData
1002
{
1070
     1
1070
     0
1002
}
  0
POINT
  5
213
  8
DEFPOINTS
 62
     0
 10
920.5249966556398
 20
476.1499545856402
 30
0.0
  0
POINT
  5
214
  8
DEFPOINTS
 62
     0
 10
935.5249966556398
 20
491.1499545856402
 30
0.0
  0
POINT
  5
215
  8
DEFPOINTS
 62
     0
 10
912.7851790584153
 20
491.1499545856402
 30
0.0
  0
ENDBLK
  5
20B
  8
0
  0
BLOCK
  8
0
  2
*D4
 70
     1
 10
0.0
 20
0.0
 30
0.0
  3
*D4
  1

  0
LINE
  5
21A
  8
DEFAULT
 62
     0
 10
920.0249966556398
 20
451.1499545856402
 30
0.0
 11
902.6717543455902
 21
451.1499545856402
 31
0.0
  0
LINE
  5
21B
  8
DEFAULT
 62
     0
 10
935.0249966556398
 20
491.1499545856402
 30
0.0
 11
902.6717543455902
 21
491.1499545856402
 31
0.0
  0
LINE
  5
21C
  8
DEFAULT
 62
     0
 10
903.1717543455902
 20
452.1499545856402
 30
0.0
 11
903.1717543455902
 21
490.1499545856402
 31
0.0
  0
SOLID
  5
21D
  8
DEFAULT
 62
     0
 10
903.0050876789236
 20
452.1499545856402
 30
0.0
 11
903.3384210122568
 21
452.1499545856402
 31
0.0
 12
903.1717543455902
 22
451.1499545856402
 32
0.0
 13
903.1717543455902
 23
451.1499545856402
 33
0.0
  0
SOLID
  5
21E
  8
DEFAULT
 62
     0
 10
903.3384210122568
 20
490.1499545856402
 30
0.0
 11
903.0050876789236
 21
490.1499545856402
 31
0.0
 12
903.1717543455902
 22
491.1499545856402
 32
0.0
 13
903.1717543455902
 23
491.1499545856402
 33
0.0
  0
TEXT
  5
21F
  8
DEFAULT
  6
CONTINUOUS
 62
     0
 10
902.9217543455902
 20
462.5785260142116
 30
0.0
 40
4.0
  1
40.00
 50
90.0
  7
HELVETICA_NEUE_REGULAR
1001
ACADANNOTATIVE
1000
AnnotativeData
1002
{
1070
     1
1070
     0
1002
}
  0
POINT
  5
220
  8
DEFPOINTS
 62
     0
 10
920.5249966556398
 20
451.1499545856402
 30
0.0
  0
POINT
  5
221
  8
DEFPOINTS
 62
     0
 10
935.5249966556398
 20
491.1499545856402
 30
0.0
  0
POINT
  5
222
  8
DEFPOINTS
 62
     0
 10
903.1717543455902
 20
491.1499545856402
 30
0.0
  0
ENDBLK
  5
219
  8
0
  0
BLOCK
  8
0
  2
*D5
 70
     1
 10
0.0
 20
0.0
 30
0.0
  3
*D5
  1

  0
LINE
  5
227
  8
DEFAULT
 62
     0
 10
929.0249966556398
 20
393.8453393308328
 30
0.0
 11
908.9894371422921
 21
393.8453393308328
 31
0.0
  0
LINE
  5
228
  8
DEFAULT
 62
     0
 10
935.0249966556398
 20
403.8453393308328
 30
0.0
 11
908.9894371422921
 21
403.8453393308328
 31
0.0
  0
LINE
  5
229
  8
DEFAULT
 62
     0
 10
909.4894371422921
 20
403.8453393308328
 30
0.0
 11
909.4894371422921
 21
420.7739107594041
 31
0.0
  0
LINE
  5
22A
  8
DEFAULT
 62
     0
 10
909.4894371422921
 20
394.8453393308328
 30
0.0
 11
909.4894371422921
 21
402.8453393308328
 31
0.0
  0
SOLID
  5
22B
  8
DEFAULT
 62
     0
 10
909.3227704756255
 20
394.8453393308328
 30
0.0
 11
909.6561038089587
 21
394.8453393308328
 31
0.0
 12
909.4894371422921
 22
393.8453393308328
 32
0.0
 13
909.4894371422921
 23
393.8453393308328
 33
0.0
  0
SOLID
  5
22C
  8
DEFAULT
 62
     0
 10
909.6561038089587
 20
402.8453393308328
 30
0.0
 11
909.3227704756255
 21
402.8453393308328
 31
0.0
 12
909.4894371422921
 22
403.8453393308328
 32
0.0
 13
909.4894371422921
 23
403.8453393308328
 33
0.0
  0
TEXT
  5
22D
  8
DEFAULT
  6
CONTINUOUS
 62
     0
 10
909.239437142292
 20
403.9524821879757
 30
0.0
 40
4.0
  1
10.00
 50
90.0
  7
HELVETICA_NEUE_REGULAR
1001
ACADANNOTATIVE
1000
AnnotativeData
1002
{
1070
     1
1070
     0
1002
}
  0
POINT
  5
22E
  8
DEFPOINTS
 62
     0
 10
929.5249966556398
 20
393.8453393308328
 30
0.0
  0
POINT
  5
22F
  8
DEFPOINTS
 62
     0
 10
935.5249966556398
 20
403.8453393308328
 30
0.0
  0
POINT
  5
230
  8
DEFPOINTS
 62
     0
 10
909.4894371422921
 20
403.8453393308328
 30
0.0
  0
ENDBLK
  5
226
  8
0
  0
BLOCK
  8
0
  2
*D6
 70
     1
 10
0.0
 20
0.0
 30
0.0
  3
*D6
  1

  0
LINE
  5
235
  8
DEFAULT
 62
     0
 10
920.0249966556398
 20
378.8453393308328
 30
0.0
 11
901.0583617542114
 21
378.8453393308328
 31
0.0
  0
LINE
  5
236
  8
DEFAULT
 62
     0
 10
935.0249966556398
 20
403.8453393308328
 30
0.0
 11
901.0583617542114
 21
403.8453393308328
 31
0.0
  0
LINE
  5
237
  8
DEFAULT
 62
     0
 10
901.5583617542114
 20
379.8453393308328
 30
0.0
 11
901.5583617542114
 21
402.8453393308328
 31
0.0
  0
SOLID
  5
238
  8
DEFAULT
 62
     0
 10
901.3916950875448
 20
379.8453393308328
 30
0.0
 11
901.7250284208781
 21
379.8453393308328
 31
0.0
 12
901.5583617542114
 22
378.8453393308328
 32
0.0
 13
901.5583617542114
 23
378.8453393308328
 33
0.0
  0
SOLID
  5
239
  8
DEFAULT
 62
     0
 10
901.7250284208781
 20
402.8453393308328
 30
0.0
 11
901.3916950875448
 21
402.8453393308328
 31
0.0
 12
901.5583617542114
 22
403.8453393308328
 32
0.0
 13
901.5583617542114
 23
403.8453393308328
 33
0.0
  0
TEXT
  5
23A
  8
DEFAULT
  6
CONTINUOUS
 62
     0
 10
901.3083617542115
 20
382.7739107594043
 30
0.0
 40
4.0
  1
25.00
 50
90.0
  7
HELVETICA_NEUE_REGULAR
1001
ACADANNOTATIVE
1000
AnnotativeData
1002
{
1070
     1
1070
     0
1002
}
  0
POINT
  5
23B
  8
DEFPOINTS
 62
     0
 10
920.5249966556398
 20
378.8453393308328
 30
0.0
  0
POINT
  5
23C
  8
DEFPOINTS
 62
     0
 10
935.5249966556398
 20
403.8453393308328
 30
0.0
  0
POINT
  5
23D
  8
DEFPOINTS
 62
     0
 10
901.5583617542114
 20
403.8453393308328
 30
0.0
  0
ENDBLK
  5
234
  8
0
  0
ENDSEC
  0
SECTION
  2
ENTITIES
  0
LINE
  5
70
  8
TESTS
 10
767.8957551177765
 20
543.4782371404092
 30
0.0
 11
767.8957551177765
 21
534.0782371404091
 31
0.0
  0
LINE
  5
71
  8
TESTS
 10
767.8957551177765
 20
534.0782371404091
 30
0.0
 11
782.8957551177765
 21
534.0782371404091
 31
0.0
  0
LINE
  5
72
  8
TESTS
 10
782.8957551177765
 20
534.0782371404091
 30
0.0
 11
782.8957551177765
 21
558.878237140409
 31
0.0
  0
LINE
  5
73
  8
TESTS
 10
782.8957551177765
 20
558.878237140409
 30
0.0
 11
767.8957551177765
 21
558.878237140409
 31
0.0
  0
LINE
  5
74
  8
TESTS
 10
767.8957551177765
 20
558.878237140409
 30
0.0
 11
767.8957551177763
 21
549.4782371404092
 31
0.0
  0
ARC
  5
75
  8
TESTS
 10
-767.8957551177765
 20
546.4782371404092
 30
0.0
 40
3.0
 50
89.9999999999913
 51
270.0
210
0.0
220
0.0
230
-1.0
  0
TEXT
  5
77
  8
TESTS
  6
CONTINUOUS
 10
768.3670374753196
 20
527.5342902510522
 30
0.0
 40
5.0
  1
24.8
  7
HELVETICA_NEUE_REGULAR
1001
ACADANNOTATIVE
1000
AnnotativeData
1002
{
1070
     1
1070
     0
1002
}
  0
LINE
  5
78
  8
TESTS
 10
805.3220031696253
 20
558.9782371404092
 30
0.0
 11
805.3220031696253
 21
534.0782371404091
 31
0.0
  0
LINE
  5
79
  8
TESTS
 10
805.3220031696253
 20
534.0782371404091
 30
0.0
 11
820.3220031696253
 21
534.0782371404091
 31
0.0
  0
LINE
  5
7A
  8
TESTS
 10
820.3220031696253
 20
534.0782371404091
 30
0.0
 11
820.3220031696253
 21
558.9782371404092
 31
0.0
  0
LINE
  5
7B
  8
TESTS
 10
820.3220031696253
 20
558.9782371404092
 30
0.0
 11
805.3220031696253
 21
558.9782371404092
 31
0.0
  0
TEXT
  5
7C
  8
TESTS
  6
CONTINUOUS
 10
804.3704536647296
 20
527.5342902510522
 30
0.0
 40
5.0
  1
24.9
  7
HELVETICA_NEUE_REGULAR
1001
ACADANNOTATIVE
1000
AnnotativeData
1002
{
1070
     1
1070
     0
1002
}
  0
TEXT
  5
7D
  8
TESTS
  6
CONTINUOUS
 10
842.2470522715483
 20
527.5342902510522
 30
0.0
 40
5.0
  1
25.00
  7
HELVETICA_NEUE_REGULAR
1001
ACADANNOTATIVE
1000
AnnotativeData
1002
{
1070
     1
1070
     0
1002
}
  0
LINE
  5
7E
  8
TESTS
 10
844.2946002181709
 20
543.4107204273391
 30
0.0
 11
844.2946002181709
 21
533.9107204273391
 31
0.0
  0
LINE
  5
7F
  8
TESTS
 10
844.2946002181709
 20
533.9107204273391
 30
0.0
 11
859.2946002181709
 21
533.9107204273391
 31
0.0
  0
LINE
  5
80
  8
TESTS
 10
859.2946002181709
 20
533.9107204273391
 30
0.0
 11
859.2946002181709
 21
558.9107204273391
 31
0.0
  0
LINE
  5
81
  8
TESTS
 10
859.2946002181709
 20
558.9107204273391
 30
0.0
 11
844.2946002181709
 21
558.9107204273391
 31
0.0
  0
LINE
  5
82
  8
TESTS
 10
844.2946002181709
 20
558.9107204273391
 30
0.0
 11
844.2946002181709
 21
549.4107204273394
 31
0.0
  0
ARC
  5
83
  8
TESTS
 10
844.2946002181709
 20
546.4107204273391
 30
0.0
 40
3.0
 50
90.0
 51
270.0
  0
ARC
  5
84
  8
TESTS
 10
-1092.874996655638
 20
542.4997054247597
 30
0.0
 40
3.0
 50
180.0
 51
0.0
210
0.0
220
0.0
230
-1.0
  0
LINE
  5
85
  8
TESTS
 10
1089.874996655638
 20
542.4997054247597
 30
0.0
 11
1086.824996655638
 21
542.4997054247597
 31
0.0
  0
ARC
  5
86
  8
TESTS
 10
-1083.824996655638
 20
542.4997054247597
 30
0.0
 40
3.0
 50
180.0
 51
0.0
210
0.0
220
0.0
230
-1.0
  0
LINE
  5
87
  8
TESTS
 10
1080.824996655638
 20
542.4997054247597
 30
0.0
 11
1080.824996655638
 21
567.4997054247597
 31
0.0
  0
LINE
  5
88
  8
TESTS
 10
1080.824996655638
 20
567.4997054247597
 30
0.0
 11
1055.824996655638
 21
567.4997054247597
 31
0.0
  0
LINE
  5
89
  8
TESTS
 10
1055.824996655638
 20
567.4997054247597
 30
0.0
 11
1055.824996655638
 21
542.4997054247597
 31
0.0
  0
LINE
  5
8A
  8
TESTS
 10
1055.824996655638
 20
542.4997054247597
 30
0.0
 11
1055.724996655639
 21
542.4997054247597
 31
0.0
  0
ARC
  5
8B
  8
TESTS
 10
-1052.724996655639
 20
542.4997054247597
 30
0.0
 40
3.0
 50
180.0
 51
0.0
210
0.0
220
0.0
230
-1.0
  0
LINE
  5
8C
  8
TESTS
 10
1049.724996655639
 20
542.4997054247597
 30
0.0
 11
1046.674996655639
 21
542.4997054247597
 31
0.0
  0
ARC
  5
8D
  8
TESTS
 10
-1043.674996655639
 20
542.4997054247597
 30
0.0
 40
3.0
 50
180.0
 51
0.0
210
0.0
220
0.0
230
-1.0
  0
LINE
  5
8E
  8
TESTS
 10
1040.674996655639
 20
542.4997054247597
 30
0.0
 11
1040.674996655639
 21
567.4997054247597
 31
0.0
  0
LINE
  5
8F
  8
TESTS
 10
1040.674996655639
 20
567.4997054247597
 30
0.0
 11
1015.674996655639
 21
567.4997054247597
 31
0.0
  0
LINE
  5
90
  8
TESTS
 10
1015.674996655639
 20
567.4997054247597
 30
0.0
 11
1015.674996655639
 21
542.4997054247597
 31
0.0
  0
LINE
  5
91
  8
TESTS
 10
1015.674996655639
 20
542.4997054247597
 30
0.0
 11
1015.624996655639
 21
542.4997054247597
 31
0.0
  0
ARC
  5
92
  8
TESTS
 10
-1012.624996655639
 20
542.4997054247597
 30
0.0
 40
3.0
 50
180.0
 51
0.0
210
0.0
220
0.0
230
-1.0
  0
LINE
  5
93
  8
TESTS
 10
1009.624996655639
 20
542.4997054247597
 30
0.0
 11
1006.574996655639
 21
542.4997054247597
 31
0.0
  0
ARC
  5
94
  8
TESTS
 10
-1003.574996655639
 20
542.4997054247597
 30
0.0
 40
3.0
 50
180.0
 51
0.0
210
0.0
220
0.0
230
-1.0
  0
LINE
  5
95
  8
TESTS
 10
1000.574996655639
 20
542.4997054247597
 30
0.0
 11
1000.574996655639
 21
567.4997054247597
 31
0.0
  0
LINE
  5
96
  8
TESTS
 10
1000.574996655639
 20
567.4997054247597
 30
0.0
 11
975.5749966556391
 21
567.4997054247597
 31
0.0
  0
LINE
  5
97
  8
TESTS
 10
975.5749966556391
 20
567.4997054247597
 30
0.0
 11
975.5749966556391
 21
542.4997054247597
 31
0.0
  0
ARC
  5
98
  8
TESTS
 10
-972.5749966556391
 20
542.4997054247597
 30
0.0
 40
3.0
 50
180.0
 51
0.0
210
0.0
220
0.0
230
-1.0
  0
LINE
  5
99
  8
TESTS
 10
969.5749966556391
 20
542.4997054247597
 30
0.0
 11
966.5249966556389
 21
542.4997054247597
 31
0.0
  0
ARC
  5
9A
  8
TESTS
 10
-963.5249966556389
 20
542.4997054247597
 30
0.0
 40
3.0
 50
180.0
 51
0.0
210
0.0
220
0.0
230
-1.0
  0
LINE
  5
9B
  8
TESTS
 10
960.5249966556389
 20
542.4997054247597
 30
0.0
 11
960.5249966556398
 21
567.4997054247597
 31
0.0
  0
LINE
  5
9C
  8
TESTS
 10
960.5249966556398
 20
567.4997054247597
 30
0.0
 11
935.5249966556398
 21
567.4997054247597
 31
0.0
  0
LINE
  5
9D
  8
TESTS
 10
935.5249966556398
 20
567.4997054247597
 30
0.0
 11
935.5249966556398
 21
542.4997054247597
 31
0.0
  0
ARC
  5
9E
  8
TESTS
 10
-932.5249966556398
 20
542.4997054247597
 30
0.0
 40
3.0
 50
180.0
 51
0.0
210
0.0
220
0.0
230
-1.0
  0
LINE
  5
9F
  8
TESTS
 10
929.5249966556398
 20
542.4997054247597
 30
0.0
 11
920.5249966556398
 21
542.4997054247597
 31
0.0
  0
LINE
  5
A0
  8
TESTS
 10
920.5249966556398
 20
542.4997054247597
 30
0.0
 11
920.5249966556398
 21
527.4997054247597
 31
0.0
  0
LINE
  5
A1
  8
TESTS
 10
920.5249966556398
 20
527.4997054247597
 30
0.0
 11
1121.024996655637
 21
527.4997054247597
 31
0.0
  0
LINE
  5
A2
  8
TESTS
 10
1121.024996655637
 20
527.4997054247597
 30
0.0
 11
1121.024996655638
 21
567.4997054247597
 31
0.0
  0
LINE
  5
A3
  8
TESTS
 10
1121.024996655638
 20
567.4997054247597
 30
0.0
 11
1096.024996655638
 21
567.4997054247597
 31
0.0
  0
LINE
  5
A4
  8
TESTS
 10
1096.024996655638
 20
567.4997054247597
 30
0.0
 11
1096.024996655638
 21
542.4997054247597
 31
0.0
  0
LINE
  5
A5
  8
TESTS
 10
1096.024996655638
 20
542.4997054247597
 30
0.0
 11
1095.874996655638
 21
542.4997054247597
 31
0.0
  0
ARC
  5
A6
  8
TESTS
 10
926.5089585223222
 20
311.8698848706698
 30
0.0
 40
3.0
 50
270.0
 51
90.0
  0
LINE
  5
A7
  8
TESTS
 10
926.5089585223222
 20
314.8698848706698
 30
0.0
 11
886.5089609112424
 21
314.8698848706698
 31
0.0
  0
ARC
  5
A8
  8
TESTS
 10
886.5089609112424
 20
311.8698848706698
 30
0.0
 40
3.0
 50
90.0
 51
270.0
  0
LINE
  5
A9
  8
TESTS
 10
886.5089609112424
 20
308.8698848706698
 30
0.0
 11
886.5089609112424
 21
305.7698848706698
 31
0.0
  0
ARC
  5
AA
  8
TESTS
 10
886.5089609112424
 20
302.7698848706698
 30
0.0
 40
3.0
 50
90.0
 51
270.0
  0
LINE
  5
AB
  8
TESTS
 10
886.5089609112424
 20
299.7698848706698
 30
0.0
 11
926.5089585223222
 21
299.7698848706698
 31
0.0
  0
ARC
  5
AC
  8
TESTS
 10
926.508958522322
 20
302.7698848706698
 30
0.0
 40
3.0
 50
270.0000000000022
 51
90.0
  0
LINE
  5
AD
  8
TESTS
 10
926.508958522322
 20
305.7698848706698
 30
0.0
 11
926.5089585223222
 21
308.8698848706698
 31
0.0
  0
ARC
  5
AE
  8
TESTS
 10
926.5089585223222
 20
266.5082885033007
 30
0.0
 40
3.0
 50
270.0
 51
90.0
  0
LINE
  5
AF
  8
TESTS
 10
926.5089585223222
 20
269.5082885033007
 30
0.0
 11
886.5089609112424
 21
269.5082885033007
 31
0.0
  0
ARC
  5
B0
  8
TESTS
 10
886.5089609112424
 20
266.5082885033007
 30
0.0
 40
3.0
 50
90.0
 51
270.0
  0
LINE
  5
B1
  8
TESTS
 10
886.5089609112424
 20
263.5082885033007
 30
0.0
 11
886.5089609112424
 21
260.3082885033014
 31
0.0
  0
ARC
  5
B2
  8
TESTS
 10
886.5089609112424
 20
257.3082885033014
 30
0.0
 40
3.0
 50
90.0
 51
270.0
  0
LINE
  5
B3
  8
TESTS
 10
886.5089609112424
 20
254.3082885033014
 30
0.0
 11
926.5089585223222
 21
254.3082885033014
 31
0.0
  0
ARC
  5
B4
  8
TESTS
 10
926.5089585223222
 20
257.3082885033014
 30
0.0
 40
3.0
 50
270.0000000000022
 51
90.0
  0
LINE
  5
B5
  8
TESTS
 10
926.5089585223222
 20
260.3082885033014
 30
0.0
 11
926.5089585223222
 21
263.5082885033007
 31
0.0
  0
TEXT
  5
B6
  8
TESTS
  6
CONTINUOUS
 10
874.8517827164762
 20
269.5335623667839
 30
0.0
 40
5.0
  1
15.1
 50
270.0
  7
HELVETICA_NEUE_REGULAR
1001
ACADANNOTATIVE
1000
AnnotativeData
1002
{
1070
     1
1070
     0
1002
}
  0
TEXT
  5
B7
  8
TESTS
  6
CONTINUOUS
 10
874.8517827164762
 20
315.4859731255311
 30
0.0
 40
5.0
  1
15.2
 50
270.0
  7
HELVETICA_NEUE_REGULAR
1001
ACADANNOTATIVE
1000
AnnotativeData
1002
{
1070
     1
1070
     0
1002
}
  0
LINE
  5
B8
  8
TESTS
 10
958.4314286939582
 20
330.8649263498361
 30
0.0
 11
862.373048177999
 21
330.8998817136008
 31
0.0
  0
LINE
  5
B9
  8
TESTS
 10
862.373048177999
 20
330.8998817136008
 30
0.0
 11
862.4028427666942
 21
239.1655429156257
 31
0.0
  0
LINE
  5
BA
  8
TESTS
 10
862.4028427666942
 20
239.1655429156257
 30
0.0
 11
962.4027674261356
 21
239.1291532354734
 31
0.0
  0
LINE
  5
BB
  8
TESTS
 10
962.4027674261356
 20
239.1291532354734
 30
0.0
 11
962.3741459911282
 21
327.2514778198492
 31
0.0
  0
ARC
  5
BC
  8
TESTS
 10
-962.2181619680276
 20
331.0389993419071
 30
0.0
 40
3.79073215823987
 50
267.6416824337894
 51
357.3680133705714
210
0.0
220
0.0
230
-1.0
  0
ARC
  5
BD
  8
TESTS
 10
926.5059512960652
 20
188.6216271633525
 30
0.0
 40
3.0
 50
270.0
 51
90.0
  0
LINE
  5
BE
  8
TESTS
 10
926.5059512960652
 20
191.6216271633525
 30
0.0
 11
886.5059536849853
 21
191.6216271633525
 31
0.0
  0
ARC
  5
BF
  8
TESTS
 10
886.5059536849853
 20
188.6216271633525
 30
0.0
 40
3.0
 50
90.0
 51
270.0
  0
LINE
  5
C0
  8
TESTS
 10
886.5059536849853
 20
185.6216271633525
 30
0.0
 11
886.5059536849853
 21
182.5216271633524
 31
0.0
  0
ARC
  5
C1
  8
TESTS
 10
886.5059536849853
 20
179.5216271633524
 30
0.0
 40
3.0
 50
90.0
 51
270.0
  0
LINE
  5
C2
  8
TESTS
 10
886.5059536849853
 20
176.5216271633524
 30
0.0
 11
926.5059512960652
 21
176.5216271633524
 31
0.0
  0
ARC
  5
C3
  8
TESTS
 10
926.505951296065
 20
179.5216271633524
 30
0.0
 40
3.0
 50
270.0000000000022
 51
90.0
  0
LINE
  5
C4
  8
TESTS
 10
926.505951296065
 20
182.5216271633524
 30
0.0
 11
926.5059512960652
 21
185.6216271633525
 31
0.0
  0
ARC
  5
C5
  8
TESTS
 10
926.5059512960652
 20
143.2600307959834
 30
0.0
 40
3.0
 50
270.0
 51
90.0
  0
LINE
  5
C6
  8
TESTS
 10
926.5059512960652
 20
146.2600307959834
 30
0.0
 11
886.5059536849853
 21
146.2600307959834
 31
0.0
  0
ARC
  5
C7
  8
TESTS
 10
886.5059536849853
 20
143.2600307959834
 30
0.0
 40
3.0
 50
90.0
 51
270.0
  0
LINE
  5
C8
  8
TESTS
 10
886.5059536849853
 20
140.2600307959834
 30
0.0
 11
886.5059536849853
 21
137.0600307959841
 31
0.0
  0
ARC
  5
C9
  8
TESTS
 10
886.5059536849853
 20
134.0600307959841
 30
0.0
 40
3.0
 50
90.0
 51
270.0
  0
LINE
  5
CA
  8
TESTS
 10
886.5059536849853
 20
131.0600307959841
 30
0.0
 11
926.5059512960652
 21
131.0600307959841
 31
0.0
  0
ARC
  5
CB
  8
TESTS
 10
926.5059512960652
 20
134.0600307959841
 30
0.0
 40
3.0
 50
270.0000000000022
 51
90.0
  0
LINE
  5
CC
  8
TESTS
 10
926.5059512960652
 20
137.0600307959841
 30
0.0
 11
926.5059512960652
 21
140.2600307959834
 31
0.0
  0
TEXT
  5
CD
  8
TESTS
  6
CONTINUOUS
 10
874.8487754902192
 20
146.2853046594665
 30
0.0
 40
5.0
  1
15.1
 50
270.0
  7
HELVETICA_NEUE_REGULAR
1001
ACADANNOTATIVE
1000
AnnotativeData
1002
{
1070
     1
1070
     0
1002
}
  0
TEXT
  5
CE
  8
TESTS
  6
CONTINUOUS
 10
874.8487754902192
 20
192.2377154182137
 30
0.0
 40
5.0
  1
15.2
 50
270.0
  7
HELVETICA_NEUE_REGULAR
1001
ACADANNOTATIVE
1000
AnnotativeData
1002
{
1070
     1
1070
     0
1002
}
  0
LINE
  5
CF
  8
TESTS
 10
958.4284214677011
 20
207.6166686425187
 30
0.0
 11
862.3700409517419
 21
207.6516240062835
 31
0.0
  0
LINE
  5
D0
  8
TESTS
 10
862.3700409517419
 20
207.6516240062835
 30
0.0
 11
862.3998355404372
 21
115.9172852083084
 31
0.0
  0
LINE
  5
D1
  8
TESTS
 10
862.3998355404372
 20
115.9172852083084
 30
0.0
 11
962.3997601998785
 21
115.880895528156
 31
0.0
  0
LINE
  5
D2
  8
TESTS
 10
962.3997601998785
 20
115.880895528156
 30
0.0
 11
962.3711387648711
 21
204.0032201125319
 31
0.0
  0
ARC
  5
D3
  8
TESTS
 10
-962.2151547417704
 20
207.7907416345896
 30
0.0
 40
3.790732158239789
 50
267.6416824337875
 51
357.3680133705726
210
0.0
220
0.0
230
-1.0
  0
ARC
  5
D4
  8
TESTS
 10
812.0681923412028
 20
177.5605068093466
 30
0.0
 40
3.0
 50
270.0
 51
90.0
  0
LINE
  5
D5
  8
TESTS
 10
812.0681923412028
 20
180.5605068093466
 30
0.0
 11
787.0681923412023
 21
180.5605068093466
 31
0.0
  0
ARC
  5
D6
  8
TESTS
 10
787.0681923412023
 20
177.5605068093466
 30
0.0
 40
3.0
 50
90.0
 51
270.0
  0
LINE
  5
D7
  8
TESTS
 10
787.0681923412023
 20
174.5605068093466
 30
0.0
 11
787.0681923412023
 21
171.3605068093472
 31
0.0
  0
ARC
  5
D8
  8
TESTS
 10
787.0681923412023
 20
168.3605068093472
 30
0.0
 40
3.0
 50
90.0
 51
270.0
  0
LINE
  5
D9
  8
TESTS
 10
787.0681923412026
 20
165.3605068093472
 30
0.0
 11
812.0681923412028
 21
165.3605068093472
 31
0.0
  0
ARC
  5
DA
  8
TESTS
 10
812.0681923412028
 20
168.3605068093472
 30
0.0
 40
3.0
 50
270.0
 51
90.0
  0
LINE
  5
DB
  8
TESTS
 10
812.0681923412028
 20
171.3605068093472
 30
0.0
 11
812.0681923412028
 21
174.5605068093466
 31
0.0
  0
TEXT
  5
DC
  8
TESTS
  6
CONTINUOUS
 10
823.7253705299238
 20
164.7195125569725
 30
0.0
 40
5.0
  1
15.2
 50
90.0
  7
HELVETICA_NEUE_REGULAR
1001
ACADANNOTATIVE
1000
AnnotativeData
1002
{
1070
     1
1070
     0
1002
}
  0
LINE
  5
DD
  8
TESTS
 10
766.4559472267244
 20
95.63326688922552
 30
0.0
 11
839.5681923412028
 21
95.63326688922552
 31
0.0
  0
LINE
  5
DE
  8
TESTS
 10
839.5681923412028
 20
95.63326688922552
 30
0.0
 11
839.5681923412028
 21
207.6516240062835
 31
0.0
  0
LINE
  5
DF
  8
TESTS
 10
839.5681923412028
 20
207.6516240062835
 30
0.0
 11
763.4559472267254
 21
207.6516240062835
 31
0.0
  0
LINE
  5
E0
  8
TESTS
 10
763.4559472267254
 20
207.6516240062835
 30
0.0
 11
763.4559472267254
 21
100.0439587129484
 31
0.0
  0
LINE
  5
E1
  8
TESTS
 10
763.4559472267254
 20
100.0439587129484
 30
0.0
 11
763.5225350580101
 21
100.0428720935591
 31
0.0
  0
LINE
  5
E2
  8
TESTS
 10
763.5225350580101
 20
100.0428720935591
 30
0.0
 11
763.5896879591713
 21
100.0395736327139
 31
0.0
  0
LINE
  5
E3
  8
TESTS
 10
763.5896879591713
 20
100.0395736327139
 30
0.0
 11
763.6573619448935
 21
100.0340067936628
 31
0.0
  0
LINE
  5
E4
  8
TESTS
 10
763.6573619448935
 20
100.0340067936628
 30
0.0
 11
763.7255105404184
 21
100.026117061441
 31
0.0
  0
LINE
  5
E5
  8
TESTS
 10
763.7255105404184
 20
100.026117061441
 30
0.0
 11
763.794084810677
 21
100.0158521947201
 31
0.0
  0
LINE
  5
E6
  8
TESTS
 10
763.794084810677
 20
100.0158521947201
 30
0.0
 11
763.8630334020562
 21
100.0031624805842
 31
0.0
  0
LINE
  5
E7
  8
TESTS
 10
763.8630334020562
 20
100.0031624805842
 30
0.0
 11
763.9323025973001
 21
99.98800099078605
 31
0.0
  0
LINE
  5
E8
  8
TESTS
 10
763.9323025973001
 20
99.98800099078605
 30
0.0
 11
764.0018363839617
 21
99.9703238379233
 31
0.0
  0
LINE
  5
E9
  8
TESTS
 10
764.0018363839617
 20
99.9703238379233
 30
0.0
 11
764.0715765367421
 21
99.95009042987735
 31
0.0
  0
LINE
  5
EA
  8
TESTS
 10
764.0715765367421
 20
99.95009042987735
 30
0.0
 11
764.1414627139446
 21
99.92726372075984
 31
0.0
  0
LINE
  5
EB
  8
TESTS
 10
764.1414627139446
 20
99.92726372075984
 30
0.0
 11
764.211432568171
 21
99.90181045653709
 31
0.0
  0
LINE
  5
EC
  8
TESTS
 10
764.211432568171
 20
99.90181045653709
 30
0.0
 11
764.2814218712615
 21
99.87370141343676
 31
0.0
  0
LINE
  5
ED
  8
TESTS
 10
764.2814218712615
 20
99.87370141343676
 30
0.0
 11
764.3513646533635
 21
99.84291162719596
 31
0.0
  0
LINE
  5
EE
  8
TESTS
 10
764.3513646533635
 20
99.84291162719596
 30
0.0
 11
764.4211933558713
 21
99.80942061118213
 31
0.0
  0
LINE
  5
EF
  8
TESTS
 10
764.4211933558713
 20
99.80942061118213
 30
0.0
 11
764.4908389978499
 21
99.77321256141265
 31
0.0
  0
LINE
  5
F0
  8
TESTS
 10
764.4908389978499
 20
99.77321256141265
 30
0.0
 11
764.5602313554109
 21
99.73427654651476
 31
0.0
  0
LINE
  5
F1
  8
TESTS
 10
764.5602313554109
 20
99.73427654651476
 30
0.0
 11
764.6292991533643
 21
99.69260668070822
 31
0.0
  0
LINE
  5
F2
  8
TESTS
 10
764.6292991533643
 20
99.69260668070822
 30
0.0
 11
764.6979702683298
 21
99.64820227795676
 31
0.0
  0
LINE
  5
F3
  8
TESTS
 10
764.6979702683298
 20
99.64820227795676
 30
0.0
 11
764.7661719423469
 21
99.60106798552523
 31
0.0
  0
LINE
  5
F4
  8
TESTS
 10
764.7661719423469
 20
99.60106798552523
 30
0.0
 11
764.8338310058931
 21
99.55121389529329
 31
0.0
  0
LINE
  5
F5
  8
TESTS
 10
764.8338310058931
 20
99.55121389529329
 30
0.0
 11
764.9008741090794
 21
99.49865563131624
 31
0.0
  0
LINE
  5
F6
  8
TESTS
 10
764.9008741090794
 20
99.49865563131624
 30
0.0
 11
764.9672279596825
 21
99.44341441228734
 31
0.0
  0
LINE
  5
F7
  8
TESTS
 10
764.9672279596825
 20
99.44341441228734
 30
0.0
 11
765.0328195665579
 21
99.38551708774196
 31
0.0
  0
LINE
  5
F8
  8
TESTS
 10
765.0328195665579
 20
99.38551708774196
 30
0.0
 11
765.0975764868806
 21
99.32499614705036
 31
0.0
  0
LINE
  5
F9
  8
TESTS
 10
765.0975764868806
 20
99.32499614705036
 30
0.0
 11
765.1614270755828
 21
99.26188970047184
 31
0.0
  0
LINE
  5
FA
  8
TESTS
 10
765.1614270755828
 20
99.26188970047184
 30
0.0
 11
765.2243007352938
 21
99.19624143178387
 31
0.0
  0
LINE
  5
FB
  8
TESTS
 10
765.2243007352938
 20
99.19624143178387
 30
0.0
 11
765.2861281650374
 21
99.12810052225365
 31
0.0
  0
LINE
  5
FC
  8
TESTS
 10
765.2861281650374
 20
99.12810052225365
 30
0.0
 11
765.3468416059228
 21
99.05752154598302
 31
0.0
  0
LINE
  5
FD
  8
TESTS
 10
765.3468416059228
 20
99.05752154598302
 30
0.0
 11
765.4063750820537
 21
98.98456433692625
 31
0.0
  0
LINE
  5
FE
  8
TESTS
 10
765.4063750820537
 20
98.98456433692625
 30
0.0
 11
765.4646646349019
 21
98.9092938281505
 31
0.0
  0
LINE
  5
FF
  8
TESTS
 10
765.4646646349019
 20
98.9092938281505
 30
0.0
 11
765.5216485494271
 21
98.8317798641772
 31
0.0
  0
LINE
  5
100
  8
TESTS
 10
765.5216485494271
 20
98.8317798641772
 30
0.0
 11
765.5772675702848
 21
98.75209698750398
 31
0.0
  0
LINE
  5
101
  8
TESTS
 10
765.5772675702848
 20
98.75209698750398
 30
0.0
 11
765.6314651065381
 21
98.67032420065722
 31
0.0
  0
LINE
  5
102
  8
TESTS
 10
765.6314651065381
 20
98.67032420065722
 30
0.0
 11
765.6841874234022
 21
98.58654470536355
 31
0.0
  0
LINE
  5
103
  8
TESTS
 10
765.6841874234022
 20
98.58654470536355
 30
0.0
 11
765.7353838196485
 21
98.50084562064505
 31
0.0
  0
LINE
  5
104
  8
TESTS
 10
765.7353838196485
 20
98.50084562064505
 30
0.0
 11
765.7850067894494
 21
98.41331768184237
 31
0.0
  0
LINE
  5
105
  8
TESTS
 10
765.7850067894494
 20
98.41331768184237
 30
0.0
 11
765.8330121675793
 21
98.3240549227411
 31
0.0
  0
LINE
  5
106
  8
TESTS
 10
765.8330121675793
 20
98.3240549227411
 30
0.0
 11
765.8793592570522
 21
98.23315434312356
 31
0.0
  0
LINE
  5
107
  8
TESTS
 10
765.8793592570522
 20
98.23315434312356
 30
0.0
 11
765.9240109384515
 21
98.14071556418541
 31
0.0
  0
LINE
  5
108
  8
TESTS
 10
765.9240109384515
 20
98.14071556418541
 30
0.0
 11
765.9669337603809
 21
98.04684047434267
 31
0.0
  0
LINE
  5
109
  8
TESTS
 10
765.9669337603809
 20
98.04684047434267
 30
0.0
 11
766.008098010646
 21
97.95163286801068
 31
0.0
  0
LINE
  5
10A
  8
TESTS
 10
766.008098010646
 20
97.95163286801068
 30
0.0
 11
766.0474777679672
 21
97.85519807996053
 31
0.0
  0
LINE
  5
10B
  8
TESTS
 10
766.0474777679672
 20
97.85519807996053
 30
0.0
 11
766.0850509341983
 21
97.75764261785115
 31
0.0
  0
LINE
  5
10C
  8
TESTS
 10
766.0850509341983
 20
97.75764261785115
 30
0.0
 11
766.1207992472141
 21
97.65907379549763
 31
0.0
  0
LINE
  5
10D
  8
TESTS
 10
766.1207992472141
 20
97.65907379549763
 30
0.0
 11
766.1547082747937
 21
97.5595993693696
 31
0.0
  0
LINE
  5
10E
  8
TESTS
 10
766.1547082747937
 20
97.5595993693696
 30
0.0
 11
766.1867673899952
 21
97.4593271807189
 31
0.0
  0
LINE
  5
10F
  8
TESTS
 10
766.1867673899952
 20
97.4593271807189
 30
0.0
 11
766.2169697286707
 21
97.35836480561767
 31
0.0
  0
LINE
  5
110
  8
TESTS
 10
766.2169697286707
 20
97.35836480561767
 30
0.0
 11
766.2453121299121
 21
97.2568192150456
 31
0.0
  0
LINE
  5
111
  8
TESTS
 10
766.2453121299121
 20
97.2568192150456
 30
0.0
 11
766.2717950603372
 21
97.1547964470044
 31
0.0
  0
LINE
  5
112
  8
TESTS
 10
766.2717950603372
 20
97.1547964470044
 30
0.0
 11
766.2964225232499
 21
97.05240129245999
 31
0.0
  0
LINE
  5
113
  8
TESTS
 10
766.2964225232499
 20
97.05240129245999
 30
0.0
 11
766.3401441012858
 21
96.84690497767409
 31
0.0
  0
LINE
  5
114
  8
TESTS
 10
766.3401441012858
 20
96.84690497767409
 30
0.0
 11
766.3765753298529
 21
96.64113274073003
 31
0.0
  0
LINE
  5
115
  8
TESTS
 10
766.3765753298529
 20
96.64113274073003
 30
0.0
 11
766.4058633319744
 21
96.43584983671934
 31
0.0
  0
LINE
  5
116
  8
TESTS
 10
766.4058633319744
 20
96.43584983671934
 30
0.0
 11
766.4281990407292
 21
96.23177744425308
 31
0.0
  0
LINE
  5
117
  8
TESTS
 10
766.4281990407292
 20
96.23177744425308
 30
0.0
 11
766.4438119525631
 21
96.0295871237861
 31
0.0
  0
LINE
  5
118
  8
TESTS
 10
766.4438119525631
 20
96.0295871237861
 30
0.0
 11
766.4529646468416
 21
95.82989660759155
 31
0.0
  0
LINE
  5
119
  8
TESTS
 10
766.4529646468416
 20
95.82989660759155
 30
0.0
 11
766.4559472267244
 21
95.63326688922552
 31
0.0
  0
ARC
  5
11A
  8
TESTS
 10
787.0681923351565
 20
133.1590771085623
 30
0.0
 40
3.0
 50
90.0
 51
270.0
  0
LINE
  5
11B
  8
TESTS
 10
787.0681923351565
 20
130.1590771085623
 30
0.0
 11
787.0681923351565
 21
127.0590771085644
 31
0.0
  0
ARC
  5
11C
  8
TESTS
 10
787.0681923351565
 20
124.0590771085644
 30
0.0
 40
3.0
 50
90.0
 51
270.0
  0
LINE
  5
11D
  8
TESTS
 10
787.0681923351565
 20
121.0590771085644
 30
0.0
 11
812.0681923412028
 21
121.0590771085644
 31
0.0
  0
ARC
  5
11E
  8
TESTS
 10
812.0681923412028
 20
124.0590771085644
 30
0.0
 40
3.0
 50
270.0
 51
90.0
  0
LINE
  5
11F
  8
TESTS
 10
812.0681923412028
 20
127.0590771085644
 30
0.0
 11
812.0681923412028
 21
130.1590771085623
 31
0.0
  0
ARC
  5
120
  8
TESTS
 10
812.0681923412028
 20
133.1590771085623
 30
0.0
 40
3.0
 50
270.0
 51
90.0
  0
LINE
  5
121
  8
TESTS
 10
812.0681923412028
 20
136.1590771085623
 30
0.0
 11
787.0681923351565
 21
136.1590771085623
 31
0.0
  0
TEXT
  5
122
  8
TESTS
  6
CONTINUOUS
 10
823.7253705299238
 20
119.6485322830569
 30
0.0
 40
5.0
  1
15.1
 50
90.0
  7
HELVETICA_NEUE_REGULAR
1001
ACADANNOTATIVE
1000
AnnotativeData
1002
{
1070
     1
1070
     0
1002
}
  0
ARC
  5
123
  8
TESTS
 10
812.2469216317804
 20
322.8933465263166
 30
0.0
 40
3.0
 50
270.0
 51
90.0
  0
LINE
  5
124
  8
TESTS
 10
812.2469216317804
 20
325.8933465263166
 30
0.0
 11
787.24692163178
 21
325.8933465263166
 31
0.0
  0
ARC
  5
125
  8
TESTS
 10
787.24692163178
 20
322.8933465263166
 30
0.0
 40
3.0
 50
90.0
 51
270.0
  0
LINE
  5
126
  8
TESTS
 10
787.24692163178
 20
319.8933465263166
 30
0.0
 11
787.24692163178
 21
316.6933465263172
 31
0.0
  0
ARC
  5
127
  8
TESTS
 10
787.24692163178
 20
313.6933465263172
 30
0.0
 40
3.0
 50
90.0
 51
270.0
  0
LINE
  5
128
  8
TESTS
 10
787.2469216317802
 20
310.6933465263172
 30
0.0
 11
812.2469216317804
 21
310.6933465263172
 31
0.0
  0
ARC
  5
129
  8
TESTS
 10
812.2469216317804
 20
313.6933465263172
 30
0.0
 40
3.0
 50
270.0
 51
90.0
  0
LINE
  5
12A
  8
TESTS
 10
812.2469216317804
 20
316.6933465263172
 30
0.0
 11
812.2469216317804
 21
319.8933465263166
 31
0.0
  0
TEXT
  5
12B
  8
TESTS
  6
CONTINUOUS
 10
823.9040998205014
 20
310.0523522739425
 30
0.0
 40
5.0
  1
15.2
 50
90.0
  7
HELVETICA_NEUE_REGULAR
1001
ACADANNOTATIVE
1000
AnnotativeData
1002
{
1070
     1
1070
     0
1002
}
  0
LINE
  5
12C
  8
TESTS
 10
766.6346765173021
 20
240.9661066061955
 30
0.0
 11
839.7469216317804
 21
240.9661066061955
 31
0.0
  0
LINE
  5
12D
  8
TESTS
 10
839.7469216317804
 20
240.9661066061955
 30
0.0
 11
839.7469216317804
 21
352.9844637232535
 31
0.0
  0
LINE
  5
12E
  8
TESTS
 10
839.7469216317804
 20
352.9844637232535
 30
0.0
 11
763.634676517303
 21
352.9844637232535
 31
0.0
  0
LINE
  5
12F
  8
TESTS
 10
763.634676517303
 20
352.9844637232535
 30
0.0
 11
763.634676517303
 21
245.3767984299184
 31
0.0
  0
LINE
  5
130
  8
TESTS
 10
763.634676517303
 20
245.3767984299184
 30
0.0
 11
763.7012643485878
 21
245.3757118105291
 31
0.0
  0
LINE
  5
131
  8
TESTS
 10
763.7012643485878
 20
245.3757118105291
 30
0.0
 11
763.768417249749
 21
245.3724133496839
 31
0.0
  0
LINE
  5
132
  8
TESTS
 10
763.768417249749
 20
245.3724133496839
 30
0.0
 11
763.8360912354713
 21
245.3668465106328
 31
0.0
  0
LINE
  5
133
  8
TESTS
 10
763.8360912354713
 20
245.3668465106328
 30
0.0
 11
763.904239830996
 21
245.358956778411
 31
0.0
  0
LINE
  5
134
  8
TESTS
 10
763.904239830996
 20
245.358956778411
 30
0.0
 11
763.9728141012546
 21
245.3486919116901
 31
0.0
  0
LINE
  5
135
  8
TESTS
 10
763.9728141012546
 20
245.3486919116901
 30
0.0
 11
764.0417626926338
 21
245.3360021975542
 31
0.0
  0
LINE
  5
136
  8
TESTS
 10
764.0417626926338
 20
245.3360021975542
 30
0.0
 11
764.1110318878779
 21
245.320840707756
 31
0.0
  0
LINE
  5
137
  8
TESTS
 10
764.1110318878779
 20
245.320840707756
 30
0.0
 11
764.1805656745394
 21
245.3031635548933
 31
0.0
  0
LINE
  5
138
  8
TESTS
 10
764.1805656745394
 20
245.3031635548933
 30
0.0
 11
764.2503058273197
 21
245.2829301468473
 31
0.0
  0
LINE
  5
139
  8
TESTS
 10
764.2503058273197
 20
245.2829301468473
 30
0.0
 11
764.3201920045223
 21
245.2601034377298
 31
0.0
  0
LINE
  5
13A
  8
TESTS
 10
764.3201920045223
 20
245.2601034377298
 30
0.0
 11
764.3901618587486
 21
245.2346501735071
 31
0.0
  0
LINE
  5
13B
  8
TESTS
 10
764.3901618587486
 20
245.2346501735071
 30
0.0
 11
764.460151161839
 21
245.2065411304068
 31
0.0
  0
LINE
  5
13C
  8
TESTS
 10
764.460151161839
 20
245.2065411304068
 30
0.0
 11
764.5300939439412
 21
245.175751344166
 31
0.0
  0
LINE
  5
13D
  8
TESTS
 10
764.5300939439412
 20
245.175751344166
 30
0.0
 11
764.5999226464488
 21
245.1422603281521
 31
0.0
  0
LINE
  5
13E
  8
TESTS
 10
764.5999226464488
 20
245.1422603281521
 30
0.0
 11
764.6695682884274
 21
245.1060522783827
 31
0.0
  0
LINE
  5
13F
  8
TESTS
 10
764.6695682884274
 20
245.1060522783827
 30
0.0
 11
764.7389606459884
 21
245.0671162634847
 31
0.0
  0
LINE
  5
140
  8
TESTS
 10
764.7389606459884
 20
245.0671162634847
 30
0.0
 11
764.8080284439419
 21
245.0254463976782
 31
0.0
  0
LINE
  5
141
  8
TESTS
 10
764.8080284439419
 20
245.0254463976782
 30
0.0
 11
764.8766995589074
 21
244.9810419949267
 31
0.0
  0
LINE
  5
142
  8
TESTS
 10
764.8766995589074
 20
244.9810419949267
 30
0.0
 11
764.9449012329246
 21
244.9339077024952
 31
0.0
  0
LINE
  5
143
  8
TESTS
 10
764.9449012329246
 20
244.9339077024952
 30
0.0
 11
765.0125602964707
 21
244.8840536122632
 31
0.0
  0
LINE
  5
144
  8
TESTS
 10
765.0125602964707
 20
244.8840536122632
 30
0.0
 11
765.079603399657
 21
244.8314953482862
 31
0.0
  0
LINE
  5
145
  8
TESTS
 10
765.079603399657
 20
244.8314953482862
 30
0.0
 11
765.14595725026
 21
244.7762541292573
 31
0.0
  0
LINE
  5
146
  8
TESTS
 10
765.14595725026
 20
244.7762541292573
 30
0.0
 11
765.2115488571355
 21
244.7183568047119
 31
0.0
  0
LINE
  5
147
  8
TESTS
 10
765.2115488571355
 20
244.7183568047119
 30
0.0
 11
765.2763057774581
 21
244.6578358640203
 31
0.0
  0
LINE
  5
148
  8
TESTS
 10
765.2763057774581
 20
244.6578358640203
 30
0.0
 11
765.34015636616
 21
244.5947294174418
 31
0.0
  0
LINE
  5
149
  8
TESTS
 10
765.34015636616
 20
244.5947294174418
 30
0.0
 11
765.4030300258711
 21
244.5290811487538
 31
0.0
  0
LINE
  5
14A
  8
TESTS
 10
765.4030300258711
 20
244.5290811487538
 30
0.0
 11
765.4648574556148
 21
244.4609402392237
 31
0.0
  0
LINE
  5
14B
  8
TESTS
 10
765.4648574556148
 20
244.4609402392237
 30
0.0
 11
765.5255708965003
 21
244.390361262953
 31
0.0
  0
LINE
  5
14C
  8
TESTS
 10
765.5255708965003
 20
244.390361262953
 30
0.0
 11
765.5851043726311
 21
244.3174040538963
 31
0.0
  0
LINE
  5
14D
  8
TESTS
 10
765.5851043726311
 20
244.3174040538963
 30
0.0
 11
765.6433939254794
 21
244.2421335451205
 31
0.0
  0
LINE
  5
14E
  8
TESTS
 10
765.6433939254794
 20
244.2421335451205
 30
0.0
 11
765.7003778400046
 21
244.1646195811472
 31
0.0
  0
LINE
  5
14F
  8
TESTS
 10
765.7003778400046
 20
244.1646195811472
 30
0.0
 11
765.7559968608623
 21
244.084936704474
 31
0.0
  0
LINE
  5
150
  8
TESTS
 10
765.7559968608623
 20
244.084936704474
 30
0.0
 11
765.8101943971159
 21
244.0031639176272
 31
0.0
  0
LINE
  5
151
  8
TESTS
 10
765.8101943971159
 20
244.0031639176272
 30
0.0
 11
765.8629167139801
 21
243.9193844223336
 31
0.0
  0
LINE
  5
152
  8
TESTS
 10
765.8629167139801
 20
243.9193844223336
 30
0.0
 11
765.9141131102261
 21
243.833685337615
 31
0.0
  0
LINE
  5
153
  8
TESTS
 10
765.9141131102261
 20
243.833685337615
 30
0.0
 11
765.9637360800272
 21
243.7461573988124
 31
0.0
  0
LINE
  5
154
  8
TESTS
 10
765.9637360800272
 20
243.7461573988124
 30
0.0
 11
766.0117414581571
 21
243.6568946397111
 31
0.0
  0
LINE
  5
155
  8
TESTS
 10
766.0117414581571
 20
243.6568946397111
 30
0.0
 11
766.0580885476297
 21
243.5659940600935
 31
0.0
  0
LINE
  5
156
  8
TESTS
 10
766.0580885476297
 20
243.5659940600935
 30
0.0
 11
766.1027402290291
 21
243.4735552811554
 31
0.0
  0
LINE
  5
157
  8
TESTS
 10
766.1027402290291
 20
243.4735552811554
 30
0.0
 11
766.1456630509585
 21
243.3796801913127
 31
0.0
  0
LINE
  5
158
  8
TESTS
 10
766.1456630509585
 20
243.3796801913127
 30
0.0
 11
766.1868273012237
 21
243.2844725849806
 31
0.0
  0
LINE
  5
159
  8
TESTS
 10
766.1868273012237
 20
243.2844725849806
 30
0.0
 11
766.2262070585448
 21
243.1880377969305
 31
0.0
  0
LINE
  5
15A
  8
TESTS
 10
766.2262070585448
 20
243.1880377969305
 30
0.0
 11
766.2637802247758
 21
243.0904823348212
 31
0.0
  0
LINE
  5
15B
  8
TESTS
 10
766.2637802247758
 20
243.0904823348212
 30
0.0
 11
766.2995285377916
 21
242.9919135124676
 31
0.0
  0
LINE
  5
15C
  8
TESTS
 10
766.2995285377916
 20
242.9919135124676
 30
0.0
 11
766.3334375653712
 21
242.8924390863396
 31
0.0
  0
LINE
  5
15D
  8
TESTS
 10
766.3334375653712
 20
242.8924390863396
 30
0.0
 11
766.3654966805726
 21
242.7921668976889
 31
0.0
  0
LINE
  5
15E
  8
TESTS
 10
766.3654966805726
 20
242.7921668976889
 30
0.0
 11
766.3956990192484
 21
242.6912045225877
 31
0.0
  0
LINE
  5
15F
  8
TESTS
 10
766.3956990192484
 20
242.6912045225877
 30
0.0
 11
766.4240414204896
 21
242.5896589320156
 31
0.0
  0
LINE
  5
160
  8
TESTS
 10
766.4240414204896
 20
242.5896589320156
 30
0.0
 11
766.4505243509147
 21
242.4876361639744
 31
0.0
  0
LINE
  5
161
  8
TESTS
 10
766.4505243509147
 20
242.4876361639744
 30
0.0
 11
766.4751518138274
 21
242.38524100943
 31
0.0
  0
LINE
  5
162
  8
TESTS
 10
766.4751518138274
 20
242.38524100943
 30
0.0
 11
766.5188733918634
 21
242.1797446946441
 31
0.0
  0
LINE
  5
163
  8
TESTS
 10
766.5188733918634
 20
242.1797446946441
 30
0.0
 11
766.5553046204304
 21
241.9739724577
 31
0.0
  0
LINE
  5
164
  8
TESTS
 10
766.5553046204304
 20
241.9739724577
 30
0.0
 11
766.5845926225519
 21
241.7686895536893
 31
0.0
  0
LINE
  5
165
  8
TESTS
 10
766.5845926225519
 20
241.7686895536893
 30
0.0
 11
766.6069283313068
 21
241.564617161223
 31
0.0
  0
LINE
  5
166
  8
TESTS
 10
766.6069283313068
 20
241.564617161223
 30
0.0
 11
766.6225412431407
 21
241.3624268407561
 31
0.0
  0
LINE
  5
167
  8
TESTS
 10
766.6225412431407
 20
241.3624268407561
 30
0.0
 11
766.6316939374192
 21
241.1627363245616
 31
0.0
  0
LINE
  5
168
  8
TESTS
 10
766.6316939374192
 20
241.1627363245616
 30
0.0
 11
766.6346765173021
 21
240.9661066061955
 31
0.0
  0
ARC
  5
169
  8
TESTS
 10
787.2469216257341
 20
278.4919168255323
 30
0.0
 40
3.0
 50
90.0
 51
270.0
  0
LINE
  5
16A
  8
TESTS
 10
787.2469216257341
 20
275.4919168255323
 30
0.0
 11
787.2469216257341
 21
272.3919168255344
 31
0.0
  0
ARC
  5
16B
  8
TESTS
 10
787.2469216257341
 20
269.3919168255344
 30
0.0
 40
3.0
 50
90.0
 51
270.0
  0
LINE
  5
16C
  8
TESTS
 10
787.2469216257341
 20
266.3919168255344
 30
0.0
 11
812.2469216317804
 21
266.3919168255344
 31
0.0
  0
ARC
  5
16D
  8
TESTS
 10
812.2469216317804
 20
269.3919168255344
 30
0.0
 40
3.0
 50
270.0
 51
90.0
  0
LINE
  5
16E
  8
TESTS
 10
812.2469216317804
 20
272.3919168255344
 30
0.0
 11
812.2469216317804
 21
275.4919168255323
 31
0.0
  0
ARC
  5
16F
  8
TESTS
 10
812.2469216317804
 20
278.4919168255323
 30
0.0
 40
3.0
 50
270.0
 51
90.0
  0
LINE
  5
170
  8
TESTS
 10
812.2469216317804
 20
281.4919168255323
 30
0.0
 11
787.2469216257341
 21
281.4919168255323
 31
0.0
  0
TEXT
  5
171
  8
TESTS
  6
CONTINUOUS
 10
823.9040998205014
 20
264.9813720000268
 30
0.0
 40
5.0
  1
15.1
 50
90.0
  7
HELVETICA_NEUE_REGULAR
1001
ACADANNOTATIVE
1000
AnnotativeData
1002
{
1070
     1
1070
     0
1002
}
  0
LINE
  5
172
  8
TESTS
 10
840.5550490743944
 20
457.9460953288066
 30
0.0
 11
840.5550490743944
 21
453.5460953288066
 31
0.0
  0
LINE
  5
173
  8
TESTS
 10
840.5550490743944
 20
453.5460953288066
 30
0.0
 11
855.5550490743944
 21
453.5460953288066
 31
0.0
  0
LINE
  5
174
  8
TESTS
 10
855.5550490743944
 20
453.5460953288066
 30
0.0
 11
855.5550490743944
 21
468.5460953288066
 31
0.0
  0
LINE
  5
175
  8
TESTS
 10
855.5550490743944
 20
468.5460953288066
 30
0.0
 11
840.5550490743944
 21
468.5460953288066
 31
0.0
  0
LINE
  5
176
  8
TESTS
 10
840.5550490743944
 20
468.5460953288066
 30
0.0
 11
840.5550490743944
 21
463.9460953288066
 31
0.0
  0
ARC
  5
177
  8
TESTS
 10
840.5550490743944
 20
460.9460953288066
 30
0.0
 40
3.0
 50
90.0
 51
270.0
  0
LINE
  5
178
  8
TESTS
 10
765.0433161004291
 20
457.9460953288066
 30
0.0
 11
765.0433161004291
 21
453.5460953288066
 31
0.0
  0
LINE
  5
179
  8
TESTS
 10
765.0433161004291
 20
453.5460953288066
 30
0.0
 11
780.0433161004291
 21
453.5460953288066
 31
0.0
  0
LINE
  5
17A
  8
TESTS
 10
780.0433161004291
 20
453.5460953288066
 30
0.0
 11
780.0433161004291
 21
468.3460953288066
 31
0.0
  0
LINE
  5
17B
  8
TESTS
 10
780.0433161004291
 20
468.3460953288066
 30
0.0
 11
765.0433161004291
 21
468.3460953288066
 31
0.0
  0
LINE
  5
17C
  8
TESTS
 10
765.0433161004291
 20
468.3460953288066
 30
0.0
 11
765.0433161004291
 21
463.9460953288066
 31
0.0
  0
ARC
  5
17D
  8
TESTS
 10
-765.0433161004291
 20
460.9460953288066
 30
0.0
 40
3.0
 50
90.0
 51
270.0
210
0.0
220
0.0
230
-1.0
  0
LINE
  5
17E
  8
TESTS
 10
801.0728121434698
 20
453.5460953288066
 30
0.0
 11
816.0728121434698
 21
453.5460953288066
 31
0.0
  0
LINE
  5
17F
  8
TESTS
 10
816.0728121434698
 20
453.5460953288066
 30
0.0
 11
816.0728121434698
 21
468.4460953288066
 31
0.0
  0
LINE
  5
180
  8
TESTS
 10
816.0728121434698
 20
468.4460953288066
 30
0.0
 11
801.0728121434698
 21
468.4460953288066
 31
0.0
  0
LINE
  5
181
  8
TESTS
 10
801.0728121434698
 20
468.4460953288066
 30
0.0
 11
801.0728121434698
 21
453.5460953288066
 31
0.0
  0
ARC
  5
182
  8
TESTS
 10
-1092.874996655638
 20
476.1499545856402
 30
0.0
 40
3.0
 50
180.0
 51
0.0
210
0.0
220
0.0
230
-1.0
  0
LINE
  5
183
  8
TESTS
 10
1089.874996655638
 20
476.1499545856402
 30
0.0
 11
1086.824996655638
 21
476.1499545856402
 31
0.0
  0
ARC
  5
184
  8
TESTS
 10
-1083.824996655638
 20
476.1499545856402
 30
0.0
 40
3.0
 50
180.0
 51
0.0
210
0.0
220
0.0
230
-1.0
  0
LINE
  5
185
  8
TESTS
 10
1080.824996655638
 20
476.1499545856402
 30
0.0
 11
1080.824996655638
 21
491.1499545856402
 31
0.0
  0
LINE
  5
186
  8
TESTS
 10
1080.824996655638
 20
491.1499545856402
 30
0.0
 11
1055.824996655638
 21
491.1499545856402
 31
0.0
  0
LINE
  5
187
  8
TESTS
 10
1055.824996655638
 20
491.1499545856402
 30
0.0
 11
1055.824996655638
 21
476.1499545856402
 31
0.0
  0
LINE
  5
188
  8
TESTS
 10
1055.824996655638
 20
476.1499545856402
 30
0.0
 11
1055.724996655639
 21
476.1499545856402
 31
0.0
  0
ARC
  5
189
  8
TESTS
 10
-1052.724996655639
 20
476.1499545856402
 30
0.0
 40
3.0
 50
180.0
 51
0.0
210
0.0
220
0.0
230
-1.0
  0
LINE
  5
18A
  8
TESTS
 10
1049.724996655639
 20
476.1499545856402
 30
0.0
 11
1046.674996655639
 21
476.1499545856402
 31
0.0
  0
ARC
  5
18B
  8
TESTS
 10
-1043.674996655639
 20
476.1499545856402
 30
0.0
 40
3.0
 50
180.0
 51
0.0
210
0.0
220
0.0
230
-1.0
  0
LINE
  5
18C
  8
TESTS
 10
1040.674996655639
 20
476.1499545856402
 30
0.0
 11
1040.674996655639
 21
491.1499545856402
 31
0.0
  0
LINE
  5
18D
  8
TESTS
 10
1040.674996655639
 20
491.1499545856402
 30
0.0
 11
1015.674996655639
 21
491.1499545856402
 31
0.0
  0
LINE
  5
18E
  8
TESTS
 10
1015.674996655639
 20
491.1499545856402
 30
0.0
 11
1015.674996655639
 21
476.1499545856402
 31
0.0
  0
LINE
  5
18F
  8
TESTS
 10
1015.674996655639
 20
476.1499545856402
 30
0.0
 11
1015.624996655639
 21
476.1499545856402
 31
0.0
  0
ARC
  5
190
  8
TESTS
 10
-1012.624996655639
 20
476.1499545856402
 30
0.0
 40
3.0
 50
180.0
 51
0.0000000000010856
210
0.0
220
0.0
230
-1.0
  0
LINE
  5
191
  8
TESTS
 10
1009.624996655639
 20
476.1499545856402
 30
0.0
 11
1006.574996655639
 21
476.1499545856402
 31
0.0
  0
ARC
  5
192
  8
TESTS
 10
-1003.574996655639
 20
476.1499545856402
 30
0.0
 40
3.0
 50
180.0
 51
0.0
210
0.0
220
0.0
230
-1.0
  0
LINE
  5
193
  8
TESTS
 10
1000.574996655639
 20
476.1499545856402
 30
0.0
 11
1000.574996655639
 21
491.1499545856402
 31
0.0
  0
LINE
  5
194
  8
TESTS
 10
1000.574996655639
 20
491.1499545856402
 30
0.0
 11
975.5749966556391
 21
491.1499545856402
 31
0.0
  0
LINE
  5
195
  8
TESTS
 10
975.5749966556391
 20
491.1499545856402
 30
0.0
 11
975.5749966556391
 21
476.1499545856402
 31
0.0
  0
ARC
  5
196
  8
TESTS
 10
-972.5749966556391
 20
476.1499545856402
 30
0.0
 40
3.0
 50
180.0
 51
0.0
210
0.0
220
0.0
230
-1.0
  0
LINE
  5
197
  8
TESTS
 10
969.5749966556391
 20
476.1499545856402
 30
0.0
 11
966.5249966556389
 21
476.1499545856402
 31
0.0
  0
ARC
  5
198
  8
TESTS
 10
-963.5249966556389
 20
476.1499545856402
 30
0.0
 40
3.0
 50
180.0
 51
0.0
210
0.0
220
0.0
230
-1.0
  0
LINE
  5
199
  8
TESTS
 10
960.5249966556389
 20
476.1499545856402
 30
0.0
 11
960.5249966556398
 21
491.1499545856402
 31
0.0
  0
LINE
  5
19A
  8
TESTS
 10
960.5249966556398
 20
491.1499545856402
 30
0.0
 11
935.5249966556398
 21
491.1499545856402
 31
0.0
  0
LINE
  5
19B
  8
TESTS
 10
935.5249966556398
 20
491.1499545856402
 30
0.0
 11
935.5249966556398
 21
476.1499545856402
 31
0.0
  0
ARC
  5
19C
  8
TESTS
 10
-932.5249966556398
 20
476.1499545856402
 30
0.0
 40
3.0
 50
180.0
 51
0.0
210
0.0
220
0.0
230
-1.0
  0
LINE
  5
19D
  8
TESTS
 10
929.5249966556398
 20
476.1499545856402
 30
0.0
 11
920.5249966556398
 21
476.1499545856402
 31
0.0
  0
LINE
  5
19E
  8
TESTS
 10
920.5249966556398
 20
476.1499545856402
 30
0.0
 11
920.5249966556398
 21
451.1499545856402
 31
0.0
  0
LINE
  5
19F
  8
TESTS
 10
920.5249966556398
 20
451.1499545856402
 30
0.0
 11
1121.024996655638
 21
451.1499545856402
 31
0.0
  0
LINE
  5
1A0
  8
TESTS
 10
1121.024996655638
 20
451.1499545856402
 30
0.0
 11
1121.024996655638
 21
491.1499545856402
 31
0.0
  0
LINE
  5
1A1
  8
TESTS
 10
1121.024996655638
 20
491.1499545856402
 30
0.0
 11
1096.024996655638
 21
491.1499545856402
 31
0.0
  0
LINE
  5
1A2
  8
TESTS
 10
1096.024996655638
 20
491.1499545856402
 30
0.0
 11
1096.024996655638
 21
476.1499545856402
 31
0.0
  0
LINE
  5
1A3
  8
TESTS
 10
1096.024996655638
 20
476.1499545856402
 30
0.0
 11
1095.874996655638
 21
476.1499545856402
 31
0.0
  0
LINE
  5
1A4
  8
TESTS
 10
765.0433161004291
 20
394.4052557288616
 30
0.0
 11
765.0433161004291
 21
392.5052557288615
 31
0.0
  0
LINE
  5
1A5
  8
TESTS
 10
765.0433161004291
 20
392.5052557288615
 30
0.0
 11
780.0433161004291
 21
392.5052557288615
 31
0.0
  0
LINE
  5
1A6
  8
TESTS
 10
780.0433161004291
 20
392.5052557288615
 30
0.0
 11
780.0433161004291
 21
402.3052557288615
 31
0.0
  0
LINE
  5
1A7
  8
TESTS
 10
780.0433161004291
 20
402.3052557288615
 30
0.0
 11
765.0433161004291
 21
402.3052557288615
 31
0.0
  0
LINE
  5
1A8
  8
TESTS
 10
765.0433161004291
 20
402.3052557288615
 30
0.0
 11
765.0433161004291
 21
400.4052557288614
 31
0.0
  0
ARC
  5
1A9
  8
TESTS
 10
-765.0433161004291
 20
397.4052557288616
 30
0.0
 40
3.0
 50
90.00000000000433
 51
270.0
210
0.0
220
0.0
230
-1.0
  0
LINE
  5
1AA
  8
TESTS
 10
816.0728121434698
 20
392.5052557288615
 30
0.0
 11
816.0728121434698
 21
402.4052557288614
 31
0.0
  0
LINE
  5
1AB
  8
TESTS
 10
816.0728121434698
 20
402.4052557288614
 30
0.0
 11
801.0728121434698
 21
402.4052557288614
 31
0.0
  0
LINE
  5
1AC
  8
TESTS
 10
801.0728121434698
 20
402.4052557288614
 30
0.0
 11
801.0728121434698
 21
392.5052557288615
 31
0.0
  0
LINE
  5
1AD
  8
TESTS
 10
801.0728121434698
 20
392.5052557288615
 30
0.0
 11
816.0728121434698
 21
392.5052557288615
 31
0.0
  0
LINE
  5
1AE
  8
TESTS
 10
840.5550490743944
 20
394.5052557288615
 30
0.0
 11
840.5550490743944
 21
392.5052557288615
 31
0.0
  0
LINE
  5
1AF
  8
TESTS
 10
840.5550490743944
 20
392.5052557288615
 30
0.0
 11
855.5550490743944
 21
392.5052557288615
 31
0.0
  0
LINE
  5
1B0
  8
TESTS
 10
855.5550490743944
 20
392.5052557288615
 30
0.0
 11
855.5550490743944
 21
402.5052557288615
 31
0.0
  0
LINE
  5
1B1
  8
TESTS
 10
855.5550490743944
 20
402.5052557288615
 30
0.0
 11
840.5550490743944
 21
402.5052557288615
 31
0.0
  0
LINE
  5
1B2
  8
TESTS
 10
840.5550490743944
 20
402.5052557288615
 30
0.0
 11
840.5550490743944
 21
400.5052557288615
 31
0.0
  0
ARC
  5
1B3
  8
TESTS
 10
840.5550490743944
 20
397.5052557288615
 30
0.0
 40
3.0
 50
90.0
 51
270.0
  0
ARC
  5
1B4
  8
TESTS
 10
-1092.874996655638
 20
393.8453393308328
 30
0.0
 40
3.0
 50
180.0
 51
0.0
210
0.0
220
0.0
230
-1.0
  0
LINE
  5
1B5
  8
TESTS
 10
1089.874996655638
 20
393.8453393308328
 30
0.0
 11
1086.824996655638
 21
393.8453393308328
 31
0.0
  0
ARC
  5
1B6
  8
TESTS
 10
-1083.824996655638
 20
393.8453393308328
 30
0.0
 40
3.0
 50
180.0
 51
0.0
210
0.0
220
0.0
230
-1.0
  0
LINE
  5
1B7
  8
TESTS
 10
1080.824996655638
 20
393.8453393308328
 30
0.0
 11
1080.824996655638
 21
403.8453393308328
 31
0.0
  0
LINE
  5
1B8
  8
TESTS
 10
1080.824996655638
 20
403.8453393308328
 30
0.0
 11
1055.824996655638
 21
403.8453393308328
 31
0.0
  0
LINE
  5
1B9
  8
TESTS
 10
1055.824996655638
 20
403.8453393308328
 30
0.0
 11
1055.824996655638
 21
393.8453393308328
 31
0.0
  0
LINE
  5
1BA
  8
TESTS
 10
1055.824996655638
 20
393.8453393308328
 30
0.0
 11
1055.724996655639
 21
393.8453393308328
 31
0.0
  0
ARC
  5
1BB
  8
TESTS
 10
-1052.724996655639
 20
393.8453393308328
 30
0.0
 40
3.0
 50
180.0
 51
0.0
210
0.0
220
0.0
230
-1.0
  0
LINE
  5
1BC
  8
TESTS
 10
1049.724996655639
 20
393.8453393308328
 30
0.0
 11
1046.674996655639
 21
393.8453393308328
 31
0.0
  0
ARC
  5
1BD
  8
TESTS
 10
-1043.674996655639
 20
393.8453393308328
 30
0.0
 40
3.0
 50
180.0
 51
0.0
210
0.0
220
0.0
230
-1.0
  0
LINE
  5
1BE
  8
TESTS
 10
1040.674996655639
 20
393.8453393308328
 30
0.0
 11
1040.674996655639
 21
403.8453393308328
 31
0.0
  0
LINE
  5
1BF
  8
TESTS
 10
1040.674996655639
 20
403.8453393308328
 30
0.0
 11
1015.674996655639
 21
403.8453393308328
 31
0.0
  0
LINE
  5
1C0
  8
TESTS
 10
1015.674996655639
 20
403.8453393308328
 30
0.0
 11
1015.674996655639
 21
393.8453393308328
 31
0.0
  0
LINE
  5
1C1
  8
TESTS
 10
1015.674996655639
 20
393.8453393308328
 30
0.0
 11
1015.624996655639
 21
393.8453393308328
 31
0.0
  0
ARC
  5
1C2
  8
TESTS
 10
-1012.624996655639
 20
393.8453393308328
 30
0.0
 40
3.0
 50
180.0
 51
0.0000000000010856
210
0.0
220
0.0
230
-1.0
  0
LINE
  5
1C3
  8
TESTS
 10
1009.624996655639
 20
393.8453393308329
 30
0.0
 11
1006.574996655639
 21
393.8453393308328
 31
0.0
  0
ARC
  5
1C4
  8
TESTS
 10
-1003.574996655639
 20
393.8453393308328
 30
0.0
 40
3.0
 50
180.0
 51
0.0
210
0.0
220
0.0
230
-1.0
  0
LINE
  5
1C5
  8
TESTS
 10
1000.574996655639
 20
393.8453393308328
 30
0.0
 11
1000.574996655639
 21
403.8453393308328
 31
0.0
  0
LINE
  5
1C6
  8
TESTS
 10
1000.574996655639
 20
403.8453393308328
 30
0.0
 11
975.5749966556391
 21
403.8453393308328
 31
0.0
  0
LINE
  5
1C7
  8
TESTS
 10
975.5749966556391
 20
403.8453393308328
 30
0.0
 11
975.5749966556391
 21
393.8453393308328
 31
0.0
  0
ARC
  5
1C8
  8
TESTS
 10
-972.5749966556391
 20
393.8453393308328
 30
0.0
 40
3.0
 50
180.0
 51
0.0
210
0.0
220
0.0
230
-1.0
  0
LINE
  5
1C9
  8
TESTS
 10
969.5749966556391
 20
393.8453393308328
 30
0.0
 11
966.5249966556389
 21
393.8453393308328
 31
0.0
  0
ARC
  5
1CA
  8
TESTS
 10
-963.5249966556389
 20
393.8453393308328
 30
0.0
 40
3.0
 50
180.0
 51
0.0
210
0.0
220
0.0
230
-1.0
  0
LINE
  5
1CB
  8
TESTS
 10
960.5249966556389
 20
393.8453393308328
 30
0.0
 11
960.5249966556398
 21
403.8453393308328
 31
0.0
  0
LINE
  5
1CC
  8
TESTS
 10
960.5249966556398
 20
403.8453393308328
 30
0.0
 11
935.5249966556398
 21
403.8453393308328
 31
0.0
  0
LINE
  5
1CD
  8
TESTS
 10
935.5249966556398
 20
403.8453393308328
 30
0.0
 11
935.5249966556398
 21
393.8453393308328
 31
0.0
  0
ARC
  5
1CE
  8
TESTS
 10
-932.5249966556398
 20
393.8453393308328
 30
0.0
 40
3.0
 50
180.0
 51
0.0
210
0.0
220
0.0
230
-1.0
  0
LINE
  5
1CF
  8
TESTS
 10
929.5249966556398
 20
393.8453393308328
 30
0.0
 11
920.5249966556398
 21
393.8453393308328
 31
0.0
  0
LINE
  5
1D0
  8
TESTS
 10
920.5249966556398
 20
393.8453393308328
 30
0.0
 11
920.5249966556398
 21
378.8453393308328
 31
0.0
  0
LINE
  5
1D1
  8
TESTS
 10
920.5249966556398
 20
378.8453393308328
 30
0.0
 11
1121.024996655637
 21
378.8453393308328
 31
0.0
  0
LINE
  5
1D2
  8
TESTS
 10
1121.024996655637
 20
378.8453393308328
 30
0.0
 11
1121.024996655638
 21
403.8453393308328
 31
0.0
  0
LINE
  5
1D3
  8
TESTS
 10
1121.024996655638
 20
403.8453393308328
 30
0.0
 11
1096.024996655638
 21
403.8453393308328
 31
0.0
  0
LINE
  5
1D4
  8
TESTS
 10
1096.024996655638
 20
403.8453393308328
 30
0.0
 11
1096.024996655638
 21
393.8453393308328
 31
0.0
  0
LINE
  5
1D5
  8
TESTS
 10
1096.024996655638
 20
393.8453393308328
 30
0.0
 11
1095.874996655638
 21
393.8453393308328
 31
0.0
  0
TEXT
  5
1D6
  8
TESTS
  6
CONTINUOUS
 10
839.8586799544888
 20
385.589421033414
 30
0.0
 40
5.0
  1
10.0
  7
HELVETICA_NEUE_REGULAR
1001
ACADANNOTATIVE
1000
AnnotativeData
1002
{
1070
     1
1070
     0
1002
}
  0
TEXT
  5
1D7
  8
TESTS
  6
CONTINUOUS
 10
802.8529707107184
 20
385.589421033414
 30
0.0
 40
5.0
  1
9.9
  7
HELVETICA_NEUE_REGULAR
1001
ACADANNOTATIVE
1000
AnnotativeData
1002
{
1070
     1
1070
     0
1002
}
  0
TEXT
  5
1D8
  8
TESTS
  6
CONTINUOUS
 10
766.8234746676777
 20
385.589421033414
 30
0.0
 40
5.0
  1
9.8
  7
HELVETICA_NEUE_REGULAR
1001
ACADANNOTATIVE
1000
AnnotativeData
1002
{
1070
     1
1070
     0
1002
}
  0
TEXT
  5
1D9
  8
TESTS
  6
CONTINUOUS
 10
839.8586799544888
 20
446.0660728112532
 30
0.0
 40
5.0
  1
15.0
  7
HELVETICA_NEUE_REGULAR
1001
ACADANNOTATIVE
1000
AnnotativeData
1002
{
1070
     1
1070
     0
1002
}
  0
TEXT
  5
1DA
  8
TESTS
  6
CONTINUOUS
 10
800.6505694936602
 20
446.0660728112532
 30
0.0
 40
5.0
  1
14.9
  7
HELVETICA_NEUE_REGULAR
1001
ACADANNOTATIVE
1000
AnnotativeData
1002
{
1070
     1
1070
     0
1002
}
  0
TEXT
  5
1DB
  8
TESTS
  6
CONTINUOUS
 10
764.6210734506196
 20
446.0660728112532
 30
0.0
 40
5.0
  1
14.8
  7
HELVETICA_NEUE_REGULAR
1001
ACADANNOTATIVE
1000
AnnotativeData
1002
{
1070
     1
1070
     0
1002
}
  0
TEXT
  5
1DC
  8
TESTS
  6
CONTINUOUS
 10
919.7210311255596
 20
383.1114672699452
 30
0.0
 40
5.0
  1
15.0
  7
HELVETICA_NEUE_REGULAR
1001
ACADANNOTATIVE
1000
AnnotativeData
1002
{
1070
     1
1070
     0
1002
}
  0
TEXT
  5
1DD
  8
TESTS
  6
CONTINUOUS
 10
959.9553005630477
 20
383.5068900653996
 30
0.0
 40
5.0
  1
15.05
  7
HELVETICA_NEUE_REGULAR
1001
ACADANNOTATIVE
1000
AnnotativeData
1002
{
1070
     1
1070
     0
1002
}
  0
TEXT
  5
1DE
  8
TESTS
  6
CONTINUOUS
 10
999.8930029039449
 20
383.3091786676724
 30
0.0
 40
5.0
  1
15.1
  7
HELVETICA_NEUE_REGULAR
1001
ACADANNOTATIVE
1000
AnnotativeData
1002
{
1070
     1
1070
     0
1002
}
  0
TEXT
  5
1DF
  8
TESTS
  6
CONTINUOUS
 10
1040.46827010259
 20
383.4603077718308
 30
0.0
 40
5.0
  1
15.15
  7
HELVETICA_NEUE_REGULAR
1001
ACADANNOTATIVE
1000
AnnotativeData
1002
{
1070
     1
1070
     0
1002
}
  0
TEXT
  5
1E0
  8
TESTS
  6
CONTINUOUS
 10
1079.717316488212
 20
383.4603077718308
 30
0.0
 40
5.0
  1
15.2
  7
HELVETICA_NEUE_REGULAR
1001
ACADANNOTATIVE
1000
AnnotativeData
1002
{
1070
     1
1070
     0
1002
}
  0
TEXT
  5
1E1
  8
TESTS
  6
CONTINUOUS
 10
919.7210311255596
 20
465.1478934920948
 30
0.0
 40
5.0
  1
15.0
  7
HELVETICA_NEUE_REGULAR
1001
ACADANNOTATIVE
1000
AnnotativeData
1002
{
1070
     1
1070
     0
1002
}
  0
TEXT
  5
1E2
  8
TESTS
  6
CONTINUOUS
 10
959.9553005630477
 20
465.5433162875492
 30
0.0
 40
5.0
  1
15.05
  7
HELVETICA_NEUE_REGULAR
1001
ACADANNOTATIVE
1000
AnnotativeData
1002
{
1070
     1
1070
     0
1002
}
  0
TEXT
  5
1E3
  8
TESTS
  6
CONTINUOUS
 10
999.8930029039449
 20
465.345604889822
 30
0.0
 40
5.0
  1
15.1
  7
HELVETICA_NEUE_REGULAR
1001
ACADANNOTATIVE
1000
AnnotativeData
1002
{
1070
     1
1070
     0
1002
}
  0
TEXT
  5
1E4
  8
TESTS
  6
CONTINUOUS
 10
1040.46827010259
 20
465.4967339939804
 30
0.0
 40
5.0
  1
15.15
  7
HELVETICA_NEUE_REGULAR
1001
ACADANNOTATIVE
1000
AnnotativeData
1002
{
1070
     1
1070
     0
1002
}
  0
TEXT
  5
1E5
  8
TESTS
  6
CONTINUOUS
 10
1079.717316488212
 20
465.4967339939804
 30
0.0
 40
5.0
  1
15.2
  7
HELVETICA_NEUE_REGULAR
1001
ACADANNOTATIVE
1000
AnnotativeData
1002
{
1070
     1
1070
     0
1002
}
  0
TEXT
  5
1E6
  8
TESTS
  6
CONTINUOUS
 10
921.9744534486822
 20
532.4314732188973
 30
0.0
 40
5.0
  1
15.0
  7
HELVETICA_NEUE_REGULAR
1001
ACADANNOTATIVE
1000
AnnotativeData
1002
{
1070
     1
1070
     0
1002
}
  0
TEXT
  5
1E7
  8
TESTS
  6
CONTINUOUS
 10
962.2087228861702
 20
532.8268960143516
 30
0.0
 40
5.0
  1
15.05
  7
HELVETICA_NEUE_REGULAR
1001
ACADANNOTATIVE
1000
AnnotativeData
1002
{
1070
     1
1070
     0
1002
}
  0
TEXT
  5
1E8
  8
TESTS
  6
CONTINUOUS
 10
1002.146425227067
 20
532.6291846166245
 30
0.0
 40
5.0
  1
15.1
  7
HELVETICA_NEUE_REGULAR
1001
ACADANNOTATIVE
1000
AnnotativeData
1002
{
1070
     1
1070
     0
1002
}
  0
TEXT
  5
1E9
  8
TESTS
  6
CONTINUOUS
 10
1042.721692425713
 20
532.7803137207828
 30
0.0
 40
5.0
  1
15.15
  7
HELVETICA_NEUE_REGULAR
1001
ACADANNOTATIVE
1000
AnnotativeData
1002
{
1070
     1
1070
     0
1002
}
  0
TEXT
  5
1EA
  8
TESTS
  6
CONTINUOUS
 10
1081.970738811334
 20
532.7803137207828
 30
0.0
 40
5.0
  1
15.2
  7
HELVETICA_NEUE_REGULAR
1001
ACADANNOTATIVE
1000
AnnotativeData
1002
{
1070
     1
1070
     0
1002
}
  0
DIMENSION
  5
1ED
  8
DEFAULT
  2
*D1
 10
909.8421238459338
 20
567.4997054247597
 30
0.0
 11
907.5921238459338
 21
554.9997054247597
 31
0.0
 70
    32
  1
<>
  3
DEFAULT
 13
929.5249966556398
 23
542.4997054247597
 33
0.0
 14
935.5249966556398
 24
567.4997054247597
 34
0.0
 50
90.0
1001
ACAD
1000
DSTYLE
1002
{
1070
   287
1070
     3
1070
     5
1000

1070
    74
1070
     0
1070
   173
1070
     0
1070
    40
1040
1.0
1070
   144
1040
1.0
1070
   179
1070
     2
1070
   143
1040
1.0
1070
    41
1040
1.0
1070
    79
1070
     1
1070
   141
1040
0.5
1070
   271
1070
     2
1070
    44
1040
0.5
1070
    42
1040
0.5
1070
   147
1040
0.25
1070
    77
1070
     1
1070
    73
1070
     0
1070
   174
1070
     0
1070
   279
1070
     0
1070
   340
1005
76
1070
   140
1040
4.0
1070
   284
1070
     1
1070
    78
1070
     1
1002
}
  0
DIMENSION
  5
1FB
  8
DEFAULT
  2
*D2
 10
901.2375153066766
 20
567.4997054247597
 30
0.0
 11
898.9875153066766
 21
547.4997054247597
 31
0.0
 70
    32
  1
<>
  3
DEFAULT
 13
920.5249966556398
 23
527.4997054247597
 33
0.0
 14
935.5249966556398
 24
567.4997054247597
 34
0.0
 50
90.0
1001
ACAD
1000
DSTYLE
1002
{
1070
   287
1070
     3
1070
     5
1000

1070
    74
1070
     0
1070
   173
1070
     0
1070
    40
1040
1.0
1070
   144
1040
1.0
1070
   179
1070
     2
1070
   143
1040
1.0
1070
    41
1040
1.0
1070
    79
1070
     1
1070
   141
1040
0.5
1070
   271
1070
     2
1070
    44
1040
0.5
1070
    42
1040
0.5
1070
   147
1040
0.25
1070
    77
1070
     1
1070
    73
1070
     0
1070
   174
1070
     0
1070
   279
1070
     0
1070
   340
1005
76
1070
   140
1040
4.0
1070
   284
1070
     1
1070
    78
1070
     1
1002
}
  0
DIMENSION
  5
208
  8
DEFAULT
  2
*D3
 10
912.7851790584153
 20
491.1499545856402
 30
0.0
 11
910.5351790584153
 21
500.1142402999258
 31
0.0
 70
    32
  1
<>
  3
DEFAULT
 13
920.5249966556398
 23
476.1499545856402
 33
0.0
 14
935.5249966556398
 24
491.1499545856402
 34
0.0
 50
90.0
1001
ACAD
1000
DSTYLE
1002
{
1070
   287
1070
     3
1070
     5
1000

1070
    74
1070
     0
1070
   173
1070
     0
1070
    40
1040
1.0
1070
   144
1040
1.0
1070
   179
1070
     2
1070
   143
1040
1.0
1070
    41
1040
1.0
1070
    79
1070
     1
1070
   141
1040
0.5
1070
   271
1070
     2
1070
    44
1040
0.5
1070
    42
1040
0.5
1070
   147
1040
0.25
1070
    77
1070
     1
1070
    73
1070
     0
1070
   174
1070
     0
1070
   279
1070
     0
1070
   340
1005
76
1070
   140
1040
4.0
1070
   284
1070
     1
1070
    78
1070
     1
1002
}
  0
DIMENSION
  5
216
  8
DEFAULT
  2
*D4
 10
903.1717543455902
 20
491.1499545856402
 30
0.0
 11
900.9217543455902
 21
471.1499545856402
 31
0.0
 70
    32
  1
<>
  3
DEFAULT
 13
920.5249966556398
 23
451.1499545856402
 33
0.0
 14
935.5249966556398
 24
491.1499545856402
 34
0.0
 50
90.0
1001
ACAD
1000
DSTYLE
1002
{
1070
   287
1070
     3
1070
     5
1000

1070
    74
1070
     0
1070
   173
1070
     0
1070
    40
1040
1.0
1070
   144
1040
1.0
1070
   179
1070
     2
1070
   143
1040
1.0
1070
    41
1040
1.0
1070
    79
1070
     1
1070
   141
1040
0.5
1070
   271
1070
     2
1070
    44
1040
0.5
1070
    42
1040
0.5
1070
   147
1040
0.25
1070
    77
1070
     1
1070
    73
1070
     0
1070
   174
1070
     0
1070
   279
1070
     0
1070
   340
1005
76
1070
   140
1040
4.0
1070
   284
1070
     1
1070
    78
1070
     1
1002
}
  0
DIMENSION
  5
223
  8
DEFAULT
  2
*D5
 10
909.4894371422921
 20
403.8453393308328
 30
0.0
 11
907.2394371422921
 21
412.8096250451185
 31
0.0
 70
    32
  1
<>
  3
DEFAULT
 13
929.5249966556398
 23
393.8453393308328
 33
0.0
 14
935.5249966556398
 24
403.8453393308328
 34
0.0
 50
90.0
1001
ACAD
1000
DSTYLE
1002
{
1070
   287
1070
     3
1070
     5
1000

1070
    74
1070
     0
1070
   173
1070
     0
1070
    40
1040
1.0
1070
   144
1040
1.0
1070
   179
1070
     2
1070
   143
1040
1.0
1070
    41
1040
1.0
1070
    79
1070
     1
1070
   141
1040
0.5
1070
   271
1070
     2
1070
    44
1040
0.5
1070
    42
1040
0.5
1070
   147
1040
0.25
1070
    77
1070
     1
1070
    73
1070
     0
1070
   174
1070
     0
1070
   279
1070
     0
1070
   340
1005
76
1070
   140
1040
4.0
1070
   284
1070
     1
1070
    78
1070
     1
1002
}
  0
DIMENSION
  5
231
  8
DEFAULT
  2
*D6
 10
901.5583617542114
 20
403.8453393308328
 30
0.0
 11
899.3083617542114
 21
391.3453393308328
 31
0.0
 70
    32
  1
<>
  3
DEFAULT
 13
920.5249966556398
 23
378.8453393308328
 33
0.0
 14
935.5249966556398
 24
403.8453393308328
 34
0.0
 50
90.0
1001
ACAD
1000
DSTYLE
1002
{
1070
   287
1070
     3
1070
     5
1000

1070
    74
1070
     0
1070
   173
1070
     0
1070
    40
1040
1.0
1070
   144
1040
1.0
1070
   179
1070
     2
1070
   143
1040
1.0
1070
    41
1040
1.0
1070
    79
1070
     1
1070
   141
1040
0.5
1070
   271
1070
     2
1070
    44
1040
0.5
1070
    42
1040
0.5
1070
   147
1040
0.25
1070
    77
1070
     1
1070
    73
1070
     0
1070
   174
1070
     0
1070
   279
1070
     0
1070
   340
1005
76
1070
   140
1040
4.0
1070
   284
1070
     1
1070
    78
1070
     1
1002
}
  0
ENDSEC
  0
EOF
