999
dxfrw 0.6.3
  0
SECTION
  2
HEADER
  9
$ACADVER
  1
AC1021
  9
$DWGCODEPAGE
  3
ANSI_1252
  9
$INSBASE
 10
0
 20
0
 30
0
  9
$EXTMIN
 10
-500
 20
-612.5
 30
0
  9
$EXTMAX
 10
519.1245914989053
 20
546
 30
0
  9
$LIMMIN
 10
0
 20
0
  9
$LIMMAX
 10
420
 20
297
  9
$ORTHOMODE
 70
    0
  9
$REGENMODE
 70
    1
  9
$FILLMODE
 70
    1
  9
$QTEXTMODE
 70
    0
  9
$MIRRTEXT
 70
    0
  9
$LTSCALE
 40
1
  9
$ATTMODE
 70
    0
  9
$TEXTSIZE
 40
2.5
  9
$TRACEWID
 40
15.68
  9
$TEXTSTYLE
  7
STANDARD
  9
$CLAYER
  8
Dimensions
  9
$CELTYPE
  6
BYLAYER
  9
$CECOLOR
 62
  256
  9
$CELTSCALE
 40
1
  9
$DISPSILH
 70
    0
  9
$DIMSCALE
 40
2.5
  9
$DIMASZ
 40
2.5
  9
$DIMEXO
 40
0.625
  9
$DIMDLI
 40
3.75
  9
$DIMRND
 40
0
  9
$DIMDLE
 40
0
  9
$DIMEXE
 40
1.25
  9
$DIMTP
 40
0
  9
$DIMTM
 40
0
  9
$DIMTXT
 40
2.5
  9
$DIMCEN
 40
2.5
  9
$DIMTSZ
 40
0
  9
$DIMTOL
 70
    0
  9
$DIMLIM
 70
    0
  9
$DIMTIH
 70
    0
  9
$DIMTOH
 70
    0
  9
$DIMSE1
 70
    0
  9
$DIMSE2
 70
    0
  9
$DIMTAD
 70
    1
  9
$DIMZIN
 70
    8
  9
$DIMBLK
  1

  9
$DIMASO
 70
    1
  9
$DIMSHO
 70
    1
  9
$DIMPOST
  1

  9
$DIMAPOST
  1

  9
$DIMALT
 70
    0
  9
$DIMALTD
 70
    3
  9
$DIMALTF
 40
0.03937
  9
$DIMLFAC
 40
1
  9
$DIMTOFL
 70
    1
  9
$DIMTVP
 40
0
  9
$DIMTIX
 70
    0
  9
$DIMSOXD
 70
    0
  9
$DIMSAH
 70
    0
  9
$DIMBLK1
  1

  9
$DIMBLK2
  1

  9
$DIMSTYLE
  2
STANDARD
  9
$DIMCLRD
 70
    0
  9
$DIMCLRE
 70
    0
  9
$DIMCLRT
 70
    0
  9
$DIMTFAC
 40
1
  9
$DIMGAP
 40
1
  9
$DIMJUST
 70
    0
  9
$DIMSD1
 70
    0
  9
$DIMSD2
 70
    0
  9
$DIMTOLJ
 70
    0
  9
$DIMTZIN
 70
    8
  9
$DIMALTZ
 70
    0
  9
$DIMALTTZ
 70
    0
  9
$DIMUPT
 70
    0
  9
$DIMDEC
 70
    2
  9
$DIMTDEC
 70
    2
  9
$DIMALTU
 70
    2
  9
$DIMALTTD
 70
    3
  9
$DIMTXSTY
  7
STANDARD
  9
$DIMAUNIT
 70
    0
  9
$DIMADEC
 70
    2
  9
$DIMALTRND
 40
0
  9
$DIMAZIN
 70
    0
  9
$DIMDSEP
 70
   44
  9
$DIMATFIT
 70
    3
  9
$DIMFRAC
 70
    0
  9
$DIMLDRBLK
  1
STANDARD
  9
$DIMLUNIT
 70
    2
  9
$DIMLWD
 70
   -2
  9
$DIMLWE
 70
   -2
  9
$DIMTMOVE
 70
    0
  9
$DIMFXL
 40
1
  9
$DIMFXLON
 70
    0
  9
$DIMJOGANG
 40
0.7854
  9
$DIMTFILL
 70
    0
  9
$DIMTFILLCLR
 70
    0
  9
$DIMARCSYM
 70
    0
  9
$DIMLTYPE
  6

  9
$DIMLTEX1
  6

  9
$DIMLTEX2
  6

  9
$LUNITS
 70
    2
  9
$LUPREC
 70
    4
  9
$SKETCHINC
 40
1
  9
$FILLETRAD
 40
0
  9
$AUNITS
 70
    0
  9
$AUPREC
 70
    2
  9
$MENU
  1
.
  9
$ELEVATION
 40
0
  9
$PELEVATION
 40
0
  9
$THICKNESS
 40
0
  9
$LIMCHECK
 70
    0
  9
$CHAMFERA
 40
0
  9
$CHAMFERB
 40
0
  9
$CHAMFERC
 40
0
  9
$CHAMFERD
 40
0
  9
$SKPOLY
 70
    0
  9
$USRTIMER
 70
    1
  9
$ANGBASE
 50
0
  9
$ANGDIR
 70
    0
  9
$PDMODE
 70
   34
  9
$PDSIZE
 40
0
  9
$PLINEWID
 40
0
  9
$SPLFRAME
 70
    0
  9
$SPLINETYPE
 70
    2
  9
$SPLINESEGS
 70
    8
  9
$HANDSEED
  5
20000
  9
$SURFTAB1
 70
    6
  9
$SURFTAB2
 70
    6
  9
$SURFTYPE
 70
    6
  9
$SURFU
 70
    6
  9
$SURFV
 70
    6
  9
$UCSBASE
  2

  9
$UCSNAME
  2

  9
$UCSORG
 10
0
 20
0
 30
0
  9
$UCSXDIR
 10
1
 20
0
 30
0
  9
$UCSYDIR
 10
0
 20
1
 30
0
  9
$UCSORTHOREF
  2

  9
$UCSORTHOVIEW
 70
    0
  9
$UCSORGTOP
 10
0
 20
0
 30
0
  9
$UCSORGBOTTOM
 10
0
 20
0
 30
0
  9
$UCSORGLEFT
 10
0
 20
0
 30
0
  9
$UCSORGRIGHT
 10
0
 20
0
 30
0
  9
$UCSORGFRONT
 10
0
 20
0
 30
0
  9
$UCSORGBACK
 10
0
 20
0
 30
0
  9
$PUCSBASE
  2

  9
$PUCSNAME
  2

  9
$PUCSORG
 10
0
 20
0
 30
0
  9
$PUCSXDIR
 10
1
 20
0
 30
0
  9
$PUCSYDIR
 10
0
 20
1
 30
0
  9
$PUCSORTHOREF
  2

  9
$PUCSORTHOVIEW
 70
    0
  9
$PUCSORGTOP
 10
0
 20
0
 30
0
  9
$PUCSORGBOTTOM
 10
0
 20
0
 30
0
  9
$PUCSORGLEFT
 10
0
 20
0
 30
0
  9
$PUCSORGRIGHT
 10
0
 20
0
 30
0
  9
$PUCSORGFRONT
 10
0
 20
0
 30
0
  9
$PUCSORGBACK
 10
0
 20
0
 30
0
  9
$USERI1
 70
    0
  9
$USERI2
 70
    0
  9
$USERI3
 70
    0
  9
$USERI4
 70
    0
  9
$USERI5
 70
    0
  9
$USERR1
 40
0
  9
$USERR2
 40
0
  9
$USERR3
 40
0
  9
$USERR4
 40
0
  9
$USERR5
 40
0
  9
$WORLDVIEW
 70
    1
  9
$SHADEDGE
 70
    3
  9
$SHADEDIF
 70
   70
  9
$TILEMODE
 70
    1
  9
$MAXACTVP
 70
   64
  9
$PINSBASE
 10
0
 20
0
 30
0
  9
$PLIMCHECK
 70
    0
  9
$PEXTMIN
 10
0
 20
0
 30
0
  9
$PEXTMAX
 10
0
 20
0
 30
0
  9
$GRIDMODE
 70
    0
  9
$SNAPSTYLE
 70
    0
  9
$PLIMMIN
 10
0
 20
0
  9
$PLIMMAX
 10
297
 20
210
  9
$UNITMODE
 70
    0
  9
$VISRETAIN
 70
    1
  9
$PLINEGEN
 70
    0
  9
$PSLTSCALE
 70
    1
  9
$TREEDEPTH
 70
 3020
  9
$CMLSTYLE
  2
Standard
  9
$CMLJUST
 70
    0
  9
$CMLSCALE
 40
20
  9
$PROXYGRAPHICS
 70
    1
  9
$MEASUREMENT
 70
    1
  9
$CELWEIGHT
370
   -1
  9
$ENDCAPS
280
    0
  9
$JOINSTYLE
280
    0
  9
$LWDISPLAY
290
    0
  9
$INSUNITS
 70
    0
  9
$HYPERLINKBASE
  1

  9
$STYLESHEET
  1

  9
$XEDIT
290
    1
  9
$CEPSNTYPE
380
    0
  9
$PSTYLEMODE
290
    1
  9
$EXTNAMES
290
    1
  9
$PSVPSCALE
 40
0
  9
$OLESTARTUP
290
    0
  9
$SORTENTS
280
  127
  9
$INDEXCTL
280
    0
  9
$HIDETEXT
280
    1
  9
$XCLIPFRAME
290
    0
  9
$HALOGAP
280
    0
  9
$OBSCOLOR
 70
  257
  9
$OBSLTYPE
280
    0
  9
$INTERSECTIONDISPLAY
280
    0
  9
$INTERSECTIONCOLOR
 70
  257
  9
$DIMASSOC
280
    1
  9
$PROJECTNAME
  1

  9
$CAMERADISPLAY
290
    0
  9
$LENSLENGTH
 40
50
  9
$CAMERAHEIGHT
 40
0
  9
$STEPSPERSEC
 40
2
  9
$STEPSIZE
 40
50
  9
$3DDWFPREC
 40
2
  9
$PSOLWIDTH
 40
5
  9
$PSOLHEIGHT
 40
80
  9
$LOFTANG1
 40
1.570796326794897
  9
$LOFTANG2
 40
1.570796326794897
  9
$LOFTMAG1
 40
0
  9
$LOFTMAG2
 40
0
  9
$LOFTPARAM
 70
    7
  9
$LOFTNORMALS
280
    1
  9
$LATITUDE
 40
1
  9
$LONGITUDE
 40
1
  9
$NORTHDIRECTION
 40
0
  9
$TIMEZONE
 70
-8000
  9
$LIGHTGLYPHDISPLAY
280
    1
  9
$TILEMODELIGHTSYNCH
280
    1
  9
$SOLIDHIST
280
    1
  9
$SHOWHIST
280
    1
  9
$DWFFRAME
280
    2
  9
$DGNFRAME
280
    0
  9
$REALWORLDSCALE
290
    1
  9
$INTERFERECOLOR
 62
    1
  9
$CSHADOW
280
    0
  9
$SHADOWPLANELOCATION
 40
0
  0
ENDSEC
  0
SECTION
  2
CLASSES
  0
ENDSEC
  0
SECTION
  2
TABLES
  0
TABLE
  2
VPORT
  5
8
330
0
100
AcDbSymbolTable
 70
    1
  0
VPORT
  5
31
330
2
100
AcDbSymbolTableRecord
100
AcDbViewportTableRecord
  2
*ACTIVE
 70
    0
 10
0
 20
0
 11
1
 21
1
 12
260.0783103156688
 22
71.23700882228204
 13
0
 23
0
 14
10
 24
10
 15
10
 25
10
 16
0
 26
0
 36
1
 17
0
 27
0
 37
0
 40
434.1663851298846
 41
1.966990291262136
 42
50
 43
0
 44
0
 50
0
 51
0
 71
    0
 72
  100
 73
    1
 74
    3
 75
    0
 76
    0
 77
    0
 78
    0
281
    0
 65
    1
110
0
120
0
130
0
111
1
121
0
131
0
112
0
122
1
132
0
 79
    0
146
0
348
10020
 60
    7
 61
    5
292
1
282
    1
141
0
142
0
 63
  250
421
3358443
  0
ENDTAB
  0
TABLE
  2
LTYPE
  5
5
330
0
100
AcDbSymbolTable
 70
    4
  0
LTYPE
  5
14
330
5
100
AcDbSymbolTableRecord
100
AcDbLinetypeTableRecord
  2
ByBlock
 70
    0
  3

 72
   65
 73
    0
 40
0
  0
LTYPE
  5
15
330
5
100
AcDbSymbolTableRecord
100
AcDbLinetypeTableRecord
  2
ByLayer
 70
    0
  3

 72
   65
 73
    0
 40
0
  0
LTYPE
  5
16
330
5
100
AcDbSymbolTableRecord
100
AcDbLinetypeTableRecord
  2
Continuous
 70
    0
  3
Solid line
 72
   65
 73
    0
 40
0
  0
LTYPE
  5
32
330
5
100
AcDbSymbolTableRecord
100
AcDbLinetypeTableRecord
  2
DOT
 70
    0
  3
Dot . . . . . . . . . . . . . . . . . . . . . .
 72
   65
 73
    2
 40
6.35
 49
0
 74
    0
 49
-6.35
 74
    0
  0
LTYPE
  5
33
330
5
100
AcDbSymbolTableRecord
100
AcDbLinetypeTableRecord
  2
DOTTINY
 70
    0
  3
Dot (.15x) .....................................
 72
   65
 73
    2
 40
0.9525
 49
0
 74
    0
 49
-0.9525
 74
    0
  0
LTYPE
  5
34
330
5
100
AcDbSymbolTableRecord
100
AcDbLinetypeTableRecord
  2
DOT2
 70
    0
  3
Dot (.5x) .....................................
 72
   65
 73
    2
 40
3.175
 49
0
 74
    0
 49
-3.175
 74
    0
  0
LTYPE
  5
35
330
5
100
AcDbSymbolTableRecord
100
AcDbLinetypeTableRecord
  2
DOTX2
 70
    0
  3
Dot (2x) .  .  .  .  .  .  .  .  .  .  .  .  .
 72
   65
 73
    2
 40
12.7
 49
0
 74
    0
 49
-12.7
 74
    0
  0
LTYPE
  5
36
330
5
100
AcDbSymbolTableRecord
100
AcDbLinetypeTableRecord
  2
DASHED
 70
    0
  3
Dashed _ _ _ _ _ _ _ _ _ _ _ _ _ _ _ _ _
 72
   65
 73
    2
 40
19.05
 49
12.7
 74
    0
 49
-6.35
 74
    0
  0
LTYPE
  5
37
330
5
100
AcDbSymbolTableRecord
100
AcDbLinetypeTableRecord
  2
DASHEDTINY
 70
    0
  3
Dashed (.15x) _ _ _ _ _ _ _ _ _ _ _ _ _ _ _ _ _
 72
   65
 73
    2
 40
2.8575
 49
1.905
 74
    0
 49
-0.9525
 74
    0
  0
LTYPE
  5
38
330
5
100
AcDbSymbolTableRecord
100
AcDbLinetypeTableRecord
  2
DASHED2
 70
    0
  3
Dashed (.5x) _ _ _ _ _ _ _ _ _ _ _ _ _ _ _ _ _
 72
   65
 73
    2
 40
9.524999999999999
 49
6.35
 74
    0
 49
-3.175
 74
    0
  0
LTYPE
  5
39
330
5
100
AcDbSymbolTableRecord
100
AcDbLinetypeTableRecord
  2
DASHEDX2
 70
    0
  3
Dashed (2x) ____  ____  ____  ____  ____  ___
 72
   65
 73
    2
 40
38.09999999999999
 49
25.4
 74
    0
 49
-12.7
 74
    0
  0
LTYPE
  5
3A
330
5
100
AcDbSymbolTableRecord
100
AcDbLinetypeTableRecord
  2
DASHDOT
 70
    0
  3
Dash dot __ . __ . __ . __ . __ . __ . __ . __
 72
   65
 73
    4
 40
25.4
 49
12.7
 74
    0
 49
-6.35
 74
    0
 49
0
 74
    0
 49
-6.35
 74
    0
  0
LTYPE
  5
3B
330
5
100
AcDbSymbolTableRecord
100
AcDbLinetypeTableRecord
  2
DASHDOTTINY
 70
    0
  3
Dash dot (.15x) _._._._._._._._._._._._._._._.
 72
   65
 73
    4
 40
3.81
 49
1.905
 74
    0
 49
-0.9525
 74
    0
 49
0
 74
    0
 49
-0.9525
 74
    0
  0
LTYPE
  5
3C
330
5
100
AcDbSymbolTableRecord
100
AcDbLinetypeTableRecord
  2
DASHDOT2
 70
    0
  3
Dash dot (.5x) _._._._._._._._._._._._._._._.
 72
   65
 73
    4
 40
12.7
 49
6.35
 74
    0
 49
-3.175
 74
    0
 49
0
 74
    0
 49
-3.175
 74
    0
  0
LTYPE
  5
3D
330
5
100
AcDbSymbolTableRecord
100
AcDbLinetypeTableRecord
  2
DASHDOTX2
 70
    0
  3
Dash dot (2x) ____  .  ____  .  ____  .  ___
 72
   65
 73
    4
 40
50.8
 49
25.4
 74
    0
 49
-12.7
 74
    0
 49
0
 74
    0
 49
-12.7
 74
    0
  0
LTYPE
  5
3E
330
5
100
AcDbSymbolTableRecord
100
AcDbLinetypeTableRecord
  2
DIVIDE
 70
    0
  3
Divide ____ . . ____ . . ____ . . ____ . . ____
 72
   65
 73
    6
 40
31.75
 49
12.7
 74
    0
 49
-6.35
 74
    0
 49
0
 74
    0
 49
-6.35
 74
    0
 49
0
 74
    0
 49
-6.35
 74
    0
  0
LTYPE
  5
3F
330
5
100
AcDbSymbolTableRecord
100
AcDbLinetypeTableRecord
  2
DIVIDETINY
 70
    0
  3
Divide (.15x) __..__..__..__..__..__..__..__.._
 72
   65
 73
    6
 40
4.7625
 49
1.905
 74
    0
 49
-0.9525
 74
    0
 49
0
 74
    0
 49
-0.9525
 74
    0
 49
0
 74
    0
 49
-0.9525
 74
    0
  0
LTYPE
  5
40
330
5
100
AcDbSymbolTableRecord
100
AcDbLinetypeTableRecord
  2
DIVIDE2
 70
    0
  3
Divide (.5x) __..__..__..__..__..__..__..__.._
 72
   65
 73
    6
 40
15.875
 49
6.35
 74
    0
 49
-3.175
 74
    0
 49
0
 74
    0
 49
-3.175
 74
    0
 49
0
 74
    0
 49
-3.175
 74
    0
  0
LTYPE
  5
41
330
5
100
AcDbSymbolTableRecord
100
AcDbLinetypeTableRecord
  2
DIVIDEX2
 70
    0
  3
Divide (2x) ________  .  .  ________  .  .  _
 72
   65
 73
    6
 40
63.5
 49
25.4
 74
    0
 49
-12.7
 74
    0
 49
0
 74
    0
 49
-12.7
 74
    0
 49
0
 74
    0
 49
-12.7
 74
    0
  0
LTYPE
  5
42
330
5
100
AcDbSymbolTableRecord
100
AcDbLinetypeTableRecord
  2
BORDER
 70
    0
  3
Border __ __ . __ __ . __ __ . __ __ . __ __ .
 72
   65
 73
    6
 40
44.45
 49
12.7
 74
    0
 49
-6.35
 74
    0
 49
12.7
 74
    0
 49
-6.35
 74
    0
 49
0
 74
    0
 49
-6.35
 74
    0
  0
LTYPE
  5
43
330
5
100
AcDbSymbolTableRecord
100
AcDbLinetypeTableRecord
  2
BORDERTINY
 70
    0
  3
Border (.15x) __.__.__.__.__.__.__.__.__.__.__.
 72
   65
 73
    6
 40
6.6675
 49
1.905
 74
    0
 49
-0.9525
 74
    0
 49
1.905
 74
    0
 49
-0.9525
 74
    0
 49
0
 74
    0
 49
-0.9525
 74
    0
  0
LTYPE
  5
44
330
5
100
AcDbSymbolTableRecord
100
AcDbLinetypeTableRecord
  2
BORDER2
 70
    0
  3
Border (.5x) __.__.__.__.__.__.__.__.__.__.__.
 72
   65
 73
    6
 40
22.225
 49
6.35
 74
    0
 49
-3.175
 74
    0
 49
6.35
 74
    0
 49
-3.175
 74
    0
 49
0
 74
    0
 49
-3.175
 74
    0
  0
LTYPE
  5
45
330
5
100
AcDbSymbolTableRecord
100
AcDbLinetypeTableRecord
  2
BORDERX2
 70
    0
  3
Border (2x) ____  ____  .  ____  ____  .  ___
 72
   65
 73
    6
 40
88.89999999999999
 49
25.4
 74
    0
 49
-12.7
 74
    0
 49
25.4
 74
    0
 49
-12.7
 74
    0
 49
0
 74
    0
 49
-12.7
 74
    0
  0
LTYPE
  5
46
330
5
100
AcDbSymbolTableRecord
100
AcDbLinetypeTableRecord
  2
CENTER
 70
    0
  3
Center ____ _ ____ _ ____ _ ____ _ ____ _ ____
 72
   65
 73
    4
 40
50.8
 49
31.75
 74
    0
 49
-6.35
 74
    0
 49
6.35
 74
    0
 49
-6.35
 74
    0
  0
LTYPE
  5
47
330
5
100
AcDbSymbolTableRecord
100
AcDbLinetypeTableRecord
  2
CENTERTINY
 70
    0
  3
Center (.15x) ___ _ ___ _ ___ _ ___ _ ___ _ ___
 72
   65
 73
    4
 40
7.619999999999999
 49
4.7625
 74
    0
 49
-0.9525
 74
    0
 49
0.9525
 74
    0
 49
-0.9525
 74
    0
  0
LTYPE
  5
48
330
5
100
AcDbSymbolTableRecord
100
AcDbLinetypeTableRecord
  2
CENTER2
 70
    0
  3
Center (.5x) ___ _ ___ _ ___ _ ___ _ ___ _ ___
 72
   65
 73
    4
 40
28.575
 49
19.05
 74
    0
 49
-3.175
 74
    0
 49
3.175
 74
    0
 49
-3.175
 74
    0
  0
LTYPE
  5
49
330
5
100
AcDbSymbolTableRecord
100
AcDbLinetypeTableRecord
  2
CENTERX2
 70
    0
  3
Center (2x) ________  __  ________  __  _____
 72
   65
 73
    4
 40
101.6
 49
63.5
 74
    0
 49
-12.7
 74
    0
 49
12.7
 74
    0
 49
-12.7
 74
    0
  0
ENDTAB
  0
TABLE
  2
LAYER
  5
2
330
0
100
AcDbSymbolTable
 70
    1
  0
LAYER
  5
10
330
2
100
AcDbSymbolTableRecord
100
AcDbLayerTableRecord
  2
0
 70
    0
 62
    7
  6
CONTINUOUS
370
    0
390
F
  0
LAYER
  5
4A
330
2
100
AcDbSymbolTableRecord
100
AcDbLayerTableRecord
  2
Auxiliar Lines
 70
    1
 62
    1
  6
DASHDOT2
370
    0
390
F
  0
LAYER
  5
4B
330
2
100
AcDbSymbolTableRecord
100
AcDbLayerTableRecord
  2
Dimensions
 70
    0
 62
    5
  6
CONTINUOUS
370
   35
390
F
  0
LAYER
  5
4C
330
2
100
AcDbSymbolTableRecord
100
AcDbLayerTableRecord
  2
Hiden Lines
 70
    0
 62
    3
  6
DASHED
370
   -3
390
F
  0
ENDTAB
  0
TABLE
  2
STYLE
  5
3
330
0
100
AcDbSymbolTable
 70
    3
  0
STYLE
  5
4D
330
2
100
AcDbSymbolTableRecord
100
AcDbTextStyleTableRecord
  2
STANDARD
 70
    0
 40
0
 41
1
 50
0
 71
    0
 42
1
  3
STANDARD
  4

  0
ENDTAB
  0
TABLE
  2
VIEW
  5
6
330
0
100
AcDbSymbolTable
 70
    0
  0
ENDTAB
  0
TABLE
  2
UCS
  5
7
330
0
100
AcDbSymbolTable
 70
    0
  0
ENDTAB
  0
TABLE
  2
APPID
  5
9
330
0
100
AcDbSymbolTable
 70
    1
  0
APPID
  5
12
330
9
100
AcDbSymbolTableRecord
100
AcDbRegAppTableRecord
  2
ACAD
 70
    0
  0
APPID
  5
4E
330
9
100
AcDbSymbolTableRecord
100
AcDbRegAppTableRecord
  2
LibreCad
 70
    0
  0
ENDTAB
  0
TABLE
  2
DIMSTYLE
  5
A
330
0
100
AcDbSymbolTable
 70
    1
100
AcDbDimStyleTable
 71
    1
  0
DIMSTYLE
105
4F
330
A
100
AcDbSymbolTableRecord
100
AcDbDimStyleTableRecord
  2
Standard
 70
    0
 40
2.5
 41
2.5
 42
0.625
 43
0.38
 44
1.25
 45
0
 46
0
 47
0
 48
0
 49
1
140
2.5
141
0.09
142
0
143
25.4
144
1
145
0
146
1
147
1
148
0
 71
    0
 72
    0
 73
    0
 74
    1
 75
    0
 76
    0
 77
    0
 78
    8
 79
    0
170
    0
171
    2
172
    0
173
    0
174
    0
175
    0
176
    0
177
    0
178
    0
179
    2
271
    2
272
    4
273
    2
274
    2
275
    0
276
    0
277
    2
278
   44
279
    0
280
    0
281
    0
282
    0
283
    1
284
    0
285
    0
286
    0
288
    0
289
    3
340
STANDARD
341

371
   -2
372
   -2
  0
ENDTAB
  0
TABLE
  2
BLOCK_RECORD
  5
1
330
0
100
AcDbSymbolTable
 70
    2
  0
BLOCK_RECORD
  5
1F
330
1
100
AcDbSymbolTableRecord
100
AcDbBlockTableRecord
  2
*Model_Space
 70
    0
280
    1
281
    0
  0
BLOCK_RECORD
  5
1E
330
1
100
AcDbSymbolTableRecord
100
AcDbBlockTableRecord
  2
*Paper_Space
 70
    0
280
    1
281
    0
  0
BLOCK_RECORD
  5
50
330
1
100
AcDbSymbolTableRecord
100
AcDbBlockTableRecord
  2
*D4
 70
    0
280
    1
281
    0
  0
BLOCK_RECORD
  5
53
330
1
100
AcDbSymbolTableRecord
100
AcDbBlockTableRecord
  2
*D11
 70
    0
280
    1
281
    0
  0
BLOCK_RECORD
  5
56
330
1
100
AcDbSymbolTableRecord
100
AcDbBlockTableRecord
  2
*D1
 70
    0
280
    1
281
    0
  0
BLOCK_RECORD
  5
59
330
1
100
AcDbSymbolTableRecord
100
AcDbBlockTableRecord
  2
*D7
 70
    0
280
    1
281
    0
  0
BLOCK_RECORD
  5
5C
330
1
100
AcDbSymbolTableRecord
100
AcDbBlockTableRecord
  2
*D5
 70
    0
280
    1
281
    0
  0
BLOCK_RECORD
  5
5F
330
1
100
AcDbSymbolTableRecord
100
AcDbBlockTableRecord
  2
*D12
 70
    0
280
    1
281
    0
  0
BLOCK_RECORD
  5
62
330
1
100
AcDbSymbolTableRecord
100
AcDbBlockTableRecord
  2
*D6
 70
    0
280
    1
281
    0
  0
BLOCK_RECORD
  5
65
330
1
100
AcDbSymbolTableRecord
100
AcDbBlockTableRecord
  2
*D8
 70
    0
280
    1
281
    0
  0
BLOCK_RECORD
  5
68
330
1
100
AcDbSymbolTableRecord
100
AcDbBlockTableRecord
  2
*D13
 70
    0
280
    1
281
    0
  0
BLOCK_RECORD
  5
6B
330
1
100
AcDbSymbolTableRecord
100
AcDbBlockTableRecord
  2
*D20
 70
    0
280
    1
281
    0
  0
BLOCK_RECORD
  5
6E
330
1
100
AcDbSymbolTableRecord
100
AcDbBlockTableRecord
  2
*D25
 70
    0
280
    1
281
    0
  0
BLOCK_RECORD
  5
71
330
1
100
AcDbSymbolTableRecord
100
AcDbBlockTableRecord
  2
*D23
 70
    0
280
    1
281
    0
  0
BLOCK_RECORD
  5
74
330
1
100
AcDbSymbolTableRecord
100
AcDbBlockTableRecord
  2
*D10
 70
    0
280
    1
281
    0
  0
BLOCK_RECORD
  5
77
330
1
100
AcDbSymbolTableRecord
100
AcDbBlockTableRecord
  2
*D9
 70
    0
280
    1
281
    0
  0
BLOCK_RECORD
  5
7A
330
1
100
AcDbSymbolTableRecord
100
AcDbBlockTableRecord
  2
*D21
 70
    0
280
    1
281
    0
  0
BLOCK_RECORD
  5
7D
330
1
100
AcDbSymbolTableRecord
100
AcDbBlockTableRecord
  2
*D14
 70
    0
280
    1
281
    0
  0
BLOCK_RECORD
  5
80
330
1
100
AcDbSymbolTableRecord
100
AcDbBlockTableRecord
  2
*D22
 70
    0
280
    1
281
    0
  0
BLOCK_RECORD
  5
83
330
1
100
AcDbSymbolTableRecord
100
AcDbBlockTableRecord
  2
*D15
 70
    0
280
    1
281
    0
  0
BLOCK_RECORD
  5
86
330
1
100
AcDbSymbolTableRecord
100
AcDbBlockTableRecord
  2
*D3
 70
    0
280
    1
281
    0
  0
BLOCK_RECORD
  5
89
330
1
100
AcDbSymbolTableRecord
100
AcDbBlockTableRecord
  2
*D19
 70
    0
280
    1
281
    0
  0
BLOCK_RECORD
  5
8C
330
1
100
AcDbSymbolTableRecord
100
AcDbBlockTableRecord
  2
*D2
 70
    0
280
    1
281
    0
  0
BLOCK_RECORD
  5
8F
330
1
100
AcDbSymbolTableRecord
100
AcDbBlockTableRecord
  2
*D17
 70
    0
280
    1
281
    0
  0
BLOCK_RECORD
  5
92
330
1
100
AcDbSymbolTableRecord
100
AcDbBlockTableRecord
  2
*D18
 70
    0
280
    1
281
    0
  0
BLOCK_RECORD
  5
95
330
1
100
AcDbSymbolTableRecord
100
AcDbBlockTableRecord
  2
*D16
 70
    0
280
    1
281
    0
  0
BLOCK_RECORD
  5
98
330
1
100
AcDbSymbolTableRecord
100
AcDbBlockTableRecord
  2
*D24
 70
    0
280
    1
281
    0
  0
ENDTAB
  0
ENDSEC
  0
SECTION
  2
BLOCKS
  0
BLOCK
  5
20
330
1F
100
AcDbEntity
  8
0
100
AcDbBlockBegin
  2
*Model_Space
 70
    0
 10
0
 20
0
 30
0
  3
*Model_Space
  1

  0
ENDBLK
  5
21
330
1F
100
AcDbEntity
  8
0
100
AcDbBlockEnd
  0
BLOCK
  5
1C
330
1B
100
AcDbEntity
  8
0
100
AcDbBlockBegin
  2
*Paper_Space
 70
    0
 10
0
 20
0
 30
0
  3
*Paper_Space
  1

  0
ENDBLK
  5
1D
330
1F
100
AcDbEntity
  8
0
100
AcDbBlockEnd
  0
BLOCK
  5
51
330
50
100
AcDbEntity
  8
0
100
AcDbBlockBegin
  2
*D4
 70
    1
 10
0
 20
0
  3
*D4
  1

  0
LINE
  5
9B
100
AcDbEntity
  8
Dimensions
  6
ByBlock
 62
    0
370
   -2
100
AcDbLine
 10
17.49999999999999
 20
-139.8484848484851
 11
-17.50000000000001
 21
-139.8484848484851
  0
SOLID
  5
9C
100
AcDbEntity
  8
Dimensions
  6
ByBlock
 62
    0
370
   -2
100
AcDbTrace
 10
17.49999999999999
 20
-139.8484848484851
 30
0
 11
11.24999999999999
 21
-140.8891964929172
 31
0
 12
11.24999999999999
 22
-138.807773204053
 32
0
 13
11.24999999999999
 23
-138.807773204053
 33
0
  0
SOLID
  5
9D
100
AcDbEntity
  8
Dimensions
  6
ByBlock
 62
    0
370
   -2
100
AcDbTrace
 10
-17.50000000000001
 20
-139.8484848484851
 30
0
 11
-11.25000000000001
 21
-138.807773204053
 31
0
 12
-11.25000000000001
 22
-140.8891964929172
 32
0
 13
-11.25000000000001
 23
-140.8891964929172
 33
0
  0
MTEXT
  5
9E
100
AcDbEntity
  8
Dimensions
  6
CONTINUOUS
 62
    0
370
   -2
100
AcDbMText
 10
-1.209006596354156e-14
 20
-134.2234848484851
 30
0
 40
6.25
 41
7.638888888889664
 71
    5
 72
    1
  1
35
  7
STANDARD
210
0
220
0
230
1
 50
360
 73
    2
 44
1
  0
LINE
  5
9F
100
AcDbEntity
  8
Dimensions
  6
ByBlock
 62
    0
370
   -2
100
AcDbLine
 10
17.49999999999999
 20
-114.0625
 11
17.49999999999999
 21
-142.9734848484851
  0
LINE
  5
A0
100
AcDbEntity
  8
Dimensions
  6
ByBlock
 62
    0
370
   -2
100
AcDbLine
 10
-17.50000000000001
 20
-114.0625
 11
-17.50000000000001
 21
-142.9734848484851
  0
ENDBLK
  5
52
330
50
100
AcDbEntity
  8
0
100
AcDbBlockEnd
  0
BLOCK
  5
54
330
53
100
AcDbEntity
  8
0
100
AcDbBlockBegin
  2
*D11
 70
    1
 10
0
 20
0
  3
*D11
  1

  0
LINE
  5
A1
100
AcDbEntity
  8
Dimensions
  6
ByBlock
 62
    0
370
   -2
100
AcDbLine
 10
207.2131895789498
 20
-194.5
 11
207.2131895789498
 21
-158.5
  0
SOLID
  5
A2
100
AcDbEntity
  8
Dimensions
  6
ByBlock
 62
    0
370
   -2
100
AcDbTrace
 10
207.2131895789498
 20
-194.5
 30
0
 11
206.1724779345177
 21
-188.25
 31
0
 12
208.2539012233819
 22
-188.25
 32
0
 13
208.2539012233819
 23
-188.25
 33
0
  0
SOLID
  5
A3
100
AcDbEntity
  8
Dimensions
  6
ByBlock
 62
    0
370
   -2
100
AcDbTrace
 10
207.2131895789498
 20
-158.5
 30
0
 11
208.2539012233819
 21
-164.75
 31
0
 12
206.1724779345177
 22
-164.75
 32
0
 13
206.1724779345177
 23
-164.75
 33
0
  0
MTEXT
  5
A4
100
AcDbEntity
  8
Dimensions
  6
CONTINUOUS
 62
    0
370
   -2
100
AcDbMText
 10
201.5881895789498
 20
-176.5
 30
0
 40
6.25
 41
7.638888888889664
 71
    5
 72
    1
  1
36
  7
STANDARD
210
0
220
0
230
1
 50
90
 73
    2
 44
1
  0
LINE
  5
A5
100
AcDbEntity
  8
Dimensions
  6
ByBlock
 62
    0
370
   -2
100
AcDbLine
 10
188.1527440647568
 20
-194.5
 11
210.3381895789498
 21
-194.5
  0
LINE
  5
A6
100
AcDbEntity
  8
Dimensions
  6
ByBlock
 62
    0
370
   -2
100
AcDbLine
 10
188.1527440647568
 20
-158.5
 11
210.3381895789498
 21
-158.5
  0
ENDBLK
  5
55
330
53
100
AcDbEntity
  8
0
100
AcDbBlockEnd
  0
BLOCK
  5
57
330
56
100
AcDbEntity
  8
0
100
AcDbBlockBegin
  2
*D1
 70
    1
 10
0
 20
0
  3
*D1
  1

  0
LINE
  5
A7
100
AcDbEntity
  8
Dimensions
  6
ByBlock
 62
    0
370
   -2
100
AcDbLine
 10
282.1827272727277
 20
-112.5
 11
282.1827272727277
 21
112.5
  0
SOLID
  5
A8
100
AcDbEntity
  8
Dimensions
  6
ByBlock
 62
    0
370
   -2
100
AcDbTrace
 10
282.1827272727277
 20
-112.5
 30
0
 11
281.1420156282956
 21
-106.25
 31
0
 12
283.2234389171598
 22
-106.25
 32
0
 13
283.2234389171598
 23
-106.25
 33
0
  0
SOLID
  5
A9
100
AcDbEntity
  8
Dimensions
  6
ByBlock
 62
    0
370
   -2
100
AcDbTrace
 10
282.1827272727277
 20
112.5
 30
0
 11
283.2234389171598
 21
106.25
 31
0
 12
281.1420156282956
 22
106.25
 32
0
 13
281.1420156282956
 23
106.25
 33
0
  0
MTEXT
  5
AA
100
AcDbEntity
  8
Dimensions
  6
CONTINUOUS
 62
    0
370
   -2
100
AcDbMText
 10
276.5577272727277
 20
7.794291182121389e-15
 30
0
 40
6.25
 41
12.50000000000039
 71
    5
 72
    1
  1
225
  7
STANDARD
210
0
220
0
230
1
 50
90
 73
    2
 44
1
  0
LINE
  5
AB
100
AcDbEntity
  8
Dimensions
  6
ByBlock
 62
    0
370
   -2
100
AcDbLine
 10
167.1527440647568
 20
-112.5
 11
285.3077272727277
 21
-112.5
  0
LINE
  5
AC
100
AcDbEntity
  8
Dimensions
  6
ByBlock
 62
    0
370
   -2
100
AcDbLine
 10
193.1527440647568
 20
112.5
 11
285.3077272727277
 21
112.5
  0
ENDBLK
  5
58
330
56
100
AcDbEntity
  8
0
100
AcDbBlockEnd
  0
BLOCK
  5
5A
330
59
100
AcDbEntity
  8
0
100
AcDbBlockBegin
  2
*D7
 70
    1
 10
0
 20
0
  3
*D7
  1

  0
LINE
  5
AD
100
AcDbEntity
  8
Dimensions
  6
ByBlock
 62
    0
370
   -2
100
AcDbLine
 10
-11.25
 20
-39.02184190045854
 11
11.25
 21
-39.02184190045854
  0
SOLID
  5
AE
100
AcDbEntity
  8
Dimensions
  6
ByBlock
 62
    0
370
   -2
100
AcDbTrace
 10
-11.25
 20
-39.02184190045854
 30
0
 11
-5
 21
-37.98113025602644
 31
0
 12
-5
 22
-40.06255354489064
 32
0
 13
-5
 23
-40.06255354489064
 33
0
  0
SOLID
  5
AF
100
AcDbEntity
  8
Dimensions
  6
ByBlock
 62
    0
370
   -2
100
AcDbTrace
 10
11.25
 20
-39.02184190045854
 30
0
 11
5
 21
-40.06255354489064
 31
0
 12
5
 22
-37.98113025602644
 32
0
 13
5
 23
-37.98113025602644
 33
0
  0
MTEXT
  5
B0
100
AcDbEntity
  8
Dimensions
  6
CONTINUOUS
 62
    0
370
   -2
100
AcDbMText
 10
-5.437465074399321e-16
 20
-33.39684190045854
 30
0
 40
6.25
 41
14.93055555555594
 71
    5
 72
    1
  1
22,5
  7
STANDARD
210
0
220
0
230
1
 50
0
 73
    2
 44
1
  0
LINE
  5
B1
100
AcDbEntity
  8
Dimensions
  6
ByBlock
 62
    0
370
   -2
100
AcDbLine
 10
-11.25
 20
-23.5625
 11
-11.25
 21
-42.14684190045854
  0
LINE
  5
B2
100
AcDbEntity
  8
Dimensions
  6
ByBlock
 62
    0
370
   -2
100
AcDbLine
 10
11.25
 20
-23.5625
 11
11.25
 21
-42.14684190045854
  0
ENDBLK
  5
5B
330
59
100
AcDbEntity
  8
0
100
AcDbBlockEnd
  0
BLOCK
  5
5D
330
5C
100
AcDbEntity
  8
0
100
AcDbBlockBegin
  2
*D5
 70
    1
 10
0
 20
0
  3
*D5
  1

  0
LINE
  5
B3
100
AcDbEntity
  8
Dimensions
  6
ByBlock
 62
    0
370
   -2
100
AcDbLine
 10
-13
 20
-72.96549889606291
 11
13
 21
-72.96549889606291
  0
SOLID
  5
B4
100
AcDbEntity
  8
Dimensions
  6
ByBlock
 62
    0
370
   -2
100
AcDbTrace
 10
-13
 20
-72.96549889606291
 30
0
 11
-6.75
 21
-71.92478725163082
 31
0
 12
-6.75
 22
-74.00621054049502
 32
0
 13
-6.75
 23
-74.00621054049502
 33
0
  0
SOLID
  5
B5
100
AcDbEntity
  8
Dimensions
  6
ByBlock
 62
    0
370
   -2
100
AcDbTrace
 10
13
 20
-72.96549889606291
 30
0
 11
6.75
 21
-74.00621054049502
 31
0
 12
6.75
 22
-71.9247872516308
 32
0
 13
6.75
 23
-71.9247872516308
 33
0
  0
MTEXT
  5
B6
100
AcDbEntity
  8
Dimensions
  6
CONTINUOUS
 62
    0
370
   -2
100
AcDbMText
 10
2.120788751660443e-15
 20
-67.34049889606291
 30
0
 40
6.25
 41
7.638888888889277
 71
    5
 72
    1
  1
26
  7
STANDARD
210
0
220
0
230
1
 50
0
 73
    2
 44
1
  0
LINE
  5
B7
100
AcDbEntity
  8
Dimensions
  6
ByBlock
 62
    0
370
   -2
100
AcDbLine
 10
-13
 20
-23.5625
 11
-13
 21
-76.09049889606291
  0
LINE
  5
B8
100
AcDbEntity
  8
Dimensions
  6
ByBlock
 62
    0
370
   -2
100
AcDbLine
 10
13
 20
-23.5625
 11
13
 21
-76.09049889606291
  0
ENDBLK
  5
5E
330
5C
100
AcDbEntity
  8
0
100
AcDbBlockEnd
  0
BLOCK
  5
60
330
5F
100
AcDbEntity
  8
0
100
AcDbBlockBegin
  2
*D12
 70
    1
 10
0
 20
0
  3
*D12
  1

  0
LINE
  5
B9
100
AcDbEntity
  8
Dimensions
  6
ByBlock
 62
    0
370
   -2
100
AcDbLine
 10
104.5902440647568
 20
-251.3983550038729
 11
191.5902440647568
 21
-251.3983550038729
  0
SOLID
  5
BA
100
AcDbEntity
  8
Dimensions
  6
ByBlock
 62
    0
370
   -2
100
AcDbTrace
 10
104.5902440647568
 20
-251.3983550038729
 30
0
 11
110.8402440647568
 21
-250.3576433594408
 31
0
 12
110.8402440647568
 22
-252.439066648305
 32
0
 13
110.8402440647568
 23
-252.439066648305
 33
0
  0
SOLID
  5
BB
100
AcDbEntity
  8
Dimensions
  6
ByBlock
 62
    0
370
   -2
100
AcDbTrace
 10
191.5902440647568
 20
-251.3983550038729
 30
0
 11
185.3402440647568
 21
-252.439066648305
 31
0
 12
185.3402440647568
 22
-250.3576433594408
 32
0
 13
185.3402440647568
 23
-250.3576433594408
 33
0
  0
MTEXT
  5
BC
100
AcDbEntity
  8
Dimensions
  6
CONTINUOUS
 62
    0
370
   -2
100
AcDbMText
 10
148.0902440647568
 20
-245.7733550038729
 30
0
 40
6.25
 41
7.638888888888888
 71
    5
 72
    1
  1
87
  7
STANDARD
210
0
220
0
230
1
 50
0
 73
    2
 44
1
  0
LINE
  5
BD
100
AcDbEntity
  8
Dimensions
  6
ByBlock
 62
    0
370
   -2
100
AcDbLine
 10
104.5902440647568
 20
-214.0625
 11
104.5902440647568
 21
-254.5233550038729
  0
LINE
  5
BE
100
AcDbEntity
  8
Dimensions
  6
ByBlock
 62
    0
370
   -2
100
AcDbLine
 10
191.5902440647568
 20
-214.0625
 11
191.5902440647568
 21
-254.5233550038729
  0
ENDBLK
  5
61
330
5F
100
AcDbEntity
  8
0
100
AcDbBlockEnd
  0
BLOCK
  5
63
330
62
100
AcDbEntity
  8
0
100
AcDbBlockBegin
  2
*D6
 70
    1
 10
0
 20
0
  3
*D6
  1

  0
LINE
  5
BF
100
AcDbEntity
  8
Dimensions
  6
ByBlock
 62
    0
370
   -2
100
AcDbLine
 10
-18
 20
-11.7600071480834
 11
18
 21
-11.7600071480834
  0
SOLID
  5
C0
100
AcDbEntity
  8
Dimensions
  6
ByBlock
 62
    0
370
   -2
100
AcDbTrace
 10
-18
 20
-11.7600071480834
 30
0
 11
-11.75
 21
-10.7192955036513
 31
0
 12
-11.75
 22
-12.8007187925155
 32
0
 13
-11.75
 23
-12.8007187925155
 33
0
  0
SOLID
  5
C1
100
AcDbEntity
  8
Dimensions
  6
ByBlock
 62
    0
370
   -2
100
AcDbTrace
 10
18
 20
-11.7600071480834
 30
0
 11
11.75
 21
-12.8007187925155
 31
0
 12
11.75
 22
-10.7192955036513
 32
0
 13
11.75
 23
-10.7192955036513
 33
0
  0
MTEXT
  5
C2
100
AcDbEntity
  8
Dimensions
  6
CONTINUOUS
 62
    0
370
   -2
100
AcDbMText
 10
3.444319122601931e-16
 20
-6.1350071480834
 30
0
 40
6.25
 41
7.638888888889664
 71
    5
 72
    1
  1
36
  7
STANDARD
210
0
220
0
230
1
 50
0
 73
    2
 44
1
  0
LINE
  5
C3
100
AcDbEntity
  8
Dimensions
  6
ByBlock
 62
    0
370
   -2
100
AcDbLine
 10
-18
 20
-1.0625
 11
-18
 21
-14.8850071480834
  0
LINE
  5
C4
100
AcDbEntity
  8
Dimensions
  6
ByBlock
 62
    0
370
   -2
100
AcDbLine
 10
18
 20
-1.0625
 11
18
 21
-14.8850071480834
  0
ENDBLK
  5
64
330
62
100
AcDbEntity
  8
0
100
AcDbBlockEnd
  0
BLOCK
  5
66
330
65
100
AcDbEntity
  8
0
100
AcDbBlockBegin
  2
*D8
 70
    1
 10
0
 20
0
  3
*D8
  1

  0
LINE
  5
C5
100
AcDbEntity
  8
Dimensions
  6
CONTINUOUS
 62
    7
370
    0
100
AcDbLine
 10
-24.88589776806005
 20
77.70494609210589
 11
-53.32692378870012
 21
91.92545910242592
  0
LINE
  5
C6
100
AcDbEntity
  8
Dimensions
  6
CONTINUOUS
 62
    7
370
    0
100
AcDbLine
 10
-53.32692378870012
 20
91.92545910242592
 11
-107.6695985067088
 21
91.92545910242592
  0
SOLID
  5
C7
100
AcDbEntity
  8
Dimensions
  6
CONTINUOUS
 62
    7
370
    0
100
AcDbTrace
 10
-24.88589776806005
 20
77.70494609210589
 30
0
 11
-30.94148810819468
 21
79.56919027121032
 31
0
 12
-30.01064731542437
 22
81.43087185675093
 32
0
 13
-30.01064731542437
 23
81.43087185675093
 33
0
  0
ENDBLK
  5
67
330
65
100
AcDbEntity
  8
0
100
AcDbBlockEnd
  0
BLOCK
  5
69
330
68
100
AcDbEntity
  8
0
100
AcDbBlockBegin
  2
*D13
 70
    1
 10
0
 20
0
  3
*D13
  1

  0
LINE
  5
C8
100
AcDbEntity
  8
Dimensions
  6
ByBlock
 62
    0
370
   -2
100
AcDbLine
 10
109.5902440647568
 20
-233.1148382763185
 11
186.5902440647568
 21
-233.1148382763185
  0
SOLID
  5
C9
100
AcDbEntity
  8
Dimensions
  6
ByBlock
 62
    0
370
   -2
100
AcDbTrace
 10
109.5902440647568
 20
-233.1148382763185
 30
0
 11
115.8402440647568
 21
-232.0741266318864
 31
0
 12
115.8402440647568
 22
-234.1555499207506
 32
0
 13
115.8402440647568
 23
-234.1555499207506
 33
0
  0
SOLID
  5
CA
100
AcDbEntity
  8
Dimensions
  6
ByBlock
 62
    0
370
   -2
100
AcDbTrace
 10
186.5902440647568
 20
-233.1148382763185
 30
0
 11
180.3402440647568
 21
-234.1555499207506
 31
0
 12
180.3402440647568
 22
-232.0741266318864
 32
0
 13
180.3402440647568
 23
-232.0741266318864
 33
0
  0
MTEXT
  5
CB
100
AcDbEntity
  8
Dimensions
  6
CONTINUOUS
 62
    0
370
   -2
100
AcDbMText
 10
148.0902440647568
 20
-227.4898382763185
 30
0
 40
6.25
 41
7.638888888888888
 71
    5
 72
    1
  1
77
  7
STANDARD
210
0
220
0
230
1
 50
0
 73
    2
 44
1
  0
LINE
  5
CC
100
AcDbEntity
  8
Dimensions
  6
ByBlock
 62
    0
370
   -2
100
AcDbLine
 10
109.5902440647568
 20
-196.0625
 11
109.5902440647568
 21
-236.2398382763185
  0
LINE
  5
CD
100
AcDbEntity
  8
Dimensions
  6
ByBlock
 62
    0
370
   -2
100
AcDbLine
 10
186.5902440647568
 20
-196.0625
 11
186.5902440647568
 21
-236.2398382763185
  0
ENDBLK
  5
6A
330
68
100
AcDbEntity
  8
0
100
AcDbBlockEnd
  0
BLOCK
  5
6C
330
6B
100
AcDbEntity
  8
0
100
AcDbBlockBegin
  2
*D20
 70
    1
 10
0
 20
0
  3
*D20
  1

  0
LINE
  5
CE
100
AcDbEntity
  8
Dimensions
  6
ByBlock
 62
    0
370
   -2
100
AcDbLine
 10
-48.84498340614334
 20
2.000000000000002
 11
-48.84498340614334
 21
29.5
  0
SOLID
  5
CF
100
AcDbEntity
  8
Dimensions
  6
ByBlock
 62
    0
370
   -2
100
AcDbTrace
 10
-48.84498340614334
 20
14.5
 30
0
 11
-47.80427176171124
 21
8.250000000000002
 31
0
 12
-49.88569505057544
 22
8.250000000000002
 32
0
 13
-49.88569505057544
 23
8.250000000000002
 33
0
  0
SOLID
  5
D0
100
AcDbEntity
  8
Dimensions
  6
ByBlock
 62
    0
370
   -2
100
AcDbTrace
 10
-48.84498340614334
 20
17
 30
0
 11
-49.88569505057544
 21
23.25
 31
0
 12
-47.80427176171124
 22
23.25
 32
0
 13
-47.80427176171124
 23
23.25
 33
0
  0
MTEXT
  5
D1
100
AcDbEntity
  8
Dimensions
  6
CONTINUOUS
 62
    0
370
   -2
100
AcDbMText
 10
-54.46998340614334
 20
24.53472222222242
 30
0
 40
6.25
 41
10.06944444444483
 71
    5
 72
    1
  1
2,5
  7
STANDARD
210
0
220
0
230
1
 50
90
 73
    2
 44
1
  0
LINE
  5
D2
100
AcDbEntity
  8
Dimensions
  6
ByBlock
 62
    0
370
   -2
100
AcDbLine
 10
-19.90852815350932
 20
14.5
 11
-51.96998340614334
 21
14.5
  0
LINE
  5
D3
100
AcDbEntity
  8
Dimensions
  6
ByBlock
 62
    0
370
   -2
100
AcDbLine
 10
-19.97031889520741
 20
17
 11
-51.96998340614334
 21
17
  0
ENDBLK
  5
6D
330
6B
100
AcDbEntity
  8
0
100
AcDbBlockEnd
  0
BLOCK
  5
6F
330
6E
100
AcDbEntity
  8
0
100
AcDbBlockBegin
  2
*D25
 70
    1
 10
0
 20
0
  3
*D25
  1

  0
LINE
  5
D4
100
AcDbEntity
  8
Dimensions
  6
ByBlock
 62
    0
370
   -2
100
AcDbLine
 10
214.5853878667687
 20
-14
 11
214.5853878667687
 21
13
  0
SOLID
  5
D5
100
AcDbEntity
  8
Dimensions
  6
ByBlock
 62
    0
370
   -2
100
AcDbTrace
 10
214.5853878667687
 20
-1.5
 30
0
 11
215.6260995112008
 21
-7.75
 31
0
 12
213.5446762223366
 22
-7.75
 32
0
 13
213.5446762223366
 23
-7.75
 33
0
  0
SOLID
  5
D6
100
AcDbEntity
  8
Dimensions
  6
ByBlock
 62
    0
370
   -2
100
AcDbTrace
 10
214.5853878667687
 20
0.5
 30
0
 11
213.5446762223366
 21
6.75
 31
0
 12
215.6260995112008
 22
6.75
 32
0
 13
215.6260995112008
 23
6.75
 33
0
  0
MTEXT
  5
D7
100
AcDbEntity
  8
Dimensions
  6
CONTINUOUS
 62
    0
370
   -2
100
AcDbMText
 10
208.9603878667687
 20
4.38888888888889
 30
0
 40
6.25
 41
2.777777777777778
 71
    5
 72
    1
  1
2
  7
STANDARD
210
0
220
0
230
1
 50
90
 73
    2
 44
1
  0
LINE
  5
D8
100
AcDbEntity
  8
Dimensions
  6
ByBlock
 62
    0
370
   -2
100
AcDbLine
 10
181.2777440647568
 20
-1.5
 11
217.7103878667687
 21
-1.5
  0
LINE
  5
D9
100
AcDbEntity
  8
Dimensions
  6
ByBlock
 62
    0
370
   -2
100
AcDbLine
 10
181.2777440647568
 20
0.5
 11
217.7103878667687
 21
0.5
  0
ENDBLK
  5
70
330
6E
100
AcDbEntity
  8
0
100
AcDbBlockEnd
  0
BLOCK
  5
72
330
71
100
AcDbEntity
  8
0
100
AcDbBlockBegin
  2
*D23
 70
    1
 10
0
 20
0
  3
*D23
  1

  0
LINE
  5
DA
100
AcDbEntity
  8
Dimensions
  6
ByBlock
 62
    0
370
   -2
100
AcDbLine
 10
95.37890489241072
 20
-21
 11
95.37890489241072
 21
13
  0
SOLID
  5
DB
100
AcDbEntity
  8
Dimensions
  6
ByBlock
 62
    0
370
   -2
100
AcDbTrace
 10
95.37890489241072
 20
-8.500000000000002
 30
0
 11
96.41961653684282
 21
-14.75
 31
0
 12
94.33819324797861
 22
-14.75
 32
0
 13
94.33819324797861
 23
-14.75
 33
0
  0
SOLID
  5
DC
100
AcDbEntity
  8
Dimensions
  6
ByBlock
 62
    0
370
   -2
100
AcDbTrace
 10
95.37890489241072
 20
0.5
 30
0
 11
94.33819324797862
 21
6.75
 31
0
 12
96.41961653684282
 22
6.75
 32
0
 13
96.41961653684282
 23
6.75
 33
0
  0
MTEXT
  5
DD
100
AcDbEntity
  8
Dimensions
  6
CONTINUOUS
 62
    0
370
   -2
100
AcDbMText
 10
89.75390489241072
 20
-3.999999999999999
 30
0
 40
6.25
 41
2.777777777778165
 71
    5
 72
    1
  1
9
  7
STANDARD
210
0
220
0
230
1
 50
90
 73
    2
 44
1
  0
LINE
  5
DE
100
AcDbEntity
  8
Dimensions
  6
ByBlock
 62
    0
370
   -2
100
AcDbLine
 10
113.6527440647568
 20
-8.5
 11
92.25390489241072
 21
-8.500000000000002
  0
LINE
  5
DF
100
AcDbEntity
  8
Dimensions
  6
ByBlock
 62
    0
370
   -2
100
AcDbLine
 10
113.6527440647568
 20
0.5000000000000002
 11
92.25390489241072
 21
0.5000000000000003
  0
ENDBLK
  5
73
330
71
100
AcDbEntity
  8
0
100
AcDbBlockEnd
  0
BLOCK
  5
75
330
74
100
AcDbEntity
  8
0
100
AcDbBlockBegin
  2
*D10
 70
    1
 10
0
 20
0
  3
*D10
  1

  0
LINE
  5
E0
100
AcDbEntity
  8
Dimensions
  6
ByBlock
 62
    0
370
   -2
100
AcDbLine
 10
223.465204447887
 20
-140.5
 11
223.465204447887
 21
-212.5
  0
SOLID
  5
E1
100
AcDbEntity
  8
Dimensions
  6
ByBlock
 62
    0
370
   -2
100
AcDbTrace
 10
223.465204447887
 20
-140.5
 30
0
 11
224.5059160923191
 21
-146.75
 31
0
 12
222.4244928034549
 22
-146.75
 32
0
 13
222.4244928034549
 23
-146.75
 33
0
  0
SOLID
  5
E2
100
AcDbEntity
  8
Dimensions
  6
ByBlock
 62
    0
370
   -2
100
AcDbTrace
 10
223.465204447887
 20
-212.5
 30
0
 11
222.4244928034549
 21
-206.25
 31
0
 12
224.5059160923191
 22
-206.25
 32
0
 13
224.5059160923191
 23
-206.25
 33
0
  0
MTEXT
  5
E3
100
AcDbEntity
  8
Dimensions
  6
CONTINUOUS
 62
    0
370
   -2
100
AcDbMText
 10
217.840204447887
 20
-176.5
 30
0
 40
6.25
 41
7.638888888888888
 71
    5
 72
    1
  1
72
  7
STANDARD
210
0
220
0
230
1
 50
90
 73
    2
 44
1
  0
LINE
  5
E4
100
AcDbEntity
  8
Dimensions
  6
ByBlock
 62
    0
370
   -2
100
AcDbLine
 10
193.1527440647568
 20
-140.5
 11
226.590204447887
 21
-140.5
  0
LINE
  5
E5
100
AcDbEntity
  8
Dimensions
  6
ByBlock
 62
    0
370
   -2
100
AcDbLine
 10
193.1527440647568
 20
-212.5
 11
226.590204447887
 21
-212.5
  0
ENDBLK
  5
76
330
74
100
AcDbEntity
  8
0
100
AcDbBlockEnd
  0
BLOCK
  5
78
330
77
100
AcDbEntity
  8
0
100
AcDbBlockBegin
  2
*D9
 70
    1
 10
0
 20
0
  3
*D9
  1

  0
LINE
  5
E6
100
AcDbEntity
  8
Dimensions
  6
CONTINUOUS
 62
    7
370
    0
100
AcDbLine
 10
27.74988341386128
 20
53.56653165094501
 11
41.13791263699724
 21
40.12216170768866
  0
LINE
  5
E7
100
AcDbEntity
  8
Dimensions
  6
CONTINUOUS
 62
    7
370
    0
100
AcDbLine
 10
41.13791263699724
 20
40.12216170768866
 11
80.24432341537732
 21
40.12216170768866
  0
SOLID
  5
E8
100
AcDbEntity
  8
Dimensions
  6
CONTINUOUS
 62
    7
370
    0
100
AcDbTrace
 10
27.74988341386128
 20
53.56653165094501
 30
0
 11
32.89744931596273
 21
49.87219192504282
 31
0
 12
31.42257369065134
 22
48.40349699508337
 32
0
 13
31.42257369065134
 23
48.40349699508337
 33
0
  0
ENDBLK
  5
79
330
77
100
AcDbEntity
  8
0
100
AcDbBlockEnd
  0
BLOCK
  5
7B
330
7A
100
AcDbEntity
  8
0
100
AcDbBlockBegin
  2
*D21
 70
    1
 10
0
 20
0
  3
*D21
  1

  0
LINE
  5
E9
100
AcDbEntity
  8
Dimensions
  6
ByBlock
 62
    0
370
   -2
100
AcDbLine
 10
-79.14874225409659
 20
45.99999999999999
 11
-79.14874225409659
 21
17
  0
SOLID
  5
EA
100
AcDbEntity
  8
Dimensions
  6
ByBlock
 62
    0
370
   -2
100
AcDbTrace
 10
-79.14874225409659
 20
45.99999999999999
 30
0
 11
-78.10803060966448
 21
39.74999999999999
 31
0
 12
-80.1894538985287
 22
39.74999999999999
 32
0
 13
-80.1894538985287
 23
39.74999999999999
 33
0
  0
SOLID
  5
EB
100
AcDbEntity
  8
Dimensions
  6
ByBlock
 62
    0
370
   -2
100
AcDbTrace
 10
-79.14874225409659
 20
17
 30
0
 11
-80.18945389852868
 21
23.25
 31
0
 12
-78.10803060966448
 22
23.25
 32
0
 13
-78.10803060966448
 23
23.25
 33
0
  0
MTEXT
  5
EC
100
AcDbEntity
  8
Dimensions
  6
CONTINUOUS
 62
    0
370
   -2
100
AcDbMText
 10
-84.77374225409659
 20
31.49999999999999
 30
0
 40
6.25
 41
7.638888888888888
 71
    5
 72
    1
  1
29
  7
STANDARD
210
0
220
0
230
1
 50
90
 73
    2
 44
1
  0
LINE
  5
ED
100
AcDbEntity
  8
Dimensions
  6
ByBlock
 62
    0
370
   -2
100
AcDbLine
 10
-20.68709149890527
 20
45.99999999999999
 11
-82.27374225409659
 21
45.99999999999999
  0
LINE
  5
EE
100
AcDbEntity
  8
Dimensions
  6
ByBlock
 62
    0
370
   -2
100
AcDbLine
 10
-19.97031889520741
 20
17
 11
-82.27374225409659
 21
17
  0
ENDBLK
  5
7C
330
7A
100
AcDbEntity
  8
0
100
AcDbBlockEnd
  0
BLOCK
  5
7E
330
7D
100
AcDbEntity
  8
0
100
AcDbBlockBegin
  2
*D14
 70
    1
 10
0
 20
0
  3
*D14
  1

  0
SOLID
  5
EF
100
AcDbEntity
  8
Dimensions
  6
ByBlock
 62
    0
370
   -2
100
AcDbTrace
 10
137.6082575706974
 20
-162.4865079605989
 30
0
 11
133.0313192888441
 21
-158.105045112307
 31
0
 12
134.6980626425083
 22
-156.8583336378901
 32
0
 13
134.6980626425083
 23
-156.8583336378901
 33
0
  0
LINE
  5
F0
100
AcDbEntity
  8
Dimensions
  6
ByBlock
 62
    0
370
   -2
100
AcDbLine
 10
148.0902440647568
 20
-176.5
 11
122.0100633831088
 21
-141.6330971876804
  0
MTEXT
  5
F1
100
AcDbEntity
  8
Dimensions
  6
CONTINUOUS
 62
    0
370
   -2
100
AcDbMText
 10
134.3134972038535
 20
-148.6905926296205
 30
0
 40
6.25
 41
13.54166666666706
 71
    5
 72
    1
  1
17,5
  7
STANDARD
210
0
220
0
230
1
 50
306.7962118860733
 73
    2
 44
1
  0
ENDBLK
  5
7F
330
7D
100
AcDbEntity
  8
0
100
AcDbBlockEnd
  0
BLOCK
  5
81
330
80
100
AcDbEntity
  8
0
100
AcDbBlockBegin
  2
*D22
 70
    1
 10
0
 20
0
  3
*D22
  1

  0
LINE
  5
F2
100
AcDbEntity
  8
Dimensions
  6
ByBlock
 62
    0
370
   -2
100
AcDbLine
 10
4.907513494181529
 20
20.49954376015883
 11
30.90781889520741
 21
20.49954376015883
  0
SOLID
  5
F3
100
AcDbEntity
  8
Dimensions
  6
ByBlock
 62
    0
370
   -2
100
AcDbTrace
 10
17.40751349418153
 20
20.49954376015883
 30
0
 11
11.15751349418153
 21
19.45883211572673
 31
0
 12
11.15751349418153
 22
21.54025540459093
 32
0
 13
11.15751349418153
 23
21.54025540459093
 33
0
  0
SOLID
  5
F4
100
AcDbEntity
  8
Dimensions
  6
ByBlock
 62
    0
370
   -2
100
AcDbTrace
 10
18.40781889520741
 20
20.49954376015883
 30
0
 11
24.65781889520741
 21
21.54025540459093
 31
0
 12
24.65781889520741
 22
19.45883211572673
 32
0
 13
24.65781889520741
 23
19.45883211572673
 33
0
  0
MTEXT
  5
F5
100
AcDbEntity
  8
Dimensions
  6
CONTINUOUS
 62
    0
370
   -2
100
AcDbMText
 10
21.60226333965186
 20
26.12454376015883
 30
0
 40
6.25
 41
1.388888888888889
 71
    5
 72
    1
  1
1
  7
STANDARD
210
0
220
0
230
1
 50
0
 73
    2
 44
1
  0
LINE
  5
F6
100
AcDbEntity
  8
Dimensions
  6
ByBlock
 62
    0
370
   -2
100
AcDbLine
 10
17.40751349418153
 20
18.5625
 11
17.40751349418153
 21
23.62454376015883
  0
LINE
  5
F7
100
AcDbEntity
  8
Dimensions
  6
ByBlock
 62
    0
370
   -2
100
AcDbLine
 10
18.40781889520741
 20
18.5625
 11
18.40781889520741
 21
23.62454376015883
  0
ENDBLK
  5
82
330
80
100
AcDbEntity
  8
0
100
AcDbBlockEnd
  0
BLOCK
  5
84
330
83
100
AcDbEntity
  8
0
100
AcDbBlockBegin
  2
*D15
 70
    1
 10
0
 20
0
  3
*D15
  1

  0
SOLID
  5
F8
100
AcDbEntity
  8
Dimensions
  6
ByBlock
 62
    0
370
   -2
100
AcDbTrace
 10
153.2327082649368
 20
-166.4941236290934
 30
0
 11
155.1640121937523
 21
-160.4595858786606
 31
0
 12
157.0152534474324
 22
-161.4110209674077
 32
0
 13
157.0152534474324
 23
-161.4110209674077
 33
0
  0
LINE
  5
F9
100
AcDbEntity
  8
Dimensions
  6
ByBlock
 62
    0
370
   -2
100
AcDbLine
 10
148.0902440647568
 20
-176.5
 11
166.723740888866
 21
-140.2441393227023
  0
MTEXT
  5
FA
100
AcDbEntity
  8
Dimensions
  6
CONTINUOUS
 62
    0
370
   -2
100
AcDbMText
 10
154.975286391448
 20
-150.7978993758078
 30
0
 40
6.25
 41
17.01388888888928
 71
    5
 72
    1
  1
11,25
  7
STANDARD
210
0
220
0
230
1
 50
62.79935568396593
 73
    2
 44
1
  0
ENDBLK
  5
85
330
83
100
AcDbEntity
  8
0
100
AcDbBlockEnd
  0
BLOCK
  5
87
330
86
100
AcDbEntity
  8
0
100
AcDbBlockBegin
  2
*D3
 70
    1
 10
0
 20
0
  3
*D3
  1

  0
LINE
  5
FB
100
AcDbEntity
  8
Dimensions
  6
ByBlock
 62
    0
370
   -2
100
AcDbLine
 10
238.3333333333337
 20
46
 11
238.3333333333337
 21
112.5
  0
SOLID
  5
FC
100
AcDbEntity
  8
Dimensions
  6
ByBlock
 62
    0
370
   -2
100
AcDbTrace
 10
238.3333333333337
 20
46
 30
0
 11
237.2926216889016
 21
52.25
 31
0
 12
239.3740449777658
 22
52.25
 32
0
 13
239.3740449777658
 23
52.25
 33
0
  0
SOLID
  5
FD
100
AcDbEntity
  8
Dimensions
  6
ByBlock
 62
    0
370
   -2
100
AcDbTrace
 10
238.3333333333337
 20
112.5
 30
0
 11
239.3740449777658
 21
106.25
 31
0
 12
237.2926216889016
 22
106.25
 32
0
 13
237.2926216889016
 23
106.25
 33
0
  0
MTEXT
  5
FE
100
AcDbEntity
  8
Dimensions
  6
CONTINUOUS
 62
    0
370
   -2
100
AcDbMText
 10
232.7083333333337
 20
79.25
 30
0
 40
6.25
 41
14.93055555555672
 71
    5
 72
    1
  1
66,5
  7
STANDARD
210
0
220
0
230
1
 50
90
 73
    2
 44
1
  0
LINE
  5
FF
100
AcDbEntity
  8
Dimensions
  6
ByBlock
 62
    0
370
   -2
100
AcDbLine
 10
193.1527440647568
 20
46
 11
241.4583333333337
 21
46
  0
LINE
  5
100
100
AcDbEntity
  8
Dimensions
  6
ByBlock
 62
    0
370
   -2
100
AcDbLine
 10
193.1527440647568
 20
112.5
 11
241.4583333333337
 21
112.5
  0
ENDBLK
  5
88
330
86
100
AcDbEntity
  8
0
100
AcDbBlockEnd
  0
BLOCK
  5
8A
330
89
100
AcDbEntity
  8
0
100
AcDbBlockBegin
  2
*D19
 70
    1
 10
0
 20
0
  3
*D19
  1

  0
LINE
  5
101
100
AcDbEntity
  8
Dimensions
  6
ByBlock
 62
    0
370
   -2
100
AcDbLine
 10
-32.41923677398894
 20
-12
 11
-32.41923677398894
 21
27
  0
SOLID
  5
102
100
AcDbEntity
  8
Dimensions
  6
ByBlock
 62
    0
370
   -2
100
AcDbTrace
 10
-32.41923677398894
 20
0.5
 30
0
 11
-31.37852512955684
 21
-5.75
 31
0
 12
-33.45994841842104
 22
-5.75
 32
0
 13
-33.45994841842104
 23
-5.75
 33
0
  0
SOLID
  5
103
100
AcDbEntity
  8
Dimensions
  6
ByBlock
 62
    0
370
   -2
100
AcDbTrace
 10
-32.41923677398894
 20
14.5
 30
0
 11
-33.45994841842104
 21
20.75
 31
0
 12
-31.37852512955684
 22
20.75
 32
0
 13
-31.37852512955684
 23
20.75
 33
0
  0
MTEXT
  5
104
100
AcDbEntity
  8
Dimensions
  6
CONTINUOUS
 62
    0
370
   -2
100
AcDbMText
 10
-38.04423677398894
 20
7.5
 30
0
 40
6.25
 41
6.944444444444445
 71
    5
 72
    1
  1
14
  7
STANDARD
210
0
220
0
230
1
 50
90
 73
    2
 44
1
  0
LINE
  5
105
100
AcDbEntity
  8
Dimensions
  6
ByBlock
 62
    0
370
   -2
100
AcDbLine
 10
-19.5625
 20
0.5000000000000002
 11
-35.54423677398894
 21
0.5000000000000003
  0
LINE
  5
106
100
AcDbEntity
  8
Dimensions
  6
ByBlock
 62
    0
370
   -2
100
AcDbLine
 10
-19.90852815350932
 20
14.5
 11
-35.54423677398894
 21
14.5
  0
ENDBLK
  5
8B
330
89
100
AcDbEntity
  8
0
100
AcDbBlockEnd
  0
BLOCK
  5
8D
330
8C
100
AcDbEntity
  8
0
100
AcDbBlockBegin
  2
*D2
 70
    1
 10
0
 20
0
  3
*D2
  1

  0
LINE
  5
107
100
AcDbEntity
  8
Dimensions
  6
ByBlock
 62
    0
370
   -2
100
AcDbLine
 10
199.5959595959599
 20
-112.5
 11
199.5959595959599
 21
-22
  0
SOLID
  5
108
100
AcDbEntity
  8
Dimensions
  6
ByBlock
 62
    0
370
   -2
100
AcDbTrace
 10
199.5959595959599
 20
-112.5
 30
0
 11
198.5552479515278
 21
-106.25
 31
0
 12
200.636671240392
 22
-106.25
 32
0
 13
200.636671240392
 23
-106.25
 33
0
  0
SOLID
  5
109
100
AcDbEntity
  8
Dimensions
  6
ByBlock
 62
    0
370
   -2
100
AcDbTrace
 10
199.5959595959599
 20
-22
 30
0
 11
200.636671240392
 21
-28.25
 31
0
 12
198.5552479515278
 22
-28.25
 32
0
 13
198.5552479515278
 23
-28.25
 33
0
  0
MTEXT
  5
10A
100
AcDbEntity
  8
Dimensions
  6
CONTINUOUS
 62
    0
370
   -2
100
AcDbMText
 10
193.9709595959599
 20
-67.25
 30
0
 40
6.25
 41
14.93055555555633
 71
    5
 72
    1
  1
90,5
  7
STANDARD
210
0
220
0
230
1
 50
90
 73
    2
 44
1
  0
LINE
  5
10B
100
AcDbEntity
  8
Dimensions
  6
ByBlock
 62
    0
370
   -2
100
AcDbLine
 10
167.1527440647568
 20
-112.5
 11
202.7209595959599
 21
-112.5
  0
LINE
  5
10C
100
AcDbEntity
  8
Dimensions
  6
ByBlock
 62
    0
370
   -2
100
AcDbLine
 10
162.6527440647568
 20
-22
 11
202.7209595959599
 21
-22
  0
ENDBLK
  5
8E
330
8C
100
AcDbEntity
  8
0
100
AcDbBlockEnd
  0
BLOCK
  5
90
330
8F
100
AcDbEntity
  8
0
100
AcDbBlockBegin
  2
*D17
 70
    1
 10
0
 20
0
  3
*D17
  1

  0
SOLID
  5
10D
100
AcDbEntity
  8
Dimensions
  6
ByBlock
 62
    0
370
   -2
100
AcDbTrace
 10
118.99795928392
 20
-169.7018745909389
 30
0
 11
114.8188445147013
 21
-164.9394612875228
 31
0
 12
116.5875665830812
 22
-163.842216942697
 32
0
 13
116.5875665830812
 23
-163.842216942697
 33
0
  0
LINE
  5
10E
100
AcDbEntity
  8
Dimensions
  6
ByBlock
 62
    0
370
   -2
100
AcDbLine
 10
123.2152440647568
 20
-176.5
 11
110.9441168205164
 21
-156.7193434278014
  0
MTEXT
  5
10F
100
AcDbEntity
  8
Dimensions
  6
CONTINUOUS
 62
    0
370
   -2
100
AcDbMText
 10
119.7509699804643
 20
-160.2453306478442
 30
0
 40
6.25
 41
2.777777777777778
 71
    5
 72
    1
  1
8
  7
STANDARD
210
0
220
0
230
1
 50
301.8138078293566
 73
    2
 44
1
  0
ENDBLK
  5
91
330
8F
100
AcDbEntity
  8
0
100
AcDbBlockEnd
  0
BLOCK
  5
93
330
92
100
AcDbEntity
  8
0
100
AcDbBlockBegin
  2
*D18
 70
    1
 10
0
 20
0
  3
*D18
  1

  0
SOLID
  5
110
100
AcDbEntity
  8
Dimensions
  6
ByBlock
 62
    0
370
   -2
100
AcDbTrace
 10
116.9736007154527
 20
-176.8230917827613
 30
0
 11
110.785756627035
 21
-178.1855037117647
 31
0
 12
110.6781581052622
 22
-176.1068634192806
 32
0
 13
110.6781581052622
 23
-176.1068634192806
 33
0
  0
LINE
  5
111
100
AcDbEntity
  8
Dimensions
  6
ByBlock
 62
    0
370
   -2
100
AcDbLine
 10
123.2152440647568
 20
-176.5
 11
89.57972157128393
 21
-178.2411057182138
  0
MTEXT
  5
112
100
AcDbEntity
  8
Dimensions
  6
CONTINUOUS
 62
    0
370
   -2
100
AcDbMText
 10
102.9858785388831
 20
-171.9146197361139
 30
0
 40
6.25
 41
14.93055555555633
 71
    5
 72
    1
  1
6,25
  7
STANDARD
210
0
220
0
230
1
 50
2.963208071760521
 73
    2
 44
1
  0
ENDBLK
  5
94
330
92
100
AcDbEntity
  8
0
100
AcDbBlockEnd
  0
BLOCK
  5
96
330
95
100
AcDbEntity
  8
0
100
AcDbBlockBegin
  2
*D16
 70
    1
 10
0
 20
0
  3
*D16
  1

  0
SOLID
  5
113
100
AcDbEntity
  8
Dimensions
  6
ByBlock
 62
    0
370
   -2
100
AcDbTrace
 10
176.486378724599
 20
-170.741171064595
 30
0
 11
178.8587952123983
 21
-164.8660352589072
 31
0
 12
180.6345819772482
 22
-165.951808841755
 32
0
 13
180.6345819772482
 23
-165.951808841755
 33
0
  0
LINE
  5
114
100
AcDbEntity
  8
Dimensions
  6
ByBlock
 62
    0
370
   -2
100
AcDbLine
 10
172.9652440647568
 20
-176.5
 11
190.7955164883614
 21
-147.3385226131028
  0
MTEXT
  5
115
100
AcDbEntity
  8
Dimensions
  6
CONTINUOUS
 62
    0
370
   -2
100
AcDbMText
 10
178.8419234936426
 20
-156.105567955647
 30
0
 40
6.25
 41
14.93055555555633
 71
    5
 72
    1
  1
6,75
  7
STANDARD
210
0
220
0
230
1
 50
58.55703280650721
 73
    2
 44
1
  0
ENDBLK
  5
97
330
95
100
AcDbEntity
  8
0
100
AcDbBlockEnd
  0
BLOCK
  5
99
330
98
100
AcDbEntity
  8
0
100
AcDbBlockBegin
  2
*D24
 70
    1
 10
0
 20
0
  3
*D24
  1

  0
LINE
  5
116
100
AcDbEntity
  8
Dimensions
  6
ByBlock
 62
    0
370
   -2
100
AcDbLine
 10
107.1503520152082
 20
-26
 11
107.1503520152082
 21
4
  0
SOLID
  5
117
100
AcDbEntity
  8
Dimensions
  6
ByBlock
 62
    0
370
   -2
100
AcDbTrace
 10
107.1503520152082
 20
-13.5
 30
0
 11
108.1910636596403
 21
-19.75
 31
0
 12
106.1096403707761
 22
-19.75
 32
0
 13
106.1096403707761
 23
-19.75
 33
0
  0
SOLID
  5
118
100
AcDbEntity
  8
Dimensions
  6
ByBlock
 62
    0
370
   -2
100
AcDbTrace
 10
107.1503520152082
 20
-8.5
 30
0
 11
106.1096403707761
 21
-2.25
 31
0
 12
108.1910636596403
 22
-2.25
 32
0
 13
108.1910636596403
 23
-2.25
 33
0
  0
MTEXT
  5
119
100
AcDbEntity
  8
Dimensions
  6
CONTINUOUS
 62
    0
370
   -2
100
AcDbMText
 10
101.5253520152082
 20
-11
 30
0
 40
6.25
 41
2.777777777778165
 71
    5
 72
    1
  1
5
  7
STANDARD
210
0
220
0
230
1
 50
90
 73
    2
 44
1
  0
LINE
  5
11A
100
AcDbEntity
  8
Dimensions
  6
ByBlock
 62
    0
370
   -2
100
AcDbLine
 10
115.4027440647568
 20
-13.5
 11
104.0253520152082
 21
-13.5
  0
LINE
  5
11B
100
AcDbEntity
  8
Dimensions
  6
ByBlock
 62
    0
370
   -2
100
AcDbLine
 10
115.4027440647568
 20
-8.5
 11
104.0253520152082
 21
-8.5
  0
ENDBLK
  5
9A
330
98
100
AcDbEntity
  8
0
100
AcDbBlockEnd
  0
ENDSEC
  0
SECTION
  2
ENTITIES
  0
LINE
  5
11C
100
AcDbEntity
  8
Auxiliar Lines
  6
ByLayer
 62
  256
370
   -1
100
AcDbLine
 10
-3.061616997868383e-14
 20
-500
 11
3.061616997868383e-14
 21
500
  0
LINE
  5
11D
100
AcDbEntity
  8
Auxiliar Lines
  6
ByLayer
 62
  256
370
   -1
100
AcDbLine
 10
148.0902440647568
 20
-112.5
 11
148.0902440647568
 21
112.5
  0
LINE
  5
11E
100
AcDbEntity
  8
Auxiliar Lines
  6
ByLayer
 62
  256
370
   -1
100
AcDbLine
 10
148.0902440647568
 20
-112.5
 11
-76.9097559352432
 21
-112.5
  0
LINE
  5
11F
100
AcDbEntity
  8
0
  6
ByLayer
 62
  256
370
   -1
100
AcDbLine
 10
-17.50000000000001
 20
-112.5
 11
17.49999999999999
 21
-112.5
  0
LINE
  5
120
100
AcDbEntity
  8
Auxiliar Lines
  6
ByLayer
 62
  256
370
   -1
100
AcDbLine
 10
148.0902440647568
 20
112.5
 11
-76.9097559352432
 21
112.5
  0
LINE
  5
121
100
AcDbEntity
  8
Auxiliar Lines
  6
ByLayer
 62
  256
370
   -1
100
AcDbLine
 10
148.0902440647568
 20
40.5
 11
-76.9097559352432
 21
40.5
  0
CIRCLE
  5
122
100
AcDbEntity
  8
0
  6
ByLayer
 62
  256
370
   -1
100
AcDbCircle
 10
4.684274006738626e-15
 20
76.5
 40
36
  0
CIRCLE
  5
123
100
AcDbEntity
  8
0
  6
ByLayer
 62
  256
370
   -1
100
AcDbCircle
 10
4.684274006738626e-15
 20
76.5
 40
25
  0
LINE
  5
124
100
AcDbEntity
  8
Auxiliar Lines
  6
ByLayer
 62
  256
370
   -1
100
AcDbLine
 10
148.0902440647568
 20
0.5
 11
-76.9097559352432
 21
0.5
  0
LINE
  5
125
100
AcDbEntity
  8
0
  6
ByLayer
 62
  256
370
   -1
100
AcDbLine
 10
-18
 20
0.5
 11
18
 21
0.5
  0
LINE
  5
126
100
AcDbEntity
  8
Auxiliar Lines
  6
ByLayer
 62
  256
370
   -1
100
AcDbLine
 10
-1.928818708657081e-15
 20
40.5
 11
11
 21
40.5
  0
LINE
  5
127
100
AcDbEntity
  8
Auxiliar Lines
  6
ByLayer
 62
  256
370
   -1
100
AcDbLine
 10
2.47990976827339e-15
 20
40.5
 11
3.153465507804435e-15
 21
51.5
  0
LINE
  5
128
100
AcDbEntity
  8
Auxiliar Lines
  6
ByLayer
 62
  256
370
   -1
100
AcDbLine
 10
-22.5
 20
46
 11
22.5
 21
46
  0
LINE
  5
129
100
AcDbEntity
  8
Auxiliar Lines
  6
ByLayer
 62
  256
370
   -1
100
AcDbLine
 10
-19
 20
14.5
 11
19
 21
14.5
  0
LINE
  5
12A
100
AcDbEntity
  8
Auxiliar Lines
  6
ByLayer
 62
  256
370
   -1
100
AcDbLine
 10
-19
 20
17
 11
19
 21
17
  0
LINE
  5
12B
100
AcDbEntity
  8
0
  6
ByLayer
 62
  256
370
   -1
100
AcDbLine
 10
-18.34602815350932
 20
14.5
 11
18.34602815350932
 21
14.5
  0
LINE
  5
12C
100
AcDbEntity
  8
0
  6
ByLayer
 62
  256
370
   -1
100
AcDbLine
 10
-18.40781889520741
 20
17
 11
18.40781889520741
 21
17
  0
LINE
  5
12D
100
AcDbEntity
  8
0
  6
ByLayer
 62
  256
370
   -1
100
AcDbLine
 10
-18
 20
0.5
 11
-18.34602815350932
 21
14.5
  0
LINE
  5
12E
100
AcDbEntity
  8
0
  6
ByLayer
 62
  256
370
   -1
100
AcDbLine
 10
-18.40781889520741
 20
17
 11
-19.12459149890527
 21
46.00000000000001
  0
LINE
  5
12F
100
AcDbEntity
  8
0
  6
ByLayer
 62
  256
370
   -1
100
AcDbLine
 10
18
 20
0.5
 11
18.34602815350932
 21
14.5
  0
LINE
  5
130
100
AcDbEntity
  8
0
  6
ByLayer
 62
  256
370
   -1
100
AcDbLine
 10
18.40781889520741
 20
17
 11
19.12459149890527
 21
46
  0
LINE
  5
131
100
AcDbEntity
  8
0
  6
ByLayer
 62
  256
370
   -1
100
AcDbLine
 10
17.34633346129388
 20
14.52470875060146
 11
17.40812420299197
 21
17.02470875060146
  0
LINE
  5
132
100
AcDbEntity
  8
0
  6
ByLayer
 62
  256
370
   -1
100
AcDbLine
 10
-17.34633346129388
 20
14.52470875060146
 11
-17.40812420299197
 21
17.02470875060146
  0
LINE
  5
133
100
AcDbEntity
  8
Auxiliar Lines
  6
ByLayer
 62
  256
370
   -1
100
AcDbLine
 10
148.0902440647568
 20
-22
 11
-76.9097559352432
 21
-22
  0
LINE
  5
134
100
AcDbEntity
  8
0
  6
ByLayer
 62
  256
370
   -1
100
AcDbLine
 10
-11.25
 20
0.5
 11
11.25
 21
0.5
  0
LINE
  5
135
100
AcDbEntity
  8
0
  6
ByLayer
 62
  256
370
   -1
100
AcDbLine
 10
-11.25
 20
0.5
 11
-11.25
 21
-22
  0
LINE
  5
136
100
AcDbEntity
  8
0
  6
ByLayer
 62
  256
370
   -1
100
AcDbLine
 10
11.25
 20
-22
 11
11.25
 21
0.5
  0
LINE
  5
137
100
AcDbEntity
  8
0
  6
ByLayer
 62
  256
370
   -1
100
AcDbLine
 10
-13
 20
-22
 11
13
 21
-22
  0
LINE
  5
138
100
AcDbEntity
  8
0
  6
ByLayer
 62
  256
370
   -1
100
AcDbLine
 10
-13
 20
-22
 11
-17.50000000000001
 21
-112.5
  0
LINE
  5
139
100
AcDbEntity
  8
0
  6
ByLayer
 62
  256
370
   -1
100
AcDbLine
 10
17.49999999999999
 20
-112.5
 11
13
 21
-22
  0
LINE
  5
13A
100
AcDbEntity
  8
Auxiliar Lines
  6
ByLayer
 62
  256
370
   -1
100
AcDbLine
 10
-500
 20
112.5
 11
500
 21
112.5
  0
LINE
  5
13B
100
AcDbEntity
  8
Auxiliar Lines
  6
ByLayer
 62
  256
370
   -1
100
AcDbLine
 10
-500
 20
40.5
 11
500
 21
40.5
  0
LINE
  5
13C
100
AcDbEntity
  8
Auxiliar Lines
  6
ByLayer
 62
  256
370
   -1
100
AcDbLine
 10
-480.8754085010947
 20
45.99999999999997
 11
519.1245914989053
 21
45.99999999999997
  0
LINE
  5
13D
100
AcDbEntity
  8
Auxiliar Lines
  6
ByLayer
 62
  256
370
   -1
100
AcDbLine
 10
-500
 20
17
 11
500
 21
17
  0
LINE
  5
13E
100
AcDbEntity
  8
Auxiliar Lines
  6
ByLayer
 62
  256
370
   -1
100
AcDbLine
 10
-500
 20
14.5
 11
500
 21
14.5
  0
LINE
  5
13F
100
AcDbEntity
  8
Auxiliar Lines
  6
ByLayer
 62
  256
370
   -1
100
AcDbLine
 10
-500
 20
0.5
 11
500
 21
0.5
  0
LINE
  5
140
100
AcDbEntity
  8
Auxiliar Lines
  6
ByLayer
 62
  256
370
   -1
100
AcDbLine
 10
-500
 20
-22
 11
500
 21
-22
  0
LINE
  5
141
100
AcDbEntity
  8
Auxiliar Lines
  6
ByLayer
 62
  256
370
   -1
100
AcDbLine
 10
-500
 20
-112.5
 11
500
 21
-112.5
  0
LINE
  5
142
100
AcDbEntity
  8
0
  6
ByLayer
 62
  256
370
   -1
100
AcDbLine
 10
104.5902440647568
 20
112.5
 11
191.5902440647568
 21
112.5
  0
LINE
  5
143
100
AcDbEntity
  8
Auxiliar Lines
  6
ByLayer
 62
  256
370
   -1
100
AcDbLine
 10
-500
 20
101.5
 11
500
 21
101.5
  0
LINE
  5
144
100
AcDbEntity
  8
Auxiliar Lines
  6
ByLayer
 62
  256
370
   -1
100
AcDbLine
 10
-500
 20
51.50000000000001
 11
500
 21
51.50000000000001
  0
LINE
  5
145
100
AcDbEntity
  8
Hiden Lines
  6
ByLayer
 62
  256
370
   -1
100
AcDbLine
 10
104.5902440647568
 20
101.5
 11
191.5902440647568
 21
101.5
  0
LINE
  5
146
100
AcDbEntity
  8
0
  6
ByLayer
 62
  256
370
   -1
100
AcDbLine
 10
104.5902440647568
 20
45.99999999999997
 11
191.5902440647568
 21
45.99999999999997
  0
LINE
  5
147
100
AcDbEntity
  8
Hiden Lines
  6
ByLayer
 62
  256
370
   -1
100
AcDbLine
 10
104.5902440647568
 20
40.5
 11
191.5902440647568
 21
40.5
  0
LINE
  5
148
100
AcDbEntity
  8
0
  6
ByLayer
 62
  256
370
   -1
100
AcDbLine
 10
109.5902440647568
 20
0.5
 11
186.5902440647568
 21
0.5
  0
LINE
  5
149
100
AcDbEntity
  8
0
  6
ByLayer
 62
  256
370
   -1
100
AcDbLine
 10
104.5902440647568
 20
112.5
 11
104.5902440647568
 21
46
  0
LINE
  5
14A
100
AcDbEntity
  8
0
  6
ByLayer
 62
  256
370
   -1
100
AcDbLine
 10
191.5902440647568
 20
112.5
 11
191.5902440647568
 21
46
  0
LINE
  5
14B
100
AcDbEntity
  8
0
  6
ByLayer
 62
  256
370
   -1
100
AcDbLine
 10
108.0517825262953
 20
14.5
 11
188.1287056032184
 21
14.5
  0
LINE
  5
14C
100
AcDbEntity
  8
0
  6
ByLayer
 62
  256
370
   -1
100
AcDbLine
 10
107.77705725157
 20
17
 11
188.4034308779436
 21
17
  0
LINE
  5
14D
100
AcDbEntity
  8
0
  6
ByLayer
 62
  256
370
   -1
100
AcDbLine
 10
104.5902440647568
 20
46
 11
107.77705725157
 21
17
  0
LINE
  5
14E
100
AcDbEntity
  8
0
  6
ByLayer
 62
  256
370
   -1
100
AcDbLine
 10
108.0517825262953
 20
14.5
 11
109.5902440647568
 21
0.5
  0
LINE
  5
14F
100
AcDbEntity
  8
0
  6
ByLayer
 62
  256
370
   -1
100
AcDbLine
 10
188.1287056032184
 20
14.5
 11
186.5902440647568
 21
0.5
  0
LINE
  5
150
100
AcDbEntity
  8
0
  6
ByLayer
 62
  256
370
   -1
100
AcDbLine
 10
191.5902440647568
 20
45.99999999999997
 11
188.4034308779436
 21
17
  0
LINE
  5
151
100
AcDbEntity
  8
0
  6
ByLayer
 62
  256
370
   -1
100
AcDbLine
 10
108.783077050705
 20
17
 11
109.0578023254303
 21
14.5
  0
LINE
  5
152
100
AcDbEntity
  8
0
  6
ByLayer
 62
  256
370
   -1
100
AcDbLine
 10
187.3974110788086
 20
17
 11
187.1226858040833
 21
14.5
  0
LINE
  5
153
100
AcDbEntity
  8
Auxiliar Lines
  6
ByLayer
 62
  256
370
   -1
100
AcDbLine
 10
130.5902440647568
 20
-112.5
 11
165.5902440647568
 21
-112.5
  0
LINE
  5
154
100
AcDbEntity
  8
0
  6
ByLayer
 62
  256
370
   -1
100
AcDbLine
 10
130.5902440647568
 20
-112.5
 11
165.5902440647568
 21
-112.5
  0
LINE
  5
155
100
AcDbEntity
  8
0
  6
ByLayer
 62
  256
370
   -1
100
AcDbLine
 10
136.8402440647568
 20
0.5
 11
136.8402440647568
 21
-22
  0
LINE
  5
156
100
AcDbEntity
  8
0
  6
ByLayer
 62
  256
370
   -1
100
AcDbLine
 10
159.3402440647568
 20
-22
 11
159.3402440647568
 21
0.5
  0
LINE
  5
157
100
AcDbEntity
  8
0
  6
ByLayer
 62
  256
370
   -1
100
AcDbLine
 10
135.0902440647568
 20
-22
 11
161.0902440647568
 21
-22
  0
LINE
  5
158
100
AcDbEntity
  8
0
  6
ByLayer
 62
  256
370
   -1
100
AcDbLine
 10
135.0902440647568
 20
-22
 11
130.5902440647568
 21
-112.5
  0
LINE
  5
159
100
AcDbEntity
  8
0
  6
ByLayer
 62
  256
370
   -1
100
AcDbLine
 10
165.5902440647568
 20
-112.5
 11
161.0902440647568
 21
-22
  0
LINE
  5
15A
100
AcDbEntity
  8
Auxiliar Lines
  6
ByLayer
 62
  256
370
   -1
100
AcDbLine
 10
-500
 20
-1.5
 11
500
 21
-1.5
  0
LINE
  5
15B
100
AcDbEntity
  8
Auxiliar Lines
  6
ByLayer
 62
  256
370
   -1
100
AcDbLine
 10
-500
 20
-13.5
 11
500
 21
-13.5
  0
LINE
  5
15C
100
AcDbEntity
  8
Auxiliar Lines
  6
ByLayer
 62
  256
370
   -1
100
AcDbLine
 10
-500
 20
-8.5
 11
500
 21
-8.5
  0
LINE
  5
15D
100
AcDbEntity
  8
Auxiliar Lines
  6
ByLayer
 62
  256
370
   -1
100
AcDbLine
 10
159.3402440647568
 20
0.5
 11
186.5902440647568
 21
0.5
  0
LINE
  5
15E
100
AcDbEntity
  8
Auxiliar Lines
  6
ByLayer
 62
  256
370
   -1
100
AcDbLine
 10
136.8402440647568
 20
0.5
 11
109.5902440647568
 21
0.5
  0
LINE
  5
15F
100
AcDbEntity
  8
Auxiliar Lines
  6
ByLayer
 62
  256
370
   -1
100
AcDbLine
 10
123.2152440647568
 20
0.5
 11
123.2152440647568
 21
-22
  0
LINE
  5
160
100
AcDbEntity
  8
Auxiliar Lines
  6
ByLayer
 62
  256
370
   -1
100
AcDbLine
 10
172.9652440647568
 20
0.5
 11
172.9652440647568
 21
-22
  0
LINE
  5
161
100
AcDbEntity
  8
0
  6
ByLayer
 62
  256
370
   -1
100
AcDbLine
 10
166.2152440647568
 20
-1.5
 11
179.7152440647568
 21
-1.5
  0
LINE
  5
162
100
AcDbEntity
  8
0
  6
ByLayer
 62
  256
370
   -1
100
AcDbLine
 10
115.2152440647568
 20
-8.5
 11
131.2152440647568
 21
-8.5
  0
LINE
  5
163
100
AcDbEntity
  8
0
  6
ByLayer
 62
  256
370
   -1
100
AcDbLine
 10
116.9652440647568
 20
-13.5
 11
129.4652440647568
 21
-13.5
  0
LINE
  5
164
100
AcDbEntity
  8
0
  6
ByLayer
 62
  256
370
   -1
100
AcDbLine
 10
179.7152440647568
 20
-1.5
 11
179.7152440647568
 21
0.5
  0
LINE
  5
165
100
AcDbEntity
  8
0
  6
ByLayer
 62
  256
370
   -1
100
AcDbLine
 10
166.2152440647568
 20
-1.5
 11
166.2152440647568
 21
0.5
  0
LINE
  5
166
100
AcDbEntity
  8
0
  6
ByLayer
 62
  256
370
   -1
100
AcDbLine
 10
116.9652440647568
 20
-13.5
 11
116.9652440647568
 21
-8.5
  0
LINE
  5
167
100
AcDbEntity
  8
0
  6
ByLayer
 62
  256
370
   -1
100
AcDbLine
 10
129.4652440647568
 20
-13.5
 11
129.4652440647568
 21
-8.5
  0
LINE
  5
168
100
AcDbEntity
  8
0
  6
ByLayer
 62
  256
370
   -1
100
AcDbLine
 10
115.2152440647568
 20
-8.5
 11
115.2152440647568
 21
0.5
  0
LINE
  5
169
100
AcDbEntity
  8
0
  6
ByLayer
 62
  256
370
   -1
100
AcDbLine
 10
131.2152440647568
 20
-8.5
 11
131.2152440647568
 21
0.5
  0
LINE
  5
16A
100
AcDbEntity
  8
Hiden Lines
  6
ByLayer
 62
  256
370
   -1
100
AcDbLine
 10
104.5902440647568
 20
51.50000000000001
 11
191.5902440647568
 21
51.50000000000001
  0
LINE
  5
16B
100
AcDbEntity
  8
Auxiliar Lines
  6
ByLayer
 62
  256
370
   -1
100
AcDbLine
 10
104.5902440647568
 20
-454
 11
104.5902440647568
 21
546
  0
LINE
  5
16C
100
AcDbEntity
  8
Auxiliar Lines
  6
ByLayer
 62
  256
370
   -1
100
AcDbLine
 10
148.0902440647568
 20
-454
 11
148.0902440647568
 21
546
  0
LINE
  5
16D
100
AcDbEntity
  8
Auxiliar Lines
  6
ByLayer
 62
  256
370
   -1
100
AcDbLine
 10
191.5902440647568
 20
-454
 11
191.5902440647568
 21
546
  0
LINE
  5
16E
100
AcDbEntity
  8
Auxiliar Lines
  6
ByLayer
 62
  256
370
   -1
100
AcDbLine
 10
109.5902440647568
 20
-499.5
 11
109.5902440647568
 21
500.5
  0
LINE
  5
16F
100
AcDbEntity
  8
Auxiliar Lines
  6
ByLayer
 62
  256
370
   -1
100
AcDbLine
 10
186.5902440647567
 20
-499.5
 11
186.5902440647568
 21
500.5
  0
LINE
  5
170
100
AcDbEntity
  8
Auxiliar Lines
  6
ByLayer
 62
  256
370
   -1
100
AcDbLine
 10
179.7152440647568
 20
-501.5
 11
179.7152440647568
 21
498.5
  0
LINE
  5
171
100
AcDbEntity
  8
Auxiliar Lines
  6
ByLayer
 62
  256
370
   -1
100
AcDbLine
 10
166.2152440647568
 20
-501.5
 11
166.2152440647568
 21
498.5
  0
LINE
  5
172
100
AcDbEntity
  8
Auxiliar Lines
  6
ByLayer
 62
  256
370
   -1
100
AcDbLine
 10
131.2152440647568
 20
-508.5
 11
131.2152440647568
 21
491.5
  0
LINE
  5
173
100
AcDbEntity
  8
Auxiliar Lines
  6
ByLayer
 62
  256
370
   -1
100
AcDbLine
 10
115.2152440647568
 20
-508.5
 11
115.2152440647568
 21
491.5
  0
LINE
  5
174
100
AcDbEntity
  8
Auxiliar Lines
  6
ByLayer
 62
  256
370
   -1
100
AcDbLine
 10
116.9652440647567
 20
-513.5
 11
116.9652440647568
 21
486.5
  0
LINE
  5
175
100
AcDbEntity
  8
Auxiliar Lines
  6
ByLayer
 62
  256
370
   -1
100
AcDbLine
 10
129.4652440647568
 20
-513.5
 11
129.4652440647568
 21
486.5
  0
LINE
  5
176
100
AcDbEntity
  8
Auxiliar Lines
  6
ByLayer
 62
  256
370
   -1
100
AcDbLine
 10
136.8402440647568
 20
-499.5
 11
136.8402440647568
 21
500.5
  0
LINE
  5
177
100
AcDbEntity
  8
Auxiliar Lines
  6
ByLayer
 62
  256
370
   -1
100
AcDbLine
 10
159.3402440647568
 20
-499.5
 11
159.3402440647568
 21
500.5
  0
LINE
  5
178
100
AcDbEntity
  8
Auxiliar Lines
  6
ByLayer
 62
  256
370
   -1
100
AcDbLine
 10
130.5902440647568
 20
-612.5
 11
130.5902440647568
 21
387.5
  0
LINE
  5
179
100
AcDbEntity
  8
Auxiliar Lines
  6
ByLayer
 62
  256
370
   -1
100
AcDbLine
 10
165.5902440647568
 20
-612.5
 11
165.5902440647568
 21
387.5
  0
LINE
  5
17A
100
AcDbEntity
  8
Auxiliar Lines
  6
ByLayer
 62
  256
370
   -1
100
AcDbLine
 10
-500
 20
-212.5
 11
500
 21
-212.5
  0
LINE
  5
17B
100
AcDbEntity
  8
Auxiliar Lines
  6
ByLayer
 62
  256
370
   -1
100
AcDbLine
 10
-500
 20
-176.5
 11
500
 21
-176.5
  0
LINE
  5
17C
100
AcDbEntity
  8
0
  6
ByLayer
 62
  256
370
   -1
100
AcDbLine
 10
104.5902440647568
 20
-212.5
 11
191.5902440647568
 21
-212.5
  0
LINE
  5
17D
100
AcDbEntity
  8
0
  6
ByLayer
 62
  256
370
   -1
100
AcDbLine
 10
104.5902440647568
 20
-140.5
 11
191.5902440647568
 21
-140.5
  0
LINE
  5
17E
100
AcDbEntity
  8
0
  6
ByLayer
 62
  256
370
   -1
100
AcDbLine
 10
104.5902440647568
 20
-140.5
 11
104.5902440647568
 21
-212.5
  0
LINE
  5
17F
100
AcDbEntity
  8
0
  6
ByLayer
 62
  256
370
   -1
100
AcDbLine
 10
191.5902440647568
 20
-140.5
 11
191.5902440647568
 21
-212.5
  0
CIRCLE
  5
180
100
AcDbEntity
  8
0
  6
ByLayer
 62
  256
370
   -1
100
AcDbCircle
 10
148.0902440647568
 20
-176.5
 40
17.5
  0
CIRCLE
  5
181
100
AcDbEntity
  8
0
  6
ByLayer
 62
  256
370
   -1
100
AcDbCircle
 10
172.9652440647568
 20
-176.5
 40
6.75
  0
CIRCLE
  5
182
100
AcDbEntity
  8
0
  6
ByLayer
 62
  256
370
   -1
100
AcDbCircle
 10
123.2152440647568
 20
-176.5
 40
6.250000000000021
  0
ARC
  5
183
100
AcDbEntity
  8
0
  6
ByLayer
 62
  256
370
   -1
100
AcDbCircle
 10
123.2152440647568
 20
-176.5
 40
8.000000000000014
100
AcDbArc
 50
18.91170631687983
 51
341.0882936831202
  0
ARC
  5
184
100
AcDbEntity
  8
Hiden Lines
  6
ByLayer
 62
  256
370
   -1
100
AcDbCircle
 10
123.2152440647568
 20
-176.5
 40
8.000000000000014
100
AcDbArc
 50
341.0882936831202
 51
18.9117063168798
  0
LINE
  5
185
100
AcDbEntity
  8
Auxiliar Lines
  6
ByLayer
 62
  256
370
   -1
100
AcDbLine
 10
-500
 20
-158.5
 11
500
 21
-158.5
  0
LINE
  5
186
100
AcDbEntity
  8
Auxiliar Lines
  6
ByLayer
 62
  256
370
   -1
100
AcDbLine
 10
-500
 20
-194.5
 11
500
 21
-194.5
  0
LINE
  5
187
100
AcDbEntity
  8
0
  6
ByLayer
 62
  256
370
   -1
100
AcDbLine
 10
186.5902440647568
 20
-194.5
 11
109.5902440647568
 21
-194.5
  0
LINE
  5
188
100
AcDbEntity
  8
0
  6
ByLayer
 62
  256
370
   -1
100
AcDbLine
 10
109.5902440647568
 20
-194.5
 11
109.5902440647568
 21
-158.5
  0
LINE
  5
189
100
AcDbEntity
  8
0
  6
ByLayer
 62
  256
370
   -1
100
AcDbLine
 10
109.5902440647568
 20
-158.5
 11
186.5902440647568
 21
-158.5
  0
LINE
  5
18A
100
AcDbEntity
  8
0
  6
ByLayer
 62
  256
370
   -1
100
AcDbLine
 10
186.5902440647568
 20
-158.5
 11
186.5902440647568
 21
-194.5
  0
LINE
  5
18B
100
AcDbEntity
  8
0
  6
ByLayer
 62
  256
370
   -1
100
AcDbLine
 10
109.5902440647568
 20
-158.5
 11
104.5902440647568
 21
-140.5
  0
LINE
  5
18C
100
AcDbEntity
  8
0
  6
ByLayer
 62
  256
370
   -1
100
AcDbLine
 10
186.5902440647568
 20
-158.5
 11
191.5902440647568
 21
-140.5
  0
LINE
  5
18D
100
AcDbEntity
  8
0
  6
ByLayer
 62
  256
370
   -1
100
AcDbLine
 10
191.5902440647568
 20
-212.5
 11
186.5902440647568
 21
-194.5
  0
LINE
  5
18E
100
AcDbEntity
  8
0
  6
ByLayer
 62
  256
370
   -1
100
AcDbLine
 10
109.5902440647568
 20
-194.5
 11
104.5902440647568
 21
-212.5
  0
CIRCLE
  5
18F
100
AcDbEntity
  8
Hiden Lines
  6
ByLayer
 62
  256
370
   -1
100
AcDbCircle
 10
148.0902440647568
 20
-176.5
 40
11.25
  0
DIMENSION
  5
190
100
AcDbEntity
  8
Dimensions
  6
ByLayer
 62
  256
370
   -1
100
AcDbDimension
  2
*D1
 10
282.1827272727277
 20
112.5
 30
0
 11
276.5577272727277
 21
7.794291182121389e-15
 31
0
 70
   32
 71
    5
 72
    0
  3
Standard
 53
0
210
0
220
0
230
1
100
AcDbAlignedDimension
 13
165.5902440647568
 23
-112.5
 33
0
 14
191.5902440647568
 24
112.5
 34
0
 50
90
100
AcDbRotatedDimension
  0
DIMENSION
  5
191
100
AcDbEntity
  8
Dimensions
  6
ByLayer
 62
  256
370
   -1
100
AcDbDimension
  2
*D2
 10
199.5959595959599
 20
-22
 30
0
 11
193.9709595959599
 21
-67.25
 31
0
 70
   32
 71
    5
 72
    0
  3
Standard
 53
0
210
0
220
0
230
1
100
AcDbAlignedDimension
 13
165.5902440647568
 23
-112.5
 33
0
 14
161.0902440647568
 24
-22
 34
0
 50
90
100
AcDbRotatedDimension
  0
DIMENSION
  5
192
100
AcDbEntity
  8
Dimensions
  6
ByLayer
 62
  256
370
   -1
100
AcDbDimension
  2
*D3
 10
238.3333333333337
 20
112.5
 30
0
 11
232.7083333333337
 21
79.25
 31
0
 70
   32
 71
    5
 72
    0
  3
Standard
 53
0
210
0
220
0
230
1
100
AcDbAlignedDimension
 13
191.5902440647568
 23
46
 33
0
 14
191.5902440647568
 24
112.5
 34
0
 50
90
100
AcDbRotatedDimension
  0
DIMENSION
  5
193
100
AcDbEntity
  8
Dimensions
  6
ByLayer
 62
  256
370
   -1
100
AcDbDimension
  2
*D4
 10
-17.50000000000001
 20
-139.8484848484851
 30
0
 11
-1.209006596354156e-14
 21
-134.2234848484851
 31
0
 70
   32
 71
    5
 72
    0
  3
Standard
 53
0
210
0
220
0
230
1
100
AcDbAlignedDimension
 13
17.49999999999999
 23
-112.5
 33
0
 14
-17.50000000000001
 24
-112.5
 34
0
100
AcDbRotatedDimension
  0
DIMENSION
  5
194
100
AcDbEntity
  8
Dimensions
  6
ByLayer
 62
  256
370
   -1
100
AcDbDimension
  2
*D5
 10
13
 20
-72.96549889606291
 30
0
 11
2.120788751660443e-15
 21
-67.34049889606291
 31
0
 70
   32
 71
    5
 72
    0
  3
Standard
 53
0
210
0
220
0
230
1
100
AcDbAlignedDimension
 13
-13
 23
-22
 33
0
 14
13
 24
-22
 34
0
100
AcDbRotatedDimension
  0
DIMENSION
  5
195
100
AcDbEntity
  8
Dimensions
  6
ByLayer
 62
  256
370
   -1
100
AcDbDimension
  2
*D6
 10
18
 20
-11.7600071480834
 30
0
 11
3.444319122601931e-16
 21
-6.1350071480834
 31
0
 70
   32
 71
    5
 72
    0
  3
Standard
 53
0
210
0
220
0
230
1
100
AcDbAlignedDimension
 13
-18
 23
0.5
 33
0
 14
18
 24
0.5
 34
0
100
AcDbRotatedDimension
  0
DIMENSION
  5
196
100
AcDbEntity
  8
Dimensions
  6
ByLayer
 62
  256
370
   -1
100
AcDbDimension
  2
*D7
 10
11.25
 20
-39.02184190045854
 30
0
 11
-5.437465074399321e-16
 21
-33.39684190045854
 31
0
 70
   32
 71
    5
 72
    0
  3
Standard
 53
0
210
0
220
0
230
1
100
AcDbAlignedDimension
 13
-11.25
 23
-22
 33
0
 14
11.25
 24
-22
 34
0
100
AcDbRotatedDimension
  0
LEADER
  5
197
100
AcDbEntity
  8
Dimensions
  6
ByLayer
 62
  256
370
   -1
100
AcDbLeader
  3
Standard
 71
    1
 72
    0
 73
    3
 74
    0
 75
    0
 40
1
 41
10
 76
3
 76
3
 10
-24.88589776806005
 20
77.70494609210589
 30
0
 10
-53.32692378870012
 20
91.92545910242592
 30
0
 10
-107.6695985067088
 20
91.92545910242592
 30
0
  0
LEADER
  5
198
100
AcDbEntity
  8
Dimensions
  6
ByLayer
 62
  256
370
   -1
100
AcDbLeader
  3
Standard
 71
    1
 72
    0
 73
    3
 74
    0
 75
    0
 40
1
 41
10
 76
3
 76
3
 10
27.74988341386128
 20
53.56653165094501
 30
0
 10
41.13791263699724
 20
40.12216170768866
 30
0
 10
80.24432341537732
 20
40.12216170768866
 30
0
  0
MTEXT
  5
199
100
AcDbEntity
  8
Dimensions
  6
ByLayer
 62
  256
370
   -1
100
AcDbMText
 10
51.71507101180049
 20
47.953974938215
 30
0
 40
5
 41
14.86111111111111
 71
    1
 72
    1
  1
72 %%C
  7
STANDARD
210
0
220
0
230
1
 50
0
 73
    2
 44
1
  0
MTEXT
  5
19A
100
AcDbEntity
  8
Dimensions
  6
ByLayer
 62
  256
370
   -1
100
AcDbMText
 10
-89.57176877011881
 20
100.964669183862
 30
0
 40
5
 41
14.86111111111142
 71
    1
 72
    1
  1
50 %%C
  7
STANDARD
210
0
220
0
230
1
 50
0
 73
    2
 44
1
  0
DIMENSION
  5
19B
100
AcDbEntity
  8
Dimensions
  6
ByLayer
 62
  256
370
   -1
100
AcDbDimension
  2
*D10
 10
223.465204447887
 20
-212.5
 30
0
 11
217.840204447887
 21
-176.5
 31
0
 70
   32
 71
    5
 72
    0
  3
Standard
 53
0
210
0
220
0
230
1
100
AcDbAlignedDimension
 13
191.5902440647568
 23
-140.5
 33
0
 14
191.5902440647568
 24
-212.5
 34
0
 50
90
100
AcDbRotatedDimension
  0
DIMENSION
  5
19C
100
AcDbEntity
  8
Dimensions
  6
ByLayer
 62
  256
370
   -1
100
AcDbDimension
  2
*D11
 10
207.2131895789498
 20
-158.5
 30
0
 11
201.5881895789498
 21
-176.5
 31
0
 70
   32
 71
    5
 72
    0
  3
Standard
 53
0
210
0
220
0
230
1
100
AcDbAlignedDimension
 13
186.5902440647568
 23
-194.5
 33
0
 14
186.5902440647568
 24
-158.5
 34
0
 50
90
100
AcDbRotatedDimension
  0
DIMENSION
  5
19D
100
AcDbEntity
  8
Dimensions
  6
ByLayer
 62
  256
370
   -1
100
AcDbDimension
  2
*D12
 10
191.5902440647568
 20
-251.3983550038729
 30
0
 11
148.0902440647568
 21
-245.7733550038729
 31
0
 70
   32
 71
    5
 72
    0
  3
Standard
 53
0
210
0
220
0
230
1
100
AcDbAlignedDimension
 13
104.5902440647568
 23
-212.5
 33
0
 14
191.5902440647568
 24
-212.5
 34
0
100
AcDbRotatedDimension
  0
DIMENSION
  5
19E
100
AcDbEntity
  8
Dimensions
  6
ByLayer
 62
  256
370
   -1
100
AcDbDimension
  2
*D13
 10
186.5902440647568
 20
-233.1148382763185
 30
0
 11
148.0902440647568
 21
-227.4898382763185
 31
0
 70
   32
 71
    5
 72
    0
  3
Standard
 53
0
210
0
220
0
230
1
100
AcDbAlignedDimension
 13
109.5902440647568
 23
-194.5
 33
0
 14
186.5902440647568
 24
-194.5
 34
0
100
AcDbRotatedDimension
  0
DIMENSION
  5
19F
100
AcDbEntity
  8
Dimensions
  6
ByLayer
 62
  256
370
   -1
100
AcDbDimension
  2
*D14
 10
148.0902440647568
 20
-176.5
 30
0
 11
134.3134972038535
 21
-148.6905926296205
 31
0
 70
   36
 71
    5
 72
    0
  3
Standard
 53
0
210
0
220
0
230
1
100
AcDbRadialDimension
 15
137.6082575706974
 25
-162.4865079605989
 35
0
 40
0
  0
DIMENSION
  5
1A0
100
AcDbEntity
  8
Dimensions
  6
ByLayer
 62
  256
370
   -1
100
AcDbDimension
  2
*D15
 10
148.0902440647568
 20
-176.5
 30
0
 11
154.975286391448
 21
-150.7978993758078
 31
0
 70
   36
 71
    5
 72
    0
  3
Standard
 53
0
210
0
220
0
230
1
100
AcDbRadialDimension
 15
153.2327082649368
 25
-166.4941236290934
 35
0
 40
0
  0
DIMENSION
  5
1A1
100
AcDbEntity
  8
Dimensions
  6
ByLayer
 62
  256
370
   -1
100
AcDbDimension
  2
*D16
 10
172.9652440647568
 20
-176.5
 30
0
 11
178.8419234936426
 21
-156.105567955647
 31
0
 70
   36
 71
    5
 72
    0
  3
Standard
 53
0
210
0
220
0
230
1
100
AcDbRadialDimension
 15
176.486378724599
 25
-170.741171064595
 35
0
 40
0
  0
DIMENSION
  5
1A2
100
AcDbEntity
  8
Dimensions
  6
ByLayer
 62
  256
370
   -1
100
AcDbDimension
  2
*D17
 10
123.2152440647568
 20
-176.5
 30
0
 11
119.7509699804643
 21
-160.2453306478442
 31
0
 70
   36
 71
    5
 72
    0
  3
Standard
 53
0
210
0
220
0
230
1
100
AcDbRadialDimension
 15
118.99795928392
 25
-169.7018745909389
 35
0
 40
0
  0
DIMENSION
  5
1A3
100
AcDbEntity
  8
Dimensions
  6
ByLayer
 62
  256
370
   -1
100
AcDbDimension
  2
*D18
 10
123.2152440647568
 20
-176.5
 30
0
 11
102.9858785388831
 21
-171.9146197361139
 31
0
 70
   36
 71
    5
 72
    0
  3
Standard
 53
0
210
0
220
0
230
1
100
AcDbRadialDimension
 15
116.9736007154527
 25
-176.8230917827613
 35
0
 40
0
  0
DIMENSION
  5
1A4
100
AcDbEntity
  8
Dimensions
  6
ByLayer
 62
  256
370
   -1
100
AcDbDimension
  2
*D19
 10
-32.41923677398894
 20
14.5
 30
0
 11
-38.04423677398894
 21
7.5
 31
0
 70
   32
 71
    5
 72
    0
  3
Standard
 53
0
210
0
220
0
230
1
100
AcDbAlignedDimension
 13
-18
 23
0.5
 33
0
 14
-18.34602815350932
 24
14.5
 34
0
 50
90
100
AcDbRotatedDimension
  0
DIMENSION
  5
1A5
100
AcDbEntity
  8
Dimensions
  6
ByLayer
 62
  256
370
   -1
100
AcDbDimension
  2
*D20
 10
-48.84498340614334
 20
17
 30
0
 11
-54.46998340614334
 21
15.75
 31
0
 70
   32
 71
    5
 72
    0
  3
Standard
 53
0
210
0
220
0
230
1
100
AcDbAlignedDimension
 13
-18.34602815350932
 23
14.5
 33
0
 14
-18.40781889520741
 24
17
 34
0
 50
90
100
AcDbRotatedDimension
  0
DIMENSION
  5
1A6
100
AcDbEntity
  8
Dimensions
  6
ByLayer
 62
  256
370
   -1
100
AcDbDimension
  2
*D21
 10
-79.14874225409659
 20
17.00000000000001
 30
0
 11
-84.77374225409659
 21
31.49999999999999
 31
0
 70
   32
 71
    5
 72
    0
  3
Standard
 53
0
210
0
220
0
230
1
100
AcDbAlignedDimension
 13
-19.12459149890527
 23
45.99999999999999
 33
0
 14
-18.40781889520741
 24
17
 34
0
 50
90
100
AcDbRotatedDimension
  0
DIMENSION
  5
1A7
100
AcDbEntity
  8
Dimensions
  6
ByLayer
 62
  256
370
   -1
100
AcDbDimension
  2
*D22
 10
18.40781889520741
 20
20.49954376015883
 30
0
 11
17.90766619469447
 21
26.12454376015883
 31
0
 70
   32
 71
    5
 72
    0
  3
Standard
 53
0
210
0
220
0
230
1
100
AcDbAlignedDimension
 13
17.40751349418153
 23
17
 33
0
 14
18.40781889520741
 24
17
 34
0
100
AcDbRotatedDimension
  0
DIMENSION
  5
1A8
100
AcDbEntity
  8
Dimensions
  6
ByLayer
 62
  256
370
   -1
100
AcDbDimension
  2
*D23
 10
95.37890489241072
 20
0.5000000000000024
 30
0
 11
89.75390489241072
 21
-3.999999999999999
 31
0
 70
   32
 71
    5
 72
    0
  3
Standard
 53
0
210
0
220
0
230
1
100
AcDbAlignedDimension
 13
115.2152440647568
 23
-8.5
 33
0
 14
115.2152440647568
 24
0.5
 34
0
 50
90
100
AcDbRotatedDimension
  0
DIMENSION
  5
1A9
100
AcDbEntity
  8
Dimensions
  6
ByLayer
 62
  256
370
   -1
100
AcDbDimension
  2
*D24
 10
107.1503520152082
 20
-8.499999999999998
 30
0
 11
101.5253520152082
 21
-11
 31
0
 70
   32
 71
    5
 72
    0
  3
Standard
 53
0
210
0
220
0
230
1
100
AcDbAlignedDimension
 13
116.9652440647568
 23
-13.5
 33
0
 14
116.9652440647568
 24
-8.5
 34
0
 50
90
100
AcDbRotatedDimension
  0
DIMENSION
  5
1AA
100
AcDbEntity
  8
Dimensions
  6
ByLayer
 62
  256
370
   -1
100
AcDbDimension
  2
*D25
 10
214.5853878667687
 20
0.4999999999999957
 30
0
 11
208.9603878667687
 21
-0.4999999999999993
 31
0
 70
   32
 71
    5
 72
    0
  3
Standard
 53
0
210
0
220
0
230
1
100
AcDbAlignedDimension
 13
179.7152440647568
 23
-1.5
 33
0
 14
179.7152440647568
 24
0.5
 34
0
 50
90
100
AcDbRotatedDimension
  0
ENDSEC
  0
SECTION
  2
OBJECTS
  0
DICTIONARY
  5
C
330
0
100
AcDbDictionary
281
    1
  3
ACAD_GROUP
350
D
  0
DICTIONARY
  5
D
330
C
100
AcDbDictionary
281
    1
  0
ENDSEC
  0
EOF
