  0
SECTION
  2
HEADER
  9
$ACADVER
  1
AC1032
  9
$ACADMAINTVER
 90
        4
  9
$DWGCODEPAGE
  3
ANSI_1252
  9
$LASTSAVEDBY
  1
Yvonne
  9
$REQUIREDVERSIONS
160
                 0
  9
$INSBASE
 10
0.0
 20
0.0
 30
0.0
  9
$EXTMIN
 10
1209.830115546236
 20
947.6476923895793
 30
0.0
  9
$EXTMAX
 10
1388.230621208931
 20
987.5742647661864
 30
0.0
  9
$LIMMIN
 10
0.0
 20
0.0
  9
$LIMMAX
 10
420.0
 20
297.0
  9
$ORTHOMODE
 70
     0
  9
$REGENMODE
 70
     1
  9
$FILLMODE
 70
     1
  9
$QTEXTMODE
 70
     0
  9
$MIRRTEXT
 70
     0
  9
$LTSCALE
 40
1.0
  9
$ATTMODE
 70
     1
  9
$TEXTSIZE
 40
2.5
  9
$TRACEWID
 40
1.0
  9
$TEXTSTYLE
  7
Standard
  9
$CLAYER
  8
0
  9
$CELTYPE
  6
ByLayer
  9
$CECOLOR
 62
   256
  9
$CELTSCALE
 40
1.0
  9
$DISPSILH
 70
     0
  9
$DIMSCALE
 40
1.0
  9
$DIMASZ
 40
2.5
  9
$DIMEXO
 40
0.625
  9
$DIMDLI
 40
3.75
  9
$DIMRND
 40
0.0
  9
$DIMDLE
 40
0.0
  9
$DIMEXE
 40
1.25
  9
$DIMTP
 40
0.0
  9
$DIMTM
 40
0.0
  9
$DIMTXT
 40
2.5
  9
$DIMCEN
 40
2.5
  9
$DIMTSZ
 40
0.0
  9
$DIMTOL
 70
     0
  9
$DIMLIM
 70
     0
  9
$DIMTIH
 70
     0
  9
$DIMTOH
 70
     0
  9
$DIMSE1
 70
     0
  9
$DIMSE2
 70
     0
  9
$DIMTAD
 70
     1
  9
$DIMZIN
 70
     8
  9
$DIMBLK
  1

  9
$DIMASO
 70
     1
  9
$DIMSHO
 70
     1
  9
$DIMPOST
  1

  9
$DIMAPOST
  1

  9
$DIMALT
 70
     0
  9
$DIMALTD
 70
     3
  9
$DIMALTF
 40
0.03937007874016
  9
$DIMLFAC
 40
1.0
  9
$DIMTOFL
 70
     1
  9
$DIMTVP
 40
0.0
  9
$DIMTIX
 70
     0
  9
$DIMSOXD
 70
     0
  9
$DIMSAH
 70
     0
  9
$DIMBLK1
  1

  9
$DIMBLK2
  1

  9
$DIMSTYLE
  2
ISO-25
  9
$DIMCLRD
 70
     0
  9
$DIMCLRE
 70
     0
  9
$DIMCLRT
 70
     0
  9
$DIMTFAC
 40
1.0
  9
$DIMGAP
 40
0.625
  9
$DIMJUST
 70
     0
  9
$DIMSD1
 70
     0
  9
$DIMSD2
 70
     0
  9
$DIMTOLJ
 70
     0
  9
$DIMTZIN
 70
     8
  9
$DIMALTZ
 70
     0
  9
$DIMALTTZ
 70
     0
  9
$DIMUPT
 70
     0
  9
$DIMDEC
 70
     2
  9
$DIMTDEC
 70
     2
  9
$DIMALTU
 70
     2
  9
$DIMALTTD
 70
     3
  9
$DIMTXSTY
  7
Standard
  9
$DIMAUNIT
 70
     0
  9
$DIMADEC
 70
     0
  9
$DIMALTRND
 40
0.0
  9
$DIMAZIN
 70
     0
  9
$DIMDSEP
 70
    44
  9
$DIMATFIT
 70
     3
  9
$DIMFRAC
 70
     0
  9
$DIMLDRBLK
  1

  9
$DIMLUNIT
 70
     2
  9
$DIMLWD
 70
    -2
  9
$DIMLWE
 70
    -2
  9
$DIMTMOVE
 70
     0
  9
$DIMFXL
 40
1.0
  9
$DIMFXLON
 70
     0
  9
$DIMJOGANG
 40
0.7853981633974483
  9
$DIMTFILL
 70
     0
  9
$DIMTFILLCLR
 70
     0
  9
$DIMARCSYM
 70
     0
  9
$DIMLTYPE
  6

  9
$DIMLTEX1
  6

  9
$DIMLTEX2
  6

  9
$DIMTXTDIRECTION
 70
     0
  9
$LUNITS
 70
     2
  9
$LUPREC
 70
     4
  9
$SKETCHINC
 40
1.0
  9
$FILLETRAD
 40
0.0
  9
$AUNITS
 70
     0
  9
$AUPREC
 70
     0
  9
$MENU
  1
.
  9
$ELEVATION
 40
0.0
  9
$PELEVATION
 40
0.0
  9
$THICKNESS
 40
0.0
  9
$LIMCHECK
 70
     0
  9
$CHAMFERA
 40
0.0
  9
$CHAMFERB
 40
0.0
  9
$CHAMFERC
 40
0.0
  9
$CHAMFERD
 40
0.0
  9
$SKPOLY
 70
     0
  9
$TDCREATE
 40
2458159.543738426
  9
$TDUCREATE
 40
2458159.793738426
  9
$TDUPDATE
 40
2458257.499884259
  9
$TDUUPDATE
 40
2458257.708217593
  9
$TDINDWG
 40
0.1596643519
  9
$TDUSRTIMER
 40
0.1596527778
  9
$USRTIMER
 70
     1
  9
$ANGBASE
 50
0.0
  9
$ANGDIR
 70
     0
  9
$PDMODE
 70
     0
  9
$PDSIZE
 40
0.0
  9
$PLINEWID
 40
0.0
  9
$SPLFRAME
 70
     0
  9
$SPLINETYPE
 70
     6
  9
$SPLINESEGS
 70
     8
  9
$HANDSEED
  5
58E
  9
$SURFTAB1
 70
     6
  9
$SURFTAB2
 70
     6
  9
$SURFTYPE
 70
     6
  9
$SURFU
 70
     6
  9
$SURFV
 70
     6
  9
$UCSBASE
  2

  9
$UCSNAME
  2

  9
$UCSORG
 10
0.0
 20
0.0
 30
0.0
  9
$UCSXDIR
 10
1.0
 20
0.0
 30
0.0
  9
$UCSYDIR
 10
0.0
 20
1.0
 30
0.0
  9
$UCSORTHOREF
  2

  9
$UCSORTHOVIEW
 70
     0
  9
$UCSORGTOP
 10
0.0
 20
0.0
 30
0.0
  9
$UCSORGBOTTOM
 10
0.0
 20
0.0
 30
0.0
  9
$UCSORGLEFT
 10
0.0
 20
0.0
 30
0.0
  9
$UCSORGRIGHT
 10
0.0
 20
0.0
 30
0.0
  9
$UCSORGFRONT
 10
0.0
 20
0.0
 30
0.0
  9
$UCSORGBACK
 10
0.0
 20
0.0
 30
0.0
  9
$PUCSBASE
  2

  9
$PUCSNAME
  2

  9
$PUCSORG
 10
0.0
 20
0.0
 30
0.0
  9
$PUCSXDIR
 10
1.0
 20
0.0
 30
0.0
  9
$PUCSYDIR
 10
0.0
 20
1.0
 30
0.0
  9
$PUCSORTHOREF
  2

  9
$PUCSORTHOVIEW
 70
     0
  9
$PUCSORGTOP
 10
0.0
 20
0.0
 30
0.0
  9
$PUCSORGBOTTOM
 10
0.0
 20
0.0
 30
0.0
  9
$PUCSORGLEFT
 10
0.0
 20
0.0
 30
0.0
  9
$PUCSORGRIGHT
 10
0.0
 20
0.0
 30
0.0
  9
$PUCSORGFRONT
 10
0.0
 20
0.0
 30
0.0
  9
$PUCSORGBACK
 10
0.0
 20
0.0
 30
0.0
  9
$USERI1
 70
     0
  9
$USERI2
 70
     0
  9
$USERI3
 70
     0
  9
$USERI4
 70
     0
  9
$USERI5
 70
     0
  9
$USERR1
 40
0.0
  9
$USERR2
 40
0.0
  9
$USERR3
 40
0.0
  9
$USERR4
 40
0.0
  9
$USERR5
 40
0.0
  9
$WORLDVIEW
 70
     1
  9
$SHADEDGE
 70
     3
  9
$SHADEDIF
 70
    70
  9
$TILEMODE
 70
     1
  9
$MAXACTVP
 70
    64
  9
$PINSBASE
 10
0.0
 20
0.0
 30
0.0
  9
$PLIMCHECK
 70
     0
  9
$PEXTMIN
 10
0.0
 20
0.0
 30
0.0
  9
$PEXTMAX
 10
0.0
 20
0.0
 30
0.0
  9
$PLIMMIN
 10
0.0
 20
0.0
  9
$PLIMMAX
 10
12.0
 20
9.0
  9
$UNITMODE
 70
     0
  9
$VISRETAIN
 70
     1
  9
$PLINEGEN
 70
     0
  9
$PSLTSCALE
 70
     1
  9
$TREEDEPTH
 70
  3020
  9
$CMLSTYLE
  2
Standard
  9
$CMLJUST
 70
     0
  9
$CMLSCALE
 40
20.0
  9
$PROXYGRAPHICS
 70
     1
  9
$MEASUREMENT
 70
     1
  9
$CELWEIGHT
370
    -1
  9
$ENDCAPS
280
     0
  9
$JOINSTYLE
280
     0
  9
$LWDISPLAY
290
     0
  9
$INSUNITS
 70
     4
  9
$HYPERLINKBASE
  1

  9
$STYLESHEET
  1

  9
$XEDIT
290
     1
  9
$CEPSNTYPE
380
     0
  9
$PSTYLEMODE
290
     1
  9
$FINGERPRINTGUID
  2
{85EC03BE-82A4-9944-8B68-AEBF76357910}
  9
$VERSIONGUID
  2
{CC947372-C7A5-D04D-8B8D-87C2D69426B2}
  9
$EXTNAMES
290
     1
  9
$PSVPSCALE
 40
0.0
  9
$OLESTARTUP
290
     0
  9
$SORTENTS
280
   127
  9
$INDEXCTL
280
     0
  9
$HIDETEXT
280
     1
  9
$XCLIPFRAME
280
     2
  9
$HALOGAP
280
     0
  9
$OBSCOLOR
 70
   257
  9
$OBSLTYPE
280
     0
  9
$INTERSECTIONDISPLAY
280
     0
  9
$INTERSECTIONCOLOR
 70
   257
  9
$DIMASSOC
280
     2
  9
$PROJECTNAME
  1

  9
$CAMERADISPLAY
290
     0
  9
$LENSLENGTH
 40
50.0
  9
$CAMERAHEIGHT
 40
0.0
  9
$STEPSPERSEC
 40
2.0
  9
$STEPSIZE
 40
6.0
  9
$3DDWFPREC
 40
2.0
  9
$PSOLWIDTH
 40
5.0
  9
$PSOLHEIGHT
 40
80.0
  9
$LOFTANG1
 40
1.570796326794896
  9
$LOFTANG2
 40
1.570796326794896
  9
$LOFTMAG1
 40
0.0
  9
$LOFTMAG2
 40
0.0
  9
$LOFTPARAM
 70
     7
  9
$LOFTNORMALS
280
     1
  9
$LATITUDE
 40
37.795
  9
$LONGITUDE
 40
-122.394
  9
$NORTHDIRECTION
 40
0.0
  9
$TIMEZONE
 70
 -8000
  9
$LIGHTGLYPHDISPLAY
280
     1
  9
$TILEMODELIGHTSYNCH
280
     1
  9
$CMATERIAL
347
EC
  9
$SOLIDHIST
280
     0
  9
$SHOWHIST
280
     1
  9
$DWFFRAME
280
     2
  9
$DGNFRAME
280
     0
  9
$REALWORLDSCALE
290
     1
  9
$INTERFERECOLOR
 62
     1
  9
$INTERFEREOBJVS
345
F9
  9
$INTERFEREVPVS
346
F6
  9
$CSHADOW
280
     0
  9
$SHADOWPLANELOCATION
 40
0.0
  0
ENDSEC
  0
SECTION
  2
CLASSES
  0
CLASS
  1
ACDBDICTIONARYWDFLT
  2
AcDbDictionaryWithDefault
  3
ObjectDBX Classes
 90
        0
 91
        1
280
     0
281
     0
  0
CLASS
  1
DICTIONARYVAR
  2
AcDbDictionaryVar
  3
ObjectDBX Classes
 90
        0
 91
       11
280
     0
281
     0
  0
CLASS
  1
TABLESTYLE
  2
AcDbTableStyle
  3
ObjectDBX Classes
 90
     4095
 91
        1
280
     0
281
     0
  0
CLASS
  1
MATERIAL
  2
AcDbMaterial
  3
ObjectDBX Classes
 90
     1153
 91
        3
280
     0
281
     0
  0
CLASS
  1
VISUALSTYLE
  2
AcDbVisualStyle
  3
ObjectDBX Classes
 90
     4095
 91
       24
280
     0
281
     0
  0
CLASS
  1
SCALE
  2
AcDbScale
  3
ObjectDBX Classes
 90
     1153
 91
       17
280
     0
281
     0
  0
CLASS
  1
MLEADERSTYLE
  2
AcDbMLeaderStyle
  3
ACDB_MLEADERSTYLE_CLASS
 90
     4095
 91
        2
280
     0
281
     0
  0
CLASS
  1
CELLSTYLEMAP
  2
AcDbCellStyleMap
  3
ObjectDBX Classes
 90
     1152
 91
        1
280
     0
281
     0
  0
CLASS
  1
EXACXREFPANELOBJECT
  2
ExAcXREFPanelObject
  3
EXAC_ESW
 90
     1025
 91
        0
280
     0
281
     0
  0
CLASS
  1
NPOCOLLECTION
  2
AcDbImpNonPersistentObjectsCollection
  3
ObjectDBX Classes
 90
     1153
 91
        0
280
     0
281
     0
  0
CLASS
  1
LAYER_INDEX
  2
AcDbLayerIndex
  3
ObjectDBX Classes
 90
        0
 91
        0
280
     0
281
     0
  0
CLASS
  1
SPATIAL_INDEX
  2
AcDbSpatialIndex
  3
ObjectDBX Classes
 90
        0
 91
        0
280
     0
281
     0
  0
CLASS
  1
IDBUFFER
  2
AcDbIdBuffer
  3
ObjectDBX Classes
 90
        0
 91
        0
280
     0
281
     0
  0
CLASS
  1
ACDBSECTIONVIEWSTYLE
  2
AcDbSectionViewStyle
  3
ObjectDBX Classes
 90
     1025
 91
        1
280
     0
281
     0
  0
CLASS
  1
ACDBDETAILVIEWSTYLE
  2
AcDbDetailViewStyle
  3
ObjectDBX Classes
 90
     1025
 91
        1
280
     0
281
     0
  0
CLASS
  1
SORTENTSTABLE
  2
AcDbSortentsTable
  3
ObjectDBX Classes
 90
        0
 91
        1
280
     0
281
     0
  0
CLASS
  1
ACDBASSOCNETWORK
  2
AcDbAssocNetwork
  3
ObjectDBX Classes
 90
     1025
 91
        2
280
     0
281
     0
  0
CLASS
  1
ACDBASSOCVARIABLE
  2
AcDbAssocVariable
  3
ObjectDBX Classes
 90
     1025
 91
       61
280
     0
281
     0
  0
CLASS
  1
ACDBASSOCVALUEDEPENDENCY
  2
AcDbAssocValueDependency
  3
ObjectDBX Classes
 90
     1025
 91
      108
280
     0
281
     0
  0
CLASS
  1
ACDBASSOCDEPENDENCY
  2
AcDbAssocDependency
  3
ObjectDBX Classes
 90
     1025
 91
       54
280
     0
281
     0
  0
CLASS
  1
ASSOCDIMDEPENDENCYBODY
  2
AcDbAssocDimDependencyBody
  3
ObjectDBX Classes
 90
     1025
 91
       54
280
     0
281
     0
  0
CLASS
  1
ACDBASSOC2DCONSTRAINTGROUP
  2
AcDbAssoc2dConstraintGroup
  3
ObjectDBX Classes
 90
     1025
 91
        1
280
     0
281
     0
  0
CLASS
  1
ACDBASSOCGEOMDEPENDENCY
  2
AcDbAssocGeomDependency
  3
ObjectDBX Classes
 90
     1025
 91
       60
280
     0
281
     0
  0
ENDSEC
  0
SECTION
  2
TABLES
  0
TABLE
  2
VPORT
  5
8
330
0
100
AcDbSymbolTable
 70
     1
  0
VPORT
  5
EA
330
8
100
AcDbSymbolTableRecord
100
AcDbViewportTableRecord
  2
*Active
 70
     0
 10
0.0
 20
0.0
 11
1.0
 21
1.0
 12
1267.431948469594
 22
960.0517721023429
 13
0.0
 23
0.0
 14
10.0
 24
10.0
 15
10.0
 25
10.0
 16
0.0
 26
0.0
 36
1.0
 17
0.0
 27
0.0
 37
0.0
 40
45.06169602091009
 41
2.254152823920265
 42
50.0
 43
0.0
 44
0.0
 50
0.0
 51
0.0
 71
     0
 72
  1000
 73
     1
 74
     3
 75
     0
 76
     1
 77
     0
 78
     0
281
     0
 65
     1
110
0.0
120
0.0
130
0.0
111
1.0
121
0.0
131
0.0
112
0.0
122
1.0
132
0.0
 79
     0
146
0.0
348
F5
 60
     3
 61
     5
292
     1
282
     1
141
0.0
142
0.0
 63
   250
421
  3355443
1001
ACAD_NAV_VCDISPLAY
1070
     3
  0
ENDTAB
  0
TABLE
  2
LTYPE
  5
5
330
0
100
AcDbSymbolTable
 70
     2
  0
LTYPE
  5
14
330
5
100
AcDbSymbolTableRecord
100
AcDbLinetypeTableRecord
  2
ByBlock
 70
     0
  3

 72
    65
 73
     0
 40
0.0
  0
LTYPE
  5
15
330
5
100
AcDbSymbolTableRecord
100
AcDbLinetypeTableRecord
  2
ByLayer
 70
     0
  3

 72
    65
 73
     0
 40
0.0
  0
LTYPE
  5
16
330
5
100
AcDbSymbolTableRecord
100
AcDbLinetypeTableRecord
  2
Continuous
 70
     0
  3
Solid line
 72
    65
 73
     0
 40
0.0
  0
ENDTAB
  0
TABLE
  2
LAYER
  5
2
102
{ACAD_XDICTIONARY
360
1FF
102
}
330
0
100
AcDbSymbolTable
 70
     2
  0
LAYER
  5
10
102
{ACAD_XDICTIONARY
360
13C
102
}
330
2
100
AcDbSymbolTableRecord
100
AcDbLayerTableRecord
  2
0
 70
     0
 62
     7
  6
Continuous
370
    -3
390
F
347
EE
348
0
  0
LAYER
  5
32E
330
2
100
AcDbSymbolTableRecord
100
AcDbLayerTableRecord
  2
*ADSK_CONSTRAINTS
 70
     0
 62
     7
  6
Continuous
370
    -3
390
F
347
EE
348
0
  0
ENDTAB
  0
TABLE
  2
STYLE
  5
3
330
0
100
AcDbSymbolTable
 70
     4
  0
STYLE
  5
11
330
3
100
AcDbSymbolTableRecord
100
AcDbTextStyleTableRecord
  2
Standard
 70
     0
 40
0.0
 41
1.0
 50
0.0
 71
     0
 42
2.5
  3
arial.ttf
  4

1001
ACAD
1000
Arial
1071
       34
  0
STYLE
  5
132
330
3
100
AcDbSymbolTableRecord
100
AcDbTextStyleTableRecord
  2
Anotativo
 70
     0
 40
0.0
 41
1.0
 50
0.0
 71
     0
 42
2.5
  3
arial.ttf
  4

1001
AcadAnnotative
1000
AnnotativeData
1002
{
1070
     1
1070
     1
1002
}
1001
ACAD
1000
Arial
1071
       34
  0
ENDTAB
  0
TABLE
  2
VIEW
  5
6
330
0
100
AcDbSymbolTable
 70
     0
  0
ENDTAB
  0
TABLE
  2
UCS
  5
7
330
0
100
AcDbSymbolTable
 70
     0
  0
ENDTAB
  0
TABLE
  2
APPID
  5
9
330
0
100
AcDbSymbolTable
 70
    12
  0
APPID
  5
12
330
9
100
AcDbSymbolTableRecord
100
AcDbRegAppTableRecord
  2
ACAD
 70
     0
  0
APPID
  5
9E
330
9
100
AcDbSymbolTableRecord
100
AcDbRegAppTableRecord
  2
ACAD_PSEXT
 70
     0
  0
APPID
  5
133
330
9
100
AcDbSymbolTableRecord
100
AcDbRegAppTableRecord
  2
AcadAnnoPO
 70
     0
  0
APPID
  5
134
330
9
100
AcDbSymbolTableRecord
100
AcDbRegAppTableRecord
  2
AcadAnnotative
 70
     0
  0
APPID
  5
135
330
9
100
AcDbSymbolTableRecord
100
AcDbRegAppTableRecord
  2
ACAD_DSTYLE_DIMJAG
 70
     0
  0
APPID
  5
136
330
9
100
AcDbSymbolTableRecord
100
AcDbRegAppTableRecord
  2
ACAD_DSTYLE_DIMTALN
 70
     0
  0
APPID
  5
165
330
9
100
AcDbSymbolTableRecord
100
AcDbRegAppTableRecord
  2
ACAD_MLEADERVER
 70
     0
  0
APPID
  5
217
330
9
100
AcDbSymbolTableRecord
100
AcDbRegAppTableRecord
  2
ACAD_NAV_VCDISPLAY
 70
     0
  0
APPID
  5
276
330
9
100
AcDbSymbolTableRecord
100
AcDbRegAppTableRecord
  2
ACAD_EXEMPT_FROM_CAD_STANDARDS
 70
     0
  0
APPID
  5
337
330
9
100
AcDbSymbolTableRecord
100
AcDbRegAppTableRecord
  2
ACAD_DSTYLE_DIMINSPECT
 70
     0
  0
APPID
  5
338
330
9
100
AcDbSymbolTableRecord
100
AcDbRegAppTableRecord
  2
ACAD_DSTYLE_DIMJAG_POSITION
 70
     0
  0
APPID
  5
33A
330
9
100
AcDbSymbolTableRecord
100
AcDbRegAppTableRecord
  2
AcadAnnoMonitorAlertIconDisabled
 70
     0
  0
ENDTAB
  0
TABLE
  2
DIMSTYLE
  5
A
330
0
100
AcDbSymbolTable
 70
     6
100
AcDbDimStyleTable
 71
     2
340
27
340
137
  0
DIMSTYLE
105
1B0
330
A
100
AcDbSymbolTableRecord
100
AcDbDimStyleTableRecord
  2
Standard
 70
     0
340
11
  0
DIMSTYLE
105
137
330
A
100
AcDbSymbolTableRecord
100
AcDbDimStyleTableRecord
  2
Anotativo
 70
     0
 40
0.0
 41
2.5
 42
0.625
 43
3.75
 44
1.25
 73
     0
 74
     0
 77
     1
 78
     8
140
2.5
141
2.5
143
0.03937007874016
147
0.625
171
     3
172
     1
271
     2
272
     2
274
     3
278
    44
283
     0
284
     8
340
11
1001
AcadAnnotative
1000
AnnotativeData
1002
{
1070
     1
1070
     1
1002
}
1001
ACAD_DSTYLE_DIMJAG
1070
   388
1040
1.5
1001
ACAD_DSTYLE_DIMTALN
1070
   392
1070
     0
  0
DIMSTYLE
105
27
102
{ACAD_REACTORS
330
339
330
344
330
34B
330
35A
330
361
330
368
330
36F
330
376
330
37D
330
384
330
38A
330
390
330
396
330
39C
330
3A3
330
3A9
330
3AF
330
3B6
330
3BC
330
3DE
330
3E4
330
3EA
330
3F0
330
40A
330
411
330
418
330
41F
330
426
330
42D
330
434
330
43B
330
442
330
448
330
44E
330
454
330
45A
330
460
330
466
330
46C
330
473
330
47A
330
481
330
4CE
330
4D5
330
4DC
330
4E3
330
520
330
52A
330
52F
330
53B
102
}
330
A
100
AcDbSymbolTableRecord
100
AcDbDimStyleTableRecord
  2
ISO-25
 70
     0
 41
2.5
 42
0.625
 43
3.75
 44
1.25
 73
     0
 74
     0
 77
     1
 78
     8
140
2.5
141
2.5
143
0.03937007874016
147
0.625
171
     3
172
     1
271
     2
272
     2
274
     3
278
    44
283
     0
284
     8
340
11
  0
ENDTAB
  0
TABLE
  2
BLOCK_RECORD
  5
1
330
0
100
AcDbSymbolTable
 70
     3
  0
BLOCK_RECORD
  5
1F
102
{ACAD_XDICTIONARY
360
1CE
102
}
330
1
100
AcDbSymbolTableRecord
100
AcDbBlockTableRecord
  2
*Model_Space
340
22
 70
     0
280
     1
281
     0
  0
BLOCK_RECORD
  5
D2
330
1
100
AcDbSymbolTableRecord
100
AcDbBlockTableRecord
  2
*Paper_Space
340
D3
 70
     0
280
     1
281
     0
  0
BLOCK_RECORD
  5
D6
330
1
100
AcDbSymbolTableRecord
100
AcDbBlockTableRecord
  2
*Paper_Space0
340
D7
 70
     0
280
     1
281
     0
  0
BLOCK_RECORD
  5
331
330
1
100
AcDbSymbolTableRecord
100
AcDbBlockTableRecord
  2
_ClosedBlank
340
0
 70
     0
280
     1
281
     0
  0
ENDTAB
  0
ENDSEC
  0
SECTION
  2
BLOCKS
  0
BLOCK
  5
20
330
1F
100
AcDbEntity
  8
0
100
AcDbBlockBegin
  2
*Model_Space
 70
     0
 10
0.0
 20
0.0
 30
0.0
  3
*Model_Space
  1

  0
ENDBLK
  5
21
330
1F
100
AcDbEntity
  8
0
100
AcDbBlockEnd
  0
BLOCK
  5
D4
330
D2
100
AcDbEntity
 67
     1
  8
0
100
AcDbBlockBegin
  2
*Paper_Space
 70
     0
 10
0.0
 20
0.0
 30
0.0
  3
*Paper_Space
  1

  0
ENDBLK
  5
D5
330
D2
100
AcDbEntity
 67
     1
  8
0
100
AcDbBlockEnd
  0
BLOCK
  5
D8
330
D6
100
AcDbEntity
 67
     1
  8
0
100
AcDbBlockBegin
  2
*Paper_Space0
 70
     0
 10
0.0
 20
0.0
 30
0.0
  3
*Paper_Space0
  1

  0
ENDBLK
  5
D9
330
D6
100
AcDbEntity
 67
     1
  8
0
100
AcDbBlockEnd
  0
BLOCK
  5
335
330
331
100
AcDbEntity
  8
0
100
AcDbBlockBegin
  2
_ClosedBlank
 70
     0
 10
0.0
 20
0.0
 30
0.0
  3
_ClosedBlank
  1

  0
LINE
  5
332
330
331
100
AcDbEntity
  8
0
  6
ByBlock
 62
     0
370
    -2
100
AcDbLine
 10
-1.0
 20
0.1666666666666666
 30
0.0
 11
0.0
 21
0.0
 31
0.0
  0
LINE
  5
333
330
331
100
AcDbEntity
  8
0
  6
ByBlock
 62
     0
370
    -2
100
AcDbLine
 10
0.0
 20
0.0
 30
0.0
 11
-1.0
 21
-0.1666666666666666
 31
0.0
  0
LINE
  5
334
330
331
100
AcDbEntity
  8
0
  6
ByBlock
 62
     0
370
    -2
100
AcDbLine
 10
-1.0
 20
0.1666666666666666
 30
0.0
 11
-1.0
 21
-0.1666666666666666
 31
0.0
  0
ENDBLK
  5
336
330
331
100
AcDbEntity
  8
0
100
AcDbBlockEnd
  0
ENDSEC
  0
SECTION
  2
ENTITIES
  0
LWPOLYLINE
  5
31E
102
{ACAD_REACTORS
330
343
330
34A
330
350
330
35F
330
367
330
36E
330
374
330
37B
330
383
330
389
330
38F
330
395
330
39B
330
3A1
330
3A8
330
3AE
330
3B4
330
3BB
330
3D4
330
3D5
102
}
330
1F
100
AcDbEntity
  8
0
100
AcDbPolyline
 90
       21
 70
     0
 43
0.0
 10
1261.576227468396
 20
959.8889775948318
 91
       21
 10
1270.076227468395
 20
959.8889775948318
 91
       13
 10
1270.076227468395
 20
968.3889775948319
 91
       11
 10
1265.376227468395
 20
968.3889775948319
 91
       12
 10
1265.376227468395
 20
971.2889775948319
 91
       19
 10
1270.076227468395
 20
971.2889775948319
 91
       20
 10
1270.076227468395
 20
979.7889775948318
 91
        6
 10
1261.576227468396
 20
979.7889775948318
 91
        4
 10
1261.576227468396
 20
975.0889775948317
 91
        5
 10
1258.676227468395
 20
975.0889775948317
 91
       14
 10
1258.676227468395
 20
979.7889775948318
 91
        3
 10
1250.176227468396
 20
979.7889775948318
 91
        1
 10
1250.176227468396
 20
971.2889775948319
 91
        2
 10
1254.876227468395
 20
971.2889775948319
 91
        7
 10
1254.876227468395
 20
968.3889775948319
 91
       15
 10
1250.176227468396
 20
968.3889775948319
 91
        8
 10
1250.176227468396
 20
959.8889775948318
 91
        9
 10
1258.676227468395
 20
959.8889775948318
 91
       10
 10
1258.676227468395
 20
964.5889775948319
 91
       16
 10
1261.576227468396
 20
964.5889775948319
 91
       17
 10
1261.576227468396
 20
959.9039806183524
 91
       18
  0
LWPOLYLINE
  5
31F
102
{ACAD_REACTORS
330
3E3
330
3E9
330
3EF
330
3F5
102
}
330
1F
100
AcDbEntity
  8
0
100
AcDbPolyline
 90
        5
 70
     0
 43
0.0
 10
1320.182172581833
 20
980.1549702813408
 91
       26
 10
1320.182172581833
 20
960.1549702813409
 91
       25
 10
1280.182172581833
 20
960.1549702813409
 91
       24
 10
1280.182172581833
 20
980.1549702813408
 91
       22
 10
1320.182172581833
 20
980.154970281341
 91
       23
  0
LWPOLYLINE
  5
321
102
{ACAD_REACTORS
330
410
330
417
330
41E
330
425
330
42C
330
433
330
43A
330
441
330
447
330
44D
330
453
330
459
330
45F
330
465
330
46B
330
471
330
478
330
480
330
486
330
4D3
330
4DA
330
4E1
330
4E8
330
515
330
516
330
519
102
}
330
1F
100
AcDbEntity
  8
0
100
AcDbPolyline
 90
       28
 70
     0
 43
0.0
 10
1366.88172513052
 20
964.4718953069231
 91
       64
 10
1369.77852688242
 20
964.4718953069231
 91
       65
 10
1369.77852688242
 20
959.7718953069231
 91
       66
 10
1380.10352688242
 20
959.7718953069231
 91
       60
 10
1380.10352688242
 20
968.271895306923
 91
       61
 10
1375.40352688242
 20
968.271895306923
 91
       62
 10
1375.40352688242
 20
971.171895306923
 91
       63
 10
1380.10352688242
 20
971.171895306923
 91
       43
 10
1380.10352688242
 20
979.671895306923
 91
       38
 10
1369.77852688242
 20
979.671895306923
 91
       36
 10
1369.77852688242
 20
974.971895306923
 91
       37
 10
1366.87852688242
 20
974.971895306923
 91
       41
 10
1366.87852688242
 20
979.671895306923
 91
       35
 10
1356.55352688242
 20
979.671895306923
 91
       33
 10
1356.55352688242
 20
974.971895306923
 91
       34
 10
1353.65352688242
 20
974.971895306923
 91
       40
 10
1353.65352688242
 20
979.671895306923
 91
       32
 10
1343.32852688242
 20
979.671895306923
 91
       30
 10
1343.32852688242
 20
974.971895306923
 91
       31
 10
1340.428526882419
 20
974.971895306923
 91
       39
 10
1340.428526882419
 20
979.671895306923
 91
       29
 10
1330.103526882419
 20
979.671895306923
 91
       27
 10
1330.103526882419
 20
971.171895306923
 91
       28
 10
1334.803526882419
 20
971.171895306923
 91
       42
 10
1334.803526882419
 20
968.271895306923
 91
       44
 10
1330.103526882419
 20
968.271895306923
 91
       45
 10
1330.103526882419
 20
959.7718953069231
 91
       46
 10
1330.04157431488
 20
959.8022103282897
 91
       47
  0
DIMENSION
  5
339
102
{ACAD_REACTORS
330
33F
102
}
330
1F
100
AcDbEntity
  8
*ADSK_CONSTRAINTS
 60
     1
100
AcDbDimension
280
     0
 10
1258.676227468395
 20
984.0983737395086
 30
0.0
 11
1258.676227468395
 21
984.0983737395086
 31
0.0
 70
   128
  1
d1=cuadrado_largo
 71
     5
 42
8.5
 73
     0
 74
     0
 75
     0
  3
ISO-25
100
AcDbAlignedDimension
 13
1250.176227468396
 23
979.7889775948318
 33
0.0
 14
1258.676227468395
 24
979.7889775948318
 34
0.0
100
AcDbRotatedDimension
  0
DIMENSION
  5
344
102
{ACAD_REACTORS
330
347
102
}
330
1F
100
AcDbEntity
  8
*ADSK_CONSTRAINTS
 60
     1
100
AcDbDimension
280
     0
 10
1270.076227468395
 20
984.2831441691371
 30
0.0
 11
1270.076227468395
 21
984.2831441691371
 31
0.0
 70
   128
  1
d2=cuadrado_largo
 71
     5
 42
8.549998493934253
 73
     0
 74
     0
 75
     0
  3
ISO-25
100
AcDbAlignedDimension
 13
1261.576227468396
 23
979.7889775948318
 33
0.0
 14
1270.076227468395
 24
979.7889775948318
 34
0.0
100
AcDbRotatedDimension
  0
DIMENSION
  5
34B
102
{ACAD_REACTORS
330
34E
102
}
330
1F
100
AcDbEntity
  8
*ADSK_CONSTRAINTS
 60
     1
100
AcDbDimension
280
     0
 10
1240.646972045869
 20
971.2889775948319
 30
0.0
 11
1240.646972045869
 21
971.2889775948319
 31
0.0
 70
   128
  1
d3=cuadrado_largo
 71
     5
 42
8.549999999999954
 73
     0
 74
     0
 75
     0
  3
ISO-25
100
AcDbAlignedDimension
 13
1250.176227468396
 23
979.7889775948318
 33
0.0
 14
1250.176227468396
 24
971.2889775948319
 34
0.0
 50
90.0
100
AcDbRotatedDimension
  0
DIMENSION
  5
35A
102
{ACAD_REACTORS
330
35D
102
}
330
1F
100
AcDbEntity
  8
*ADSK_CONSTRAINTS
 60
     1
100
AcDbDimension
280
     0
 10
1242.733874494411
 20
959.8889775948318
 30
0.0
 11
1242.733874494411
 21
959.8889775948318
 31
0.0
 70
   128
  1
d4=cuadrado_largo
 71
     5
 42
8.549999074063521
 73
     0
 74
     0
 75
     0
  3
ISO-25
100
AcDbAlignedDimension
 13
1250.176227468396
 23
968.3889775948319
 33
0.0
 14
1250.176227468396
 24
959.8889775948318
 34
0.0
 50
90.0
100
AcDbRotatedDimension
  0
DIMENSION
  5
361
102
{ACAD_REACTORS
330
364
102
}
330
1F
100
AcDbEntity
  8
*ADSK_CONSTRAINTS
 60
     1
100
AcDbDimension
280
     0
 10
1274.727149673568
 20
959.8889775948318
 30
0.0
 11
1274.727149673568
 21
959.8889775948318
 31
0.0
 70
   128
  1
d5=cuadrado_largo
 71
     5
 42
8.549998550590657
 73
     0
 74
     0
 75
     0
  3
ISO-25
100
AcDbAlignedDimension
 13
1270.076227468395
 23
968.3889775948319
 33
0.0
 14
1270.076227468395
 24
959.8889775948318
 34
0.0
 50
90.0
100
AcDbRotatedDimension
  0
DIMENSION
  5
368
102
{ACAD_REACTORS
330
36B
102
}
330
1F
100
AcDbEntity
  8
*ADSK_CONSTRAINTS
 60
     1
100
AcDbDimension
280
     0
 10
1261.576227468396
 20
973.7147024828887
 30
0.0
 11
1261.576227468396
 21
973.7147024828887
 31
0.0
 70
   128
  1
d6=entrada_corto
 71
     5
 42
3.047606705569705
 73
     0
 74
     0
 75
     0
  3
ISO-25
100
AcDbAlignedDimension
 13
1258.676227468395
 23
975.0889775948317
 33
0.0
 14
1261.576227468396
 24
975.0889775948317
 34
0.0
100
AcDbRotatedDimension
  0
DIMENSION
  5
36F
102
{ACAD_REACTORS
330
372
102
}
330
1F
100
AcDbEntity
  8
*ADSK_CONSTRAINTS
 60
     1
100
AcDbDimension
280
     0
 10
1257.018279049314
 20
968.3889775948319
 30
0.0
 11
1257.018279049314
 21
968.3889775948319
 31
0.0
 70
   128
  1
d7=entrada_corto
 71
     5
 42
2.89997490135056
 73
     0
 74
     0
 75
     0
  3
ISO-25
100
AcDbAlignedDimension
 13
1254.876227468395
 23
971.2889775948319
 33
0.0
 14
1254.876227468395
 24
968.3889775948319
 34
0.0
 50
90.0
100
AcDbRotatedDimension
  0
DIMENSION
  5
376
102
{ACAD_REACTORS
330
379
102
}
330
1F
100
AcDbEntity
  8
*ADSK_CONSTRAINTS
 60
     1
100
AcDbDimension
280
     0
 10
1261.576227468396
 20
966.1436091469671
 30
0.0
 11
1261.576227468396
 21
966.1436091469671
 31
0.0
 70
   128
  1
d8=entrada_corto
 71
     5
 42
2.899937676289937
 73
     0
 74
     0
 75
     0
  3
ISO-25
100
AcDbAlignedDimension
 13
1258.676227468395
 23
964.5889775948319
 33
0.0
 14
1261.576227468396
 24
964.5889775948319
 34
0.0
100
AcDbRotatedDimension
  0
DIMENSION
  5
37D
102
{ACAD_REACTORS
330
380
102
}
330
1F
100
AcDbEntity
  8
*ADSK_CONSTRAINTS
 60
     1
100
AcDbDimension
280
     0
 10
1263.286587800526
 20
968.3889775948319
 30
0.0
 11
1263.286587800526
 21
968.3889775948319
 31
0.0
 70
   128
  1
d9=entrada_corto
 71
     5
 42
2.89988487430287
 73
     0
 74
     0
 75
     0
  3
ISO-25
100
AcDbAlignedDimension
 13
1265.376227468395
 23
971.2889775948319
 33
0.0
 14
1265.376227468395
 24
968.3889775948319
 34
0.0
 50
90.0
100
AcDbRotatedDimension
  0
DIMENSION
  5
384
102
{ACAD_REACTORS
330
387
102
}
330
1F
100
AcDbEntity
  8
*ADSK_CONSTRAINTS
 60
     1
100
AcDbDimension
280
     0
 10
1256.580269874403
 20
975.0889775948317
 30
0.0
 11
1256.580269874403
 21
975.0889775948317
 31
0.0
 70
   128
  1
d10=entrada_alto
 71
     5
 42
4.999997946476923
 73
     0
 74
     0
 75
     0
  3
ISO-25
100
AcDbAlignedDimension
 13
1258.676227468395
 23
979.7889775948318
 33
0.0
 14
1258.676227468395
 24
975.0889775948317
 34
0.0
 50
90.0
100
AcDbRotatedDimension
  0
DIMENSION
  5
38A
102
{ACAD_REACTORS
330
38D
102
}
330
1F
100
AcDbEntity
  8
*ADSK_CONSTRAINTS
 60
     1
100
AcDbDimension
280
     0
 10
1263.982523406415
 20
975.0889775948317
 30
0.0
 11
1263.982523406415
 21
975.0889775948317
 31
0.0
 70
   128
  1
d11=entrada_alto
 71
     5
 42
4.962839893884165
 73
     0
 74
     0
 75
     0
  3
ISO-25
100
AcDbAlignedDimension
 13
1261.576227468396
 23
979.7889775948318
 33
0.0
 14
1261.576227468396
 24
975.0889775948317
 34
0.0
 50
90.0
100
AcDbRotatedDimension
  0
DIMENSION
  5
390
102
{ACAD_REACTORS
330
393
102
}
330
1F
100
AcDbEntity
  8
*ADSK_CONSTRAINTS
 60
     1
100
AcDbDimension
280
     0
 10
1254.876227468395
 20
973.4666060485428
 30
0.0
 11
1254.876227468395
 21
973.4666060485428
 31
0.0
 70
   128
  1
d12=entrada_alto
 71
     5
 42
4.999967074339338
 73
     0
 74
     0
 75
     0
  3
ISO-25
100
AcDbAlignedDimension
 13
1250.176227468396
 23
971.2889775948319
 33
0.0
 14
1254.876227468395
 24
971.2889775948319
 34
0.0
100
AcDbRotatedDimension
  0
DIMENSION
  5
396
102
{ACAD_REACTORS
330
399
102
}
330
1F
100
AcDbEntity
  8
*ADSK_CONSTRAINTS
 60
     1
100
AcDbDimension
280
     0
 10
1254.876227468395
 20
970.3673135922427
 30
0.0
 11
1254.876227468395
 21
970.3673135922427
 31
0.0
 70
   128
  1
d13=entrada_alto
 71
     5
 42
4.999950054958844
 73
     0
 74
     0
 75
     0
  3
ISO-25
100
AcDbAlignedDimension
 13
1250.176227468396
 23
968.3889775948319
 33
0.0
 14
1254.876227468395
 24
968.3889775948319
 34
0.0
100
AcDbRotatedDimension
  0
DIMENSION
  5
39C
102
{ACAD_REACTORS
330
39F
102
}
330
1F
100
AcDbEntity
  8
*ADSK_CONSTRAINTS
 60
     1
100
AcDbDimension
280
     0
 10
1270.076227468395
 20
970.4349402682638
 30
0.0
 11
1270.076227468395
 21
970.4349402682638
 31
0.0
 70
   128
  1
d14=entrada_alto
 71
     5
 42
4.999999119259655
 73
     0
 74
     0
 75
     0
  3
ISO-25
100
AcDbAlignedDimension
 13
1265.376227468395
 23
971.2889775948319
 33
0.0
 14
1270.076227468395
 24
971.2889775948319
 34
0.0
100
AcDbRotatedDimension
  0
DIMENSION
  5
3A3
102
{ACAD_REACTORS
330
3A6
102
}
330
1F
100
AcDbEntity
  8
*ADSK_CONSTRAINTS
 60
     1
100
AcDbDimension
280
     0
 10
1270.076227468395
 20
969.516110683342
 30
0.0
 11
1270.076227468395
 21
969.516110683342
 31
0.0
 70
   128
  1
d15=entrada_alto
 71
     5
 42
4.99995142577768
 73
     0
 74
     0
 75
     0
  3
ISO-25
100
AcDbAlignedDimension
 13
1265.376227468395
 23
968.3889775948319
 33
0.0
 14
1270.076227468395
 24
968.3889775948319
 34
0.0
100
AcDbRotatedDimension
  0
DIMENSION
  5
3A9
102
{ACAD_REACTORS
330
3AC
102
}
330
1F
100
AcDbEntity
  8
*ADSK_CONSTRAINTS
 60
     1
100
AcDbDimension
280
     0
 10
1257.045455272897
 20
964.5889775948319
 30
0.0
 11
1257.045455272897
 21
964.5889775948319
 31
0.0
 70
   128
  1
d16=entrada_alto
 71
     5
 42
4.999969568563074
 73
     0
 74
     0
 75
     0
  3
ISO-25
100
AcDbAlignedDimension
 13
1258.676227468395
 23
959.8889775948318
 33
0.0
 14
1258.676227468395
 24
964.5889775948319
 34
0.0
 50
90.0
100
AcDbRotatedDimension
  0
DIMENSION
  5
3AF
102
{ACAD_REACTORS
330
3B2
102
}
330
1F
100
AcDbEntity
  8
*ADSK_CONSTRAINTS
 60
     1
100
AcDbDimension
280
     0
 10
1263.936391792202
 20
964.5889775948319
 30
0.0
 11
1263.936391792202
 21
964.5889775948319
 31
0.0
 70
   128
  1
d17=entrada_alto
 71
     5
 42
4.98064122997107
 73
     0
 74
     0
 75
     0
  3
ISO-25
100
AcDbAlignedDimension
 13
1261.576227468396
 23
959.8889775948318
 33
0.0
 14
1261.576227468396
 24
964.5889775948319
 34
0.0
 50
90.0
100
AcDbRotatedDimension
  0
DIMENSION
  5
3B6
102
{ACAD_REACTORS
330
3B9
102
}
330
1F
100
AcDbEntity
  8
*ADSK_CONSTRAINTS
 60
     1
100
AcDbDimension
280
     0
 10
1258.676227468395
 20
956.8986120136118
 30
0.0
 11
1258.676227468395
 21
956.8986120136118
 31
0.0
 70
   128
  1
d18=cuadrado_largo
 71
     5
 42
8.549999074063634
 73
     0
 74
     0
 75
     0
  3
ISO-25
100
AcDbAlignedDimension
 13
1250.176227468396
 23
959.8889775948318
 33
0.0
 14
1258.676227468395
 24
959.8889775948318
 34
0.0
100
AcDbRotatedDimension
  0
DIMENSION
  5
3BC
102
{ACAD_REACTORS
330
3BF
102
}
330
1F
100
AcDbEntity
  8
*ADSK_CONSTRAINTS
 60
     1
100
AcDbDimension
280
     0
 10
1270.076227468395
 20
957.3883631039839
 30
0.0
 11
1270.076227468395
 21
957.3883631039839
 31
0.0
 70
   128
  1
d19=cuadrado_largo
 71
     5
 42
8.549998550590771
 73
     0
 74
     0
 75
     0
  3
ISO-25
100
AcDbAlignedDimension
 13
1261.576227468396
 23
959.8889775948318
 33
0.0
 14
1270.076227468395
 24
959.8889775948318
 34
0.0
100
AcDbRotatedDimension
  0
DIMENSION
  5
3DE
102
{ACAD_REACTORS
330
3E1
102
}
330
1F
100
AcDbEntity
  8
*ADSK_CONSTRAINTS
 60
     1
100
AcDbDimension
280
     0
 10
1320.182172581833
 20
983.7158637743934
 30
0.0
 11
1320.182172581833
 21
983.7158637743934
 31
0.0
 70
   128
  1
d20=rectangulo_largo
 71
     5
 42
39.99999157357274
 73
     0
 74
     0
 75
     0
  3
ISO-25
100
AcDbAlignedDimension
 13
1280.182172581833
 23
980.1549702813408
 33
0.0
 14
1320.182172581833
 24
980.154970281341
 34
0.0
100
AcDbRotatedDimension
  0
DIMENSION
  5
3E4
102
{ACAD_REACTORS
330
3E7
102
}
330
1F
100
AcDbEntity
  8
*ADSK_CONSTRAINTS
 60
     1
100
AcDbDimension
280
     0
 10
1277.672301075392
 20
960.7048913969238
 30
0.0
 11
1277.672301075392
 21
960.7048913969238
 31
0.0
 70
   128
  1
d21=rectangulo_corto
 71
     5
 42
20.0
 73
     0
 74
     0
 75
     0
  3
ISO-25
100
AcDbAlignedDimension
 13
1280.182172581833
 23
980.1549702813408
 33
0.0
 14
1280.182172581833
 24
960.1549702813409
 34
0.0
 50
90.0
100
AcDbRotatedDimension
  0
DIMENSION
  5
3EA
102
{ACAD_REACTORS
330
3ED
102
}
330
1F
100
AcDbEntity
  8
*ADSK_CONSTRAINTS
 60
     1
100
AcDbDimension
280
     0
 10
1320.182172581833
 20
956.8199190179866
 30
0.0
 11
1320.182172581833
 21
956.8199190179866
 31
0.0
 70
   128
  1
d22=rectangulo_largo
 71
     5
 42
40.0
 73
     0
 74
     0
 75
     0
  3
ISO-25
100
AcDbAlignedDimension
 13
1280.182172581833
 23
960.1549702813409
 33
0.0
 14
1320.182172581833
 24
960.1549702813409
 34
0.0
100
AcDbRotatedDimension
  0
DIMENSION
  5
3F0
102
{ACAD_REACTORS
330
3F3
102
}
330
1F
100
AcDbEntity
  8
*ADSK_CONSTRAINTS
 60
     1
100
AcDbDimension
280
     0
 10
1323.448779995026
 20
980.154970281341
 30
0.0
 11
1323.448779995026
 21
980.154970281341
 31
0.0
 70
   128
  1
d23=rectangulo_corto
 71
     5
 42
19.99999999999818
 73
     0
 74
     0
 75
     0
  3
ISO-25
100
AcDbAlignedDimension
 13
1320.182172581833
 23
960.1549702813409
 33
0.0
 14
1320.182172581833
 24
980.154970281341
 34
0.0
 50
90.0
100
AcDbRotatedDimension
  0
DIMENSION
  5
40A
102
{ACAD_REACTORS
330
40D
102
}
330
1F
100
AcDbEntity
  8
*ADSK_CONSTRAINTS
 60
     1
100
AcDbDimension
280
     0
 10
1340.428526882457
 20
981.0533812142406
 30
0.0
 11
1340.428526882457
 21
981.0533812142406
 31
0.0
 70
   128
  1
d24=arco_largo
 71
     5
 42
10.32499896645936
 73
     0
 74
     0
 75
     0
  3
ISO-25
100
AcDbAlignedDimension
 13
1330.103526882457
 23
979.6718953069229
 33
0.0
 14
1340.428526882457
 24
979.6718953069229
 34
0.0
100
AcDbRotatedDimension
  0
DIMENSION
  5
411
102
{ACAD_REACTORS
330
414
102
}
330
1F
100
AcDbEntity
  8
*ADSK_CONSTRAINTS
 60
     1
100
AcDbDimension
280
     0
 10
1353.653526882457
 20
980.9278047401676
 30
0.0
 11
1353.653526882457
 21
980.9278047401676
 31
0.0
 70
   128
  1
d25=arco_largo
 71
     5
 42
10.32498665859089
 73
     0
 74
     0
 75
     0
  3
ISO-25
100
AcDbAlignedDimension
 13
1343.328526882457
 23
979.6718953069229
 33
0.0
 14
1353.653526882457
 24
979.6718953069229
 34
0.0
100
AcDbRotatedDimension
  0
DIMENSION
  5
418
102
{ACAD_REACTORS
330
41B
102
}
330
1F
100
AcDbEntity
  8
*ADSK_CONSTRAINTS
 60
     1
100
AcDbDimension
280
     0
 10
1366.878526882457
 20
981.0148559706226
 30
0.0
 11
1366.878526882457
 21
981.0148559706226
 31
0.0
 70
   128
  1
d26=arco_largo
 71
     5
 42
10.32499833093584
 73
     0
 74
     0
 75
     0
  3
ISO-25
100
AcDbAlignedDimension
 13
1356.553526882457
 23
979.6718953069229
 33
0.0
 14
1366.878526882457
 24
979.6718953069229
 34
0.0
100
AcDbRotatedDimension
  0
DIMENSION
  5
41F
102
{ACAD_REACTORS
330
422
102
}
330
1F
100
AcDbEntity
  8
*ADSK_CONSTRAINTS
 60
     1
100
AcDbDimension
280
     0
 10
1380.103526788757
 20
981.0180607522147
 30
0.0
 11
1380.103526788757
 21
981.0180607522147
 31
0.0
 70
   128
  1
d27=arco_largo
 71
     5
 42
10.32499990630958
 73
     0
 74
     0
 75
     0
  3
ISO-25
100
AcDbAlignedDimension
 13
1369.778526882458
 23
979.6718953069229
 33
0.0
 14
1380.103526882457
 24
979.6718953069229
 34
0.0
100
AcDbRotatedDimension
  0
DIMENSION
  5
426
102
{ACAD_REACTORS
330
429
102
}
330
1F
100
AcDbEntity
  8
*ADSK_CONSTRAINTS
 60
     1
100
AcDbDimension
280
     0
 10
1343.328526882419
 20
973.9254145535152
 30
0.0
 11
1343.328526882419
 21
973.9254145535152
 31
0.0
 70
   128
  1
d28=entrada_corto
 71
     5
 42
2.899901240562257
 73
     0
 74
     0
 75
     0
  3
ISO-25
100
AcDbAlignedDimension
 13
1340.428526882419
 23
974.971895306923
 33
0.0
 14
1343.32852688242
 24
974.971895306923
 34
0.0
100
AcDbRotatedDimension
  0
DIMENSION
  5
42D
102
{ACAD_REACTORS
330
430
102
}
330
1F
100
AcDbEntity
  8
*ADSK_CONSTRAINTS
 60
     1
100
AcDbDimension
280
     0
 10
1356.553526415179
 20
973.8833861958992
 30
0.0
 11
1356.553526415179
 21
973.8833861958992
 31
0.0
 70
   128
  1
d29=entrada_corto
 71
     5
 42
2.899999532756737
 73
     0
 74
     0
 75
     0
  3
ISO-25
100
AcDbAlignedDimension
 13
1353.65352688242
 23
974.971895306923
 33
0.0
 14
1356.55352688242
 24
974.971895306923
 34
0.0
100
AcDbRotatedDimension
  0
DIMENSION
  5
434
102
{ACAD_REACTORS
330
437
102
}
330
1F
100
AcDbEntity
  8
*ADSK_CONSTRAINTS
 60
     1
100
AcDbDimension
280
     0
 10
1369.77852688242
 20
973.8469327456542
 30
0.0
 11
1369.77852688242
 21
973.8469327456542
 31
0.0
 70
   128
  1
d30=entrada_corto
 71
     5
 42
2.899998328173296
 73
     0
 74
     0
 75
     0
  3
ISO-25
100
AcDbAlignedDimension
 13
1366.87852688242
 23
974.971895306923
 33
0.0
 14
1369.77852688242
 24
974.971895306923
 34
0.0
100
AcDbRotatedDimension
  0
DIMENSION
  5
43B
102
{ACAD_REACTORS
330
43E
102
}
330
1F
100
AcDbEntity
  8
*ADSK_CONSTRAINTS
 60
     1
100
AcDbDimension
280
     0
 10
1328.600503896079
 20
979.6718953069229
 30
0.0
 11
1328.600503896079
 21
979.6718953069229
 31
0.0
 70
   128
  1
d31=cuadrado_largo
 71
     5
 42
8.549999144138269
 73
     0
 74
     0
 75
     0
  3
ISO-25
100
AcDbAlignedDimension
 13
1330.103526882457
 23
971.171895306923
 33
0.0
 14
1330.103526882457
 24
979.6718953069229
 34
0.0
 50
90.0
100
AcDbRotatedDimension
  0
DIMENSION
  5
442
102
{ACAD_REACTORS
330
445
102
}
330
1F
100
AcDbEntity
  8
*ADSK_CONSTRAINTS
 60
     1
100
AcDbDimension
280
     0
 10
1340.428526882419
 20
979.671895306923
 30
0.0
 11
1340.428526882419
 21
979.671895306923
 31
0.0
 70
   128
  1
d32=entrada_alto
 71
     5
 42
4.999999499496084
 73
     0
 74
     0
 75
     0
  3
ISO-25
100
AcDbAlignedDimension
 13
1340.428526882419
 23
974.971895306923
 33
0.0
 14
1340.428526882457
 24
979.6718953069229
 34
0.0
 50
90.0
100
AcDbRotatedDimension
  0
DIMENSION
  5
448
102
{ACAD_REACTORS
330
44B
102
}
330
1F
100
AcDbEntity
  8
*ADSK_CONSTRAINTS
 60
     1
100
AcDbDimension
280
     0
 10
1342.291234451001
 20
979.671895306923
 30
0.0
 11
1342.291234451001
 21
979.671895306923
 31
0.0
 70
   128
  1
d33=entrada_alto
 71
     5
 42
4.999984989387712
 73
     0
 74
     0
 75
     0
  3
ISO-25
100
AcDbAlignedDimension
 13
1343.32852688242
 23
974.971895306923
 33
0.0
 14
1343.328526882457
 24
979.6718953069229
 34
0.0
 50
90.0
100
AcDbRotatedDimension
  0
DIMENSION
  5
44E
102
{ACAD_REACTORS
330
451
102
}
330
1F
100
AcDbEntity
  8
*ADSK_CONSTRAINTS
 60
     1
100
AcDbDimension
280
     0
 10
1354.622543019193
 20
979.671895306923
 30
0.0
 11
1354.622543019193
 21
979.671895306923
 31
0.0
 70
   128
  1
d34=entrada_alto
 71
     5
 42
4.99999919440836
 73
     0
 74
     0
 75
     0
  3
ISO-25
100
AcDbAlignedDimension
 13
1353.65352688242
 23
974.971895306923
 33
0.0
 14
1353.653526882457
 24
979.6718953069229
 34
0.0
 50
90.0
100
AcDbRotatedDimension
  0
DIMENSION
  5
454
102
{ACAD_REACTORS
330
457
102
}
330
1F
100
AcDbEntity
  8
*ADSK_CONSTRAINTS
 60
     1
100
AcDbDimension
280
     0
 10
1358.661515054482
 20
979.671895306923
 30
0.0
 11
1358.661515054482
 21
979.671895306923
 31
0.0
 70
   128
  1
d35=entrada_alto
 71
     5
 42
4.999976770693592
 73
     0
 74
     0
 75
     0
  3
ISO-25
100
AcDbAlignedDimension
 13
1356.55352688242
 23
974.971895306923
 33
0.0
 14
1356.553526882457
 24
979.6718953069229
 34
0.0
 50
90.0
100
AcDbRotatedDimension
  0
DIMENSION
  5
45A
102
{ACAD_REACTORS
330
45D
102
}
330
1F
100
AcDbEntity
  8
*ADSK_CONSTRAINTS
 60
     1
100
AcDbDimension
280
     0
 10
1365.603413796732
 20
979.671895306923
 30
0.0
 11
1365.603413796732
 21
979.671895306923
 31
0.0
 70
   128
  1
d36=entrada_alto
 71
     5
 42
4.99999993982351
 73
     0
 74
     0
 75
     0
  3
ISO-25
100
AcDbAlignedDimension
 13
1366.87852688242
 23
974.971895306923
 33
0.0
 14
1366.878526882457
 24
979.6718953069229
 34
0.0
 50
90.0
100
AcDbRotatedDimension
  0
DIMENSION
  5
460
102
{ACAD_REACTORS
330
463
102
}
330
1F
100
AcDbEntity
  8
*ADSK_CONSTRAINTS
 60
     1
100
AcDbDimension
280
     0
 10
1371.662071506055
 20
979.671895306923
 30
0.0
 11
1371.662071506055
 21
979.671895306923
 31
0.0
 70
   128
  1
d37=entrada_alto
 71
     5
 42
4.999967759106766
 73
     0
 74
     0
 75
     0
  3
ISO-25
100
AcDbAlignedDimension
 13
1369.77852688242
 23
974.971895306923
 33
0.0
 14
1369.778526882458
 24
979.6718953069229
 34
0.0
 50
90.0
100
AcDbRotatedDimension
  0
DIMENSION
  5
466
102
{ACAD_REACTORS
330
469
102
}
330
1F
100
AcDbEntity
  8
*ADSK_CONSTRAINTS
 60
     1
100
AcDbDimension
280
     0
 10
1381.517391361481
 20
979.6718953069229
 30
0.0
 11
1381.517391361481
 21
979.6718953069229
 31
0.0
 70
   128
  1
d38=cuadrado_largo
 71
     5
 42
8.699999435740096
 73
     0
 74
     0
 75
     0
  3
ISO-25
100
AcDbAlignedDimension
 13
1380.103526882457
 23
971.171895306923
 33
0.0
 14
1380.103526882457
 24
979.6718953069229
 34
0.0
 50
90.0
100
AcDbRotatedDimension
  0
DIMENSION
  5
46C
102
{ACAD_REACTORS
330
46F
102
}
330
1F
100
AcDbEntity
  8
*ADSK_CONSTRAINTS
 60
     1
100
AcDbDimension
280
     0
 10
1334.803526882419
 20
972.2159158471963
 30
0.0
 11
1334.803526882419
 21
972.2159158471963
 31
0.0
 70
   128
  1
d39=entrada_alto
 71
     5
 42
4.999999997885652
 73
     0
 74
     0
 75
     0
  3
ISO-25
100
AcDbAlignedDimension
 13
1330.103526882457
 23
971.171895306923
 33
0.0
 14
1334.803526882419
 24
971.171895306923
 34
0.0
100
AcDbRotatedDimension
  0
DIMENSION
  5
473
102
{ACAD_REACTORS
330
476
102
}
330
1F
100
AcDbEntity
  8
*ADSK_CONSTRAINTS
 60
     1
100
AcDbDimension
280
     0
 10
1337.051881904455
 20
968.271895306923
 30
0.0
 11
1337.051881904455
 21
968.271895306923
 31
0.0
 70
   128
  1
d40=entrada_corto
 71
     5
 42
2.89998018619201
 73
     0
 74
     0
 75
     0
  3
ISO-25
100
AcDbAlignedDimension
 13
1334.803526882419
 23
971.171895306923
 33
0.0
 14
1334.803526882419
 24
968.271895306923
 34
0.0
 50
90.0
100
AcDbRotatedDimension
  0
DIMENSION
  5
47A
102
{ACAD_REACTORS
330
47D
102
}
330
1F
100
AcDbEntity
  8
*ADSK_CONSTRAINTS
 60
     1
100
AcDbDimension
280
     0
 10
1334.803526882419
 20
964.3646179484791
 30
0.0
 11
1334.803526882419
 21
964.3646179484791
 31
0.0
 70
   128
  1
d41=entrada_alto
 71
     5
 42
4.999993355016385
 73
     0
 74
     0
 75
     0
  3
ISO-25
100
AcDbAlignedDimension
 13
1330.103526882457
 23
968.271895306923
 33
0.0
 14
1334.803526882419
 24
968.271895306923
 34
0.0
100
AcDbRotatedDimension
  0
DIMENSION
  5
481
102
{ACAD_REACTORS
330
484
102
}
330
1F
100
AcDbEntity
  8
*ADSK_CONSTRAINTS
 60
     1
100
AcDbDimension
280
     0
 10
1327.339655917609
 20
959.7718953069229
 30
0.0
 11
1327.339655917609
 21
959.7718953069229
 31
0.0
 70
   128
  1
d42=cuadrado_largo
 71
     5
 42
8.549943717420433
 73
     0
 74
     0
 75
     0
  3
ISO-25
100
AcDbAlignedDimension
 13
1330.103526882457
 23
968.271895306923
 33
0.0
 14
1330.103526882457
 24
959.7718953069229
 34
0.0
 50
90.0
100
AcDbRotatedDimension
  0
DIMENSION
  5
4CE
102
{ACAD_REACTORS
330
4D1
102
}
330
1F
100
AcDbEntity
  8
*ADSK_CONSTRAINTS
 60
     1
100
AcDbDimension
280
     0
 10
1384.288270427946
 20
968.271895306923
 30
0.0
 11
1384.288270427946
 21
968.271895306923
 31
0.0
 70
   128
  1
d53=cuadrado_largo
 71
     5
 42
8.699998968439444
 73
     0
 74
     0
 75
     0
  3
ISO-25
100
AcDbAlignedDimension
 13
1380.103526882457
 23
959.7718953069229
 33
0.0
 14
1380.103526882457
 24
968.271895306923
 34
0.0
 50
90.0
100
AcDbRotatedDimension
  0
DIMENSION
  5
4D5
102
{ACAD_REACTORS
330
4D8
102
}
330
1F
100
AcDbEntity
  8
*ADSK_CONSTRAINTS
 60
     1
100
AcDbDimension
280
     0
 10
1375.40352688242
 20
963.9298283759117
 30
0.0
 11
1375.40352688242
 21
963.9298283759117
 31
0.0
 70
   128
  1
d54=entrada_alto
 71
     5
 42
4.99989551806243
 73
     0
 74
     0
 75
     0
  3
ISO-25
100
AcDbAlignedDimension
 13
1380.103526882457
 23
968.271895306923
 33
0.0
 14
1375.40352688242
 24
968.271895306923
 34
0.0
100
AcDbRotatedDimension
  0
DIMENSION
  5
4DC
102
{ACAD_REACTORS
330
4DF
102
}
330
1F
100
AcDbEntity
  8
*ADSK_CONSTRAINTS
 60
     1
100
AcDbDimension
280
     0
 10
1372.175907964982
 20
971.171895306923
 30
0.0
 11
1372.175907964982
 21
971.171895306923
 31
0.0
 70
   128
  1
d55=entrada_corto
 71
     5
 42
2.899996843231519
 73
     0
 74
     0
 75
     0
  3
ISO-25
100
AcDbAlignedDimension
 13
1375.40352688242
 23
968.271895306923
 33
0.0
 14
1375.40352688242
 24
971.171895306923
 34
0.0
 50
90.0
100
AcDbRotatedDimension
  0
DIMENSION
  5
4E3
102
{ACAD_REACTORS
330
4E6
102
}
330
1F
100
AcDbEntity
  8
*ADSK_CONSTRAINTS
 60
     1
100
AcDbDimension
280
     0
 10
1380.10352688242
 20
970.3225662809185
 30
0.0
 11
1380.10352688242
 21
970.3225662809185
 31
0.0
 70
   128
  1
d56=entrada_alto
 71
     5
 42
4.999981001357809
 73
     0
 74
     0
 75
     0
  3
ISO-25
100
AcDbAlignedDimension
 13
1375.40352688242
 23
971.171895306923
 33
0.0
 14
1380.103526882457
 24
971.171895306923
 34
0.0
100
AcDbRotatedDimension
  0
ARC
  5
50F
330
1F
100
AcDbEntity
  8
0
100
AcDbCircle
 10
1355.1955044973
 20
960.2419048455866
 30
0.0
 40
8.000039310459433
100
AcDbArc
 50
356.6318816756675
 51
543.1168256164832
  0
LINE
  5
511
102
{ACAD_REACTORS
330
540
102
}
330
1F
100
AcDbEntity
  8
0
100
AcDbLine
 10
1343.322579130292
 20
959.7967959969512
 30
0.0
 11
1343.322579130292
 21
964.4967959969513
 31
0.0
  0
LINE
  5
514
102
{ACAD_REACTORS
330
534
102
}
330
1F
100
AcDbEntity
  8
0
100
AcDbLine
 10
1340.42257573391
 20
959.8018611792532
 30
0.0
 11
1330.097575733909
 21
959.8018611792532
 31
0.0
  0
DIMENSION
  5
520
102
{ACAD_REACTORS
330
523
102
}
330
1F
100
AcDbEntity
  8
*ADSK_CONSTRAINTS
 60
     1
100
AcDbDimension
280
     0
 10
1380.10352688242
 20
955.7997264081159
 30
0.0
 11
1380.10352688242
 21
955.7997264081159
 31
0.0
 70
   128
  1
d44=arco_largo
 71
     5
 42
10.32180175193775
 73
     0
 74
     0
 75
     0
  3
ISO-25
100
AcDbAlignedDimension
 13
1369.77852688242
 23
959.7718953069231
 33
0.0
 14
1380.103526882457
 24
959.7718953069229
 34
0.0
100
AcDbRotatedDimension
  0
DIMENSION
  5
52A
102
{ACAD_REACTORS
330
52D
102
}
330
1F
100
AcDbEntity
  8
*ADSK_CONSTRAINTS
 60
     1
100
AcDbDimension
280
     0
 10
1372.057317494485
 20
964.4718953069231
 30
0.0
 11
1372.057317494485
 21
964.4718953069231
 31
0.0
 70
   128
  1
d46=entrada_alto
 71
     5
 42
5.0
 73
     0
 74
     0
 75
     0
  3
ISO-25
100
AcDbAlignedDimension
 13
1369.77852688242
 23
959.7718953069231
 33
0.0
 14
1369.77852688242
 24
964.4718953069231
 34
0.0
 50
90.0
100
AcDbRotatedDimension
  0
DIMENSION
  5
52F
102
{ACAD_REACTORS
330
532
102
}
330
1F
100
AcDbEntity
  8
*ADSK_CONSTRAINTS
 60
     1
100
AcDbDimension
280
     0
 10
1340.027327274889
 20
956.6993832362905
 30
0.0
 11
1340.027327274889
 21
956.6993832362905
 31
0.0
 70
   128
  1
d47=arco_largo
 71
     5
 42
10.32500000008008
 73
     0
 74
     0
 75
     0
  3
ISO-25
100
AcDbAlignedDimension
 13
1330.097575733909
 23
959.8018611792532
 33
0.0
 14
1340.42257573389
 24
959.8018611792532
 34
0.0
100
AcDbRotatedDimension
  0
DIMENSION
  5
53B
102
{ACAD_REACTORS
330
53E
102
}
330
1F
100
AcDbEntity
  8
*ADSK_CONSTRAINTS
 60
     1
100
AcDbDimension
280
     0
 10
1346.160770493293
 20
964.4967959969513
 30
0.0
 11
1346.160770493293
 21
964.4967959969513
 31
0.0
 70
   128
  1
d49=entrada_alto
 71
     5
 42
5.0
 73
     0
 74
     0
 75
     0
  3
ISO-25
100
AcDbAlignedDimension
 13
1343.322579130292
 23
959.7967959969512
 33
0.0
 14
1343.322579130292
 24
964.4967959969513
 34
0.0
 50
90.0
100
AcDbRotatedDimension
  0
LINE
  5
583
102
{ACAD_REACTORS
330
584
102
}
330
1F
100
AcDbEntity
  8
0
100
AcDbLine
 10
1343.322565921603
 20
959.8069263615554
 30
0.0
 11
1347.20729927414
 21
959.8069263615554
 31
0.0
  0
LINE
  5
585
330
1F
100
AcDbEntity
  8
0
100
AcDbLine
 10
1363.18172513052
 20
959.7718953069231
 30
0.0
 11
1366.88172513052
 21
959.7718953069231
 31
0.0
  0
LINE
  5
587
102
{ACAD_REACTORS
330
588
102
}
330
1F
100
AcDbEntity
  8
0
100
AcDbLine
 10
1340.422294298835
 20
964.4967959969511
 30
0.0
 11
1343.322579130292
 21
964.4967959969513
 31
0.0
  0
LINE
  5
589
330
1F
100
AcDbEntity
  8
0
100
AcDbLine
 10
1340.422294298835
 20
964.4967959969511
 30
0.0
 11
1340.42257573391
 21
959.8018611792532
 31
0.0
  0
LINE
  5
58A
330
1F
100
AcDbEntity
  8
0
100
AcDbLine
 10
1366.88172513052
 20
964.4718953069231
 30
0.0
 11
1366.88172513052
 21
959.7718953069231
 31
0.0
  0
ENDSEC
  0
SECTION
  2
OBJECTS
  0
DICTIONARY
  5
C
330
0
100
AcDbDictionary
281
     1
  3
ACAD_ASSOCNETWORK
350
324
  3
ACAD_CIP_PREVIOUS_PRODUCT_INFO
350
216
  3
ACAD_COLOR
350
6B
  3
ACAD_DETAILVIEWSTYLE
350
21B
  3
ACAD_GROUP
350
D
  3
ACAD_LAYOUT
350
1A
  3
ACAD_MATERIAL
350
6A
  3
ACAD_MLEADERSTYLE
350
12D
  3
ACAD_MLINESTYLE
350
17
  3
ACAD_PLOTSETTINGS
350
19
  3
ACAD_PLOTSTYLENAME
350
E
  3
ACAD_SCALELIST
350
10C
  3
ACAD_SECTIONVIEWSTYLE
350
219
  3
ACAD_TABLESTYLE
350
7E
  3
ACAD_VISUALSTYLE
350
EF
  3
ACDB_RECOMPOSE_DATA
350
58D
  3
AcDbVariableDictionary
350
5E
  0
DICTIONARY
  5
1FF
330
2
100
AcDbDictionary
280
     1
281
     1
  3
ACAD_LAYERSTATES
360
200
  0
DICTIONARY
  5
13C
330
10
100
AcDbDictionary
280
     1
281
     1
  0
DICTIONARY
  5
1CE
330
1F
100
AcDbDictionary
280
     1
281
     1
  3
ACAD_ASSOCNETWORK
360
322
  3
ACAD_SORTENTS
360
28C
  0
DICTIONARY
  5
324
102
{ACAD_REACTORS
330
C
102
}
330
C
100
AcDbDictionary
281
     1
  3
ACAD_ASSOCNETWORK
350
325
  0
XRECORD
  5
216
102
{ACAD_REACTORS
330
C
102
}
330
C
100
AcDbXrecord
280
     1
300
ACD
300
2018
300
ACD_F_S
  0
DICTIONARY
  5
6B
102
{ACAD_REACTORS
330
C
102
}
330
C
100
AcDbDictionary
281
     1
  0
DICTIONARY
  5
21B
102
{ACAD_REACTORS
330
C
102
}
330
C
100
AcDbDictionary
281
     1
  3
Metric50
350
21C
  0
DICTIONARY
  5
D
102
{ACAD_REACTORS
330
C
102
}
330
C
100
AcDbDictionary
281
     1
  0
DICTIONARY
  5
1A
102
{ACAD_REACTORS
330
C
102
}
330
C
100
AcDbDictionary
281
     1
  3
Model
350
22
  3
Presentación1
350
D3
  3
Presentación2
350
D7
  0
DICTIONARY
  5
6A
102
{ACAD_REACTORS
330
C
102
}
330
C
100
AcDbDictionary
281
     1
  3
ByBlock
350
ED
  3
ByLayer
350
EC
  3
Global
350
EE
  0
DICTIONARY
  5
12D
102
{ACAD_REACTORS
330
C
102
}
330
C
100
AcDbDictionary
281
     1
  3
Anotativo
350
13B
  3
Standard
350
12E
  0
DICTIONARY
  5
17
102
{ACAD_REACTORS
330
C
102
}
330
C
100
AcDbDictionary
281
     1
  3
Standard
350
18
  0
DICTIONARY
  5
19
102
{ACAD_REACTORS
330
C
102
}
330
C
100
AcDbDictionary
281
     1
  0
ACDBDICTIONARYWDFLT
  5
E
102
{ACAD_REACTORS
330
C
102
}
330
C
100
AcDbDictionary
281
     1
  3
Normal
350
F
100
AcDbDictionaryWithDefault
340
F
  0
DICTIONARY
  5
10C
102
{ACAD_REACTORS
330
C
102
}
330
C
100
AcDbDictionary
281
     1
  3
A0
350
10D
  3
A1
350
1BE
  3
A2
350
1BF
  3
A3
350
1C0
  3
A4
350
1C1
  3
A5
350
1C2
  3
A6
350
1C3
  3
A7
350
1C4
  3
A8
350
1C5
  3
A9
350
1C6
  3
B0
350
1C7
  3
B1
350
1C8
  3
B2
350
1C9
  3
B3
350
1CA
  3
B4
350
1CB
  3
B5
350
1CC
  3
B6
350
1CD
  0
DICTIONARY
  5
219
102
{ACAD_REACTORS
330
C
102
}
330
C
100
AcDbDictionary
281
     1
  3
Metric50
350
21A
  0
DICTIONARY
  5
7E
102
{ACAD_REACTORS
330
C
102
}
330
C
100
AcDbDictionary
281
     1
  3
Standard
350
7F
  0
DICTIONARY
  5
EF
102
{ACAD_REACTORS
330
C
102
}
330
C
100
AcDbDictionary
281
     1
  3
2dWireframe
350
F5
  3
Basic
350
F4
  3
Brighten
350
FB
  3
ColorChange
350
FF
  3
Conceptual
350
F8
  3
Dim
350
FA
  3
EdgeColorOff
350
1E6
  3
Facepattern
350
FE
  3
Flat
350
F0
  3
FlatWithEdges
350
F1
  3
Gouraud
350
F2
  3
GouraudWithEdges
350
F3
  3
Hidden
350
F7
  3
JitterOff
350
1E4
  3
Linepattern
350
FD
  3
OverhangOff
350
1E5
  3
Realistic
350
F9
  3
Shaded
350
1F3
  3
Shaded with edges
350
1F2
  3
Shades of Gray
350
1EF
  3
Sketchy
350
1F0
  3
Thicken
350
FC
  3
Wireframe
350
F6
  3
X-Ray
350
1F1
  0
XRECORD
  5
58D
102
{ACAD_REACTORS
330
C
102
}
330
C
100
AcDbXrecord
280
     1
 90
        1
330
7F
330
341
  0
DICTIONARY
  5
5E
102
{ACAD_REACTORS
330
C
102
}
330
C
100
AcDbDictionary
281
     1
  3
CANNOSCALE
350
146
  3
CENTEREXE
350
259
  3
CENTERLTYPEFILE
350
25A
  3
CMLEADERSTYLE
350
145
  3
CTABLESTYLE
350
84
  3
CVIEWDETAILSTYLE
350
227
  3
CVIEWSECTIONSTYLE
350
228
  3
DIMASSOC
350
5F
  3
HIDETEXT
350
63
  3
LAYEREVAL
350
1AE
  3
LAYERNOTIFY
350
1AF
  0
DICTIONARY
  5
200
102
{ACAD_REACTORS
330
1FF
102
}
330
1FF
100
AcDbDictionary
281
     1
  0
DICTIONARY
  5
322
102
{ACAD_REACTORS
330
1CE
102
}
330
1CE
100
AcDbDictionary
281
     1
  3
ACAD_ASSOCNETWORK
350
323
  0
SORTENTSTABLE
  5
28C
102
{ACAD_REACTORS
330
1CE
102
}
330
1CE
100
AcDbSortentsTable
330
1F
331
3BC
  5
434
331
473
  5
4C2
331
3AF
  5
426
331
3DE
  5
43B
331
4CE
  5
511
331
481
  5
4CE
331
39C
  5
411
331
434
  5
47A
331
442
  5
488
331
339
  5
390
331
4E3
  5
514
331
3A3
  5
418
331
426
  5
46C
331
3F0
  5
44E
331
390
  5
3F0
331
454
  5
4A3
331
344
  5
396
331
466
  5
4B6
331
4D5
  5
512
331
376
  5
3BC
331
448
  5
497
331
3E4
  5
442
331
45A
  5
4A9
331
43B
  5
481
331
418
  5
460
331
384
  5
3E4
331
368
  5
3AF
331
511
  5
36F
331
42D
  5
473
331
40A
  5
454
331
3B6
  5
42D
331
3A9
  5
41F
331
31F
  5
31F
331
50F
  5
361
331
46C
  5
4BC
331
396
  5
40A
331
34B
  5
39C
331
31E
  5
31E
331
47A
  5
4C8
331
37D
  5
3DE
331
321
  5
38A
331
4DC
  5
513
331
35A
  5
3A3
331
3EA
  5
448
331
41F
  5
466
331
411
  5
45A
331
36F
  5
3B6
331
361
  5
3A9
331
44E
  5
49D
331
514
  5
384
331
460
  5
4AF
331
38A
  5
3EA
  0
ACDBASSOCNETWORK
  5
325
102
{ACAD_REACTORS
330
324
102
}
330
324
100
AcDbAssocAction
 90
        2
 90
        0
330
0
360
0
 90
        0
 90
        0
 90
        0
 90
        0
 90
        0
 90
        0
 90
        0
100
AcDbAssocNetwork
 90
        0
 90
        1
 90
        1
330
323
 90
        0
  0
ACDBDETAILVIEWSTYLE
  5
21C
102
{ACAD_REACTORS
330
21B
102
}
330
21B
100
AcDbModelDocViewStyle
 70
     0
  3
Metric50
290
     0
300
Metric50
 90
        0
100
AcDbDetailViewStyle
 70
     0
 71
     0
 90
        3
 71
     1
340
11
 62
   256
 40
5.0
340
0
 62
   256
 40
5.0
300

 40
0.0
280
     1
 71
     2
340
16
 90
       25
 62
   256
 71
     3
340
11
 62
   256
 40
5.0
 90
        0
 40
15.0
 90
        1
300
%<\AcVar ViewDetailId>% (%<\AcVar ViewScale \f "%sn">%)
 71
     4
340
16
 90
       25
 62
   256
340
16
 90
       25
 62
   256
280
     0
  0
LAYOUT
  5
22
102
{ACAD_XDICTIONARY
360
205
102
}
102
{ACAD_REACTORS
330
1A
102
}
330
1A
100
AcDbPlotSettings
  1

  2
none_device
  4
ISO_A4_(210.00_x_297.00_MM)
  6

 40
7.5
 41
20.0
 42
7.5
 43
20.0
 44
210.0
 45
297.0
 46
11.54999923706054
 47
-13.65000009536743
 48
0.0
 49
0.0
140
0.0
141
0.0
142
1.0
143
8.704084754739808
 70
 11952
 72
     1
 73
     0
 74
     0
  7

 75
     0
147
0.1148885871608098
 76
     0
 77
     2
 78
   300
148
0.0
149
0.0
100
AcDbLayout
  1
Model
 70
     1
 71
     0
 10
0.0
 20
0.0
 11
12.0
 21
9.0
 12
0.0
 22
0.0
 32
0.0
 14
0.0
 24
0.0
 34
0.0
 15
0.0
 25
0.0
 35
0.0
146
0.0
 13
0.0
 23
0.0
 33
0.0
 16
1.0
 26
0.0
 36
0.0
 17
0.0
 27
1.0
 37
0.0
 76
     0
330
1F
331
EA
1001
ACAD_PSEXT
1000
None
1000
None
1000
Not applicable
1000
The layout will not be plotted unless a new plotter configuration name is selected.
1070
     0
  0
LAYOUT
  5
D3
102
{ACAD_REACTORS
330
1A
102
}
330
1A
100
AcDbPlotSettings
  1

  2
C:\Documents and Settings\basas\Application Data\Autodesk\AutoCAD 2005\R16.1\enu\plotters\Default Windows System Printer.pc3
  4

  6

 40
0.0
 41
0.0
 42
0.0
 43
0.0
 44
0.0
 45
0.0
 46
0.0
 47
0.0
 48
0.0
 49
0.0
140
0.0
141
0.0
142
1.0
143
1.0
 70
   688
 72
     0
 73
     0
 74
     5
  7

 75
    16
147
1.0
 76
     0
 77
     2
 78
   300
148
0.0
149
0.0
100
AcDbLayout
  1
Presentación1
 70
     1
 71
     1
 10
0.0
 20
0.0
 11
12.0
 21
9.0
 12
0.0
 22
0.0
 32
0.0
 14
0.0
 24
0.0
 34
0.0
 15
0.0
 25
0.0
 35
0.0
146
0.0
 13
0.0
 23
0.0
 33
0.0
 16
1.0
 26
0.0
 36
0.0
 17
0.0
 27
1.0
 37
0.0
 76
     0
330
D2
  0
LAYOUT
  5
D7
102
{ACAD_REACTORS
330
1A
102
}
330
1A
100
AcDbPlotSettings
  1

  2
C:\Documents and Settings\basas\Application Data\Autodesk\AutoCAD 2005\R16.1\enu\plotters\Default Windows System Printer.pc3
  4

  6

 40
0.0
 41
0.0
 42
0.0
 43
0.0
 44
0.0
 45
0.0
 46
0.0
 47
0.0
 48
0.0
 49
0.0
140
0.0
141
0.0
142
1.0
143
1.0
 70
   688
 72
     0
 73
     0
 74
     5
  7

 75
    16
147
1.0
 76
     0
 77
     2
 78
   300
148
0.0
149
0.0
100
AcDbLayout
  1
Presentación2
 70
     1
 71
     2
 10
0.0
 20
0.0
 11
12.0
 21
9.0
 12
0.0
 22
0.0
 32
0.0
 14
0.0
 24
0.0
 34
0.0
 15
0.0
 25
0.0
 35
0.0
146
0.0
 13
0.0
 23
0.0
 33
0.0
 16
1.0
 26
0.0
 36
0.0
 17
0.0
 27
1.0
 37
0.0
 76
     0
330
D6
  0
MATERIAL
  5
ED
102
{ACAD_XDICTIONARY
360
1F9
102
}
102
{ACAD_REACTORS
330
6A
102
}
330
6A
100
AcDbMaterial
  1
ByBlock
 94
       63
  0
MATERIAL
  5
EC
102
{ACAD_XDICTIONARY
360
1F7
102
}
102
{ACAD_REACTORS
330
6A
102
}
330
6A
100
AcDbMaterial
  1
ByLayer
 94
       63
  0
MATERIAL
  5
EE
102
{ACAD_XDICTIONARY
360
173
102
}
102
{ACAD_REACTORS
330
6A
102
}
330
6A
100
AcDbMaterial
  1
Global
 43
0.0007999999797903
 43
0.0
 43
0.0
 43
0.0
 43
0.0
 43
0.0007999999797903
 43
0.0
 43
0.0
 43
0.0
 43
0.0
 43
1.0
 43
0.0
 43
0.0
 43
0.0
 43
0.0
 43
1.0
 49
0.0007999999797903
 49
0.0
 49
0.0
 49
0.0
 49
0.0
 49
0.0007999999797903
 49
0.0
 49
0.0
 49
0.0
 49
0.0
 49
1.0
 49
0.0
 49
0.0
 49
0.0
 49
0.0
 49
1.0
142
0.0007999999797903
142
0.0
142
0.0
142
0.0
142
0.0
142
0.0007999999797903
142
0.0
142
0.0
142
0.0
142
0.0
142
1.0
142
0.0
142
0.0
142
0.0
142
0.0
142
1.0
144
0.0007999999797903
144
0.0
144
0.0
144
0.0
144
0.0
144
0.0007999999797903
144
0.0
144
0.0
144
0.0
144
0.0
144
1.0
144
0.0
144
0.0
144
0.0
144
0.0
144
1.0
 94
       63
1001
ACAD
1070
    -1
1070
     3
1070
     0
1000

1071
        0
1070
     0
  0
MLEADERSTYLE
  5
13B
102
{ACAD_REACTORS
330
12D
102
}
330
12D
100
AcDbMLeaderStyle
179
     2
170
     2
171
     1
172
     0
 90
        2
 40
0.0
 41
0.0
173
     1
 91
-1056964608
340
14
 92
       -2
290
     1
 42
2.0
291
     1
 43
8.0
  3
Standard
 44
4.0
300

342
11
174
     1
178
     1
175
     1
176
     0
 93
-1056964608
 45
4.0
292
     0
297
     0
 46
4.0
 94
-1056964608
 47
1.0
 49
1.0
140
1.0
293
     1
141
0.0
294
     1
177
     0
142
1.0
295
     0
296
     1
143
3.75
271
     0
272
     9
273
     9
298
     0
  0
MLEADERSTYLE
  5
12E
102
{ACAD_REACTORS
330
12D
102
}
330
12D
100
AcDbMLeaderStyle
179
     2
170
     2
171
     1
172
     0
 90
        2
 40
0.0
 41
0.0
173
     1
 91
-1056964608
340
14
 92
       -2
290
     1
 42
2.0
291
     1
 43
8.0
  3
Standard
 44
4.0
300

342
11
174
     1
178
     1
175
     1
176
     0
 93
-1056964608
 45
4.0
292
     0
297
     0
 46
4.0
 94
-1056964608
 47
1.0
 49
1.0
140
1.0
293
     1
141
0.0
294
     1
177
     0
142
1.0
295
     0
296
     0
143
3.75
271
     0
272
     9
273
     9
298
     0
  0
MLINESTYLE
  5
18
102
{ACAD_REACTORS
330
17
102
}
330
17
100
AcDbMlineStyle
  2
STANDARD
 70
     0
  3

 62
   256
 51
90.0
 52
90.0
 71
     2
 49
0.5
 62
   256
  6
BYLAYER
 49
-0.5
 62
   256
  6
BYLAYER
  0
ACDBPLACEHOLDER
  5
F
102
{ACAD_REACTORS
330
E
102
}
330
E
  0
SCALE
  5
10D
102
{ACAD_REACTORS
330
10C
102
}
330
10C
100
AcDbScale
 70
     0
300
1:1
140
1.0
141
1.0
290
     1
  0
SCALE
  5
1BE
102
{ACAD_REACTORS
330
10C
102
}
330
10C
100
AcDbScale
 70
     0
300
1:2
140
1.0
141
2.0
290
     0
  0
SCALE
  5
1BF
102
{ACAD_REACTORS
330
10C
102
}
330
10C
100
AcDbScale
 70
     0
300
1:4
140
1.0
141
4.0
290
     0
  0
SCALE
  5
1C0
102
{ACAD_REACTORS
330
10C
102
}
330
10C
100
AcDbScale
 70
     0
300
1:5
140
1.0
141
5.0
290
     0
  0
SCALE
  5
1C1
102
{ACAD_REACTORS
330
10C
102
}
330
10C
100
AcDbScale
 70
     0
300
1:8
140
1.0
141
8.0
290
     0
  0
SCALE
  5
1C2
102
{ACAD_REACTORS
330
10C
102
}
330
10C
100
AcDbScale
 70
     0
300
1:10
140
1.0
141
10.0
290
     0
  0
SCALE
  5
1C3
102
{ACAD_REACTORS
330
10C
102
}
330
10C
100
AcDbScale
 70
     0
300
1:16
140
1.0
141
16.0
290
     0
  0
SCALE
  5
1C4
102
{ACAD_REACTORS
330
10C
102
}
330
10C
100
AcDbScale
 70
     0
300
1:20
140
1.0
141
20.0
290
     0
  0
SCALE
  5
1C5
102
{ACAD_REACTORS
330
10C
102
}
330
10C
100
AcDbScale
 70
     0
300
1:30
140
1.0
141
30.0
290
     0
  0
SCALE
  5
1C6
102
{ACAD_REACTORS
330
10C
102
}
330
10C
100
AcDbScale
 70
     0
300
1:40
140
1.0
141
40.0
290
     0
  0
SCALE
  5
1C7
102
{ACAD_REACTORS
330
10C
102
}
330
10C
100
AcDbScale
 70
     0
300
1:50
140
1.0
141
50.0
290
     0
  0
SCALE
  5
1C8
102
{ACAD_REACTORS
330
10C
102
}
330
10C
100
AcDbScale
 70
     0
300
1:100
140
1.0
141
100.0
290
     0
  0
SCALE
  5
1C9
102
{ACAD_REACTORS
330
10C
102
}
330
10C
100
AcDbScale
 70
     0
300
2:1
140
2.0
141
1.0
290
     0
  0
SCALE
  5
1CA
102
{ACAD_REACTORS
330
10C
102
}
330
10C
100
AcDbScale
 70
     0
300
4:1
140
4.0
141
1.0
290
     0
  0
SCALE
  5
1CB
102
{ACAD_REACTORS
330
10C
102
}
330
10C
100
AcDbScale
 70
     0
300
8:1
140
8.0
141
1.0
290
     0
  0
SCALE
  5
1CC
102
{ACAD_REACTORS
330
10C
102
}
330
10C
100
AcDbScale
 70
     0
300
10:1
140
10.0
141
1.0
290
     0
  0
SCALE
  5
1CD
102
{ACAD_REACTORS
330
10C
102
}
330
10C
100
AcDbScale
 70
     0
300
100:1
140
100.0
141
1.0
290
     0
  0
ACDBSECTIONVIEWSTYLE
  5
21A
102
{ACAD_REACTORS
330
219
102
}
330
219
100
AcDbModelDocViewStyle
 70
     0
  3
Metric50
290
     0
300
Metric50
 90
        0
100
AcDbSectionViewStyle
 70
     0
 71
     0
 90
      102
 71
     1
340
11
 62
   256
 40
5.0
340
0
340
0
 62
   256
 40
5.0
300
I, O, Q, S, X, Z
 40
10.0
 90
        0
 40
2.5
 90
        0
 71
     2
340
16
 90
       25
 62
   256
340
16
 90
       50
 62
   256
 40
5.0
 40
2.5
 40
5.0
 71
     3
340
11
 62
   256
 40
5.0
 90
        0
 40
15.0
 90
        1
300
%<\AcVar ViewSectionStartId>%-%<\AcVar ViewSectionEndId>% (%<\AcVar ViewScale \f "%sn">%)
 71
     4
 62
   256
 62
   257
300
ANSI31
 40
1.0
 90
        0
290
     0
290
     0
 90
        6
 40
0.0
 40
1.570796326794896
 40
0.2617993877991494
 40
1.308996938995747
 40
-0.2617993877991494
 40
1.832595714594046
  0
TABLESTYLE
  5
7F
102
{ACAD_XDICTIONARY
360
162
102
}
102
{ACAD_REACTORS
330
7E
102
}
330
7E
100
AcDbTableStyle
280
     0
  3
Standard
 70
     0
 71
     0
 40
1.5
 41
1.5
280
     0
281
     0
  7
Standard
140
4.5
170
     2
 62
     0
 63
     7
283
     0
 90
      512
 91
        0
  1

274
    -2
284
     1
 64
     0
275
    -2
285
     1
 65
     0
276
    -2
286
     1
 66
     0
277
    -2
287
     1
 67
     0
278
    -2
288
     1
 68
     0
279
    -2
289
     1
 69
     0
  7
Standard
140
6.0
170
     5
 62
     0
 63
     7
283
     0
 90
      512
 91
        0
  1

274
    -2
284
     1
 64
     0
275
    -2
285
     1
 65
     0
276
    -2
286
     1
 66
     0
277
    -2
287
     1
 67
     0
278
    -2
288
     1
 68
     0
279
    -2
289
     1
 69
     0
  7
Standard
140
4.5
170
     5
 62
     0
 63
     7
283
     0
 90
      512
 91
        0
  1

274
    -2
284
     1
 64
     0
275
    -2
285
     1
 65
     0
276
    -2
286
     1
 66
     0
277
    -2
287
     1
 67
     0
278
    -2
288
     1
 68
     0
279
    -2
289
     1
 69
     0
  0
VISUALSTYLE
  5
F5
102
{ACAD_REACTORS
330
EF
102
}
330
EF
100
AcDbVisualStyle
  2
2dWireframe
 70
     4
177
     3
291
     0
 70
    58
 90
        0
176
     1
 90
        2
176
     1
 90
        1
176
     1
 90
        0
176
     1
 40
0.6
176
     1
 40
30.0
176
     1
 62
     7
420
 16777215
176
     1
 90
        1
176
     1
 90
        4
176
     1
 62
     7
176
     1
 62
   257
176
     1
 90
        1
176
     1
 90
        1
176
     1
 40
1.0
176
     1
 90
        0
176
     1
 62
   257
176
     1
 40
1.0
176
     1
 90
        1
176
     1
 90
        6
176
     1
 90
        2
176
     1
 62
     7
176
     1
 90
        5
176
     1
 90
        0
176
     1
 90
        0
176
     1
290
     0
176
     1
 90
        1
176
     1
 40
0.0
176
     1
 90
        0
176
     1
290
     1
176
     1
290
     1
176
     1
290
     0
176
     1
290
     0
176
     1
290
     0
176
     1
290
     0
176
     1
290
     0
176
     1
290
     0
176
     1
290
     0
176
     1
 90
       50
176
     1
 40
0.0
176
     1
 40
1.0
176
     1
 90
        0
176
     1
 62
    18
420
        0
176
     1
 90
       50
176
     1
 90
        3
176
     1
 62
     5
420
      255
176
     1
290
     0
176
     1
 90
       50
176
     1
 90
       50
176
     1
 90
       50
176
     1
290
     0
176
     1
 90
       50
176
     1
 62
   256
176
     0
 40
1.0
176
     0
 90
        2
176
     1
  1
strokes_ogs.tif
176
     1
290
     0
176
     1
 40
1.0
176
     1
 40
1.0
176
     1
  0
VISUALSTYLE
  5
F4
102
{ACAD_REACTORS
330
EF
102
}
330
EF
100
AcDbVisualStyle
  2
Basic
 70
     7
177
     3
291
     1
 70
    58
 90
        1
176
     1
 90
        0
176
     1
 90
        1
176
     1
 90
        0
176
     1
 40
0.6
176
     1
 40
30.0
176
     1
 62
     7
420
 16777215
176
     1
 90
        0
176
     1
 90
        4
176
     1
 62
     7
176
     1
 62
   257
176
     1
 90
        1
176
     1
 90
        1
176
     1
 40
1.0
176
     1
 90
        8
176
     1
 62
     7
176
     1
 40
1.0
176
     1
 90
        1
176
     1
 90
        6
176
     1
 90
        2
176
     1
 62
     7
176
     1
 90
        5
176
     1
 90
        0
176
     1
 90
        0
176
     1
290
     0
176
     1
 90
        1
176
     1
 40
0.0
176
     1
 90
        0
176
     1
290
     0
176
     1
290
     1
176
     1
290
     1
176
     1
290
     0
176
     1
290
     0
176
     1
290
     0
176
     1
290
     0
176
     1
290
     0
176
     1
290
     0
176
     1
 90
       50
176
     1
 40
0.0
176
     1
 40
1.0
176
     1
 90
        0
176
     1
 62
    18
420
        0
176
     1
 90
       50
176
     1
 90
        3
176
     1
 62
     5
420
      255
176
     1
290
     0
176
     1
 90
       50
176
     1
 90
       50
176
     1
 90
       50
176
     1
290
     0
176
     1
 90
       50
176
     1
 62
   256
176
     0
 40
1.0
176
     0
 90
        2
176
     1
  1
strokes_ogs.tif
176
     1
290
     0
176
     1
 40
1.0
176
     1
 40
1.0
176
     1
  0
VISUALSTYLE
  5
FB
102
{ACAD_REACTORS
330
EF
102
}
330
EF
100
AcDbVisualStyle
  2
Brighten
 70
    12
177
     3
291
     1
 70
    58
 90
        2
176
     1
 90
        2
176
     1
 90
        1
176
     1
 90
        0
176
     1
 40
0.6
176
     1
 40
30.0
176
     1
 62
     7
420
 16777215
176
     1
 90
        1
176
     1
 90
        4
176
     1
 62
     7
176
     1
 62
   257
176
     1
 90
        1
176
     1
 90
        1
176
     1
 40
1.0
176
     1
 90
        8
176
     1
 62
     7
176
     1
 40
1.0
176
     1
 90
        1
176
     1
 90
        6
176
     1
 90
        2
176
     1
 62
     7
176
     1
 90
        5
176
     1
 90
        0
176
     1
 90
        0
176
     1
290
     0
176
     1
 90
        1
176
     1
 40
50.0
176
     1
 90
        0
176
     1
290
     0
176
     1
290
     1
176
     1
290
     1
176
     1
290
     0
176
     1
290
     0
176
     1
290
     0
176
     1
290
     0
176
     1
290
     0
176
     1
290
     0
176
     1
 90
       50
176
     1
 40
0.0
176
     1
 40
1.0
176
     1
 90
        0
176
     1
 62
    18
420
        0
176
     1
 90
       50
176
     1
 90
        3
176
     1
 62
     5
420
      255
176
     1
290
     0
176
     1
 90
       50
176
     1
 90
       50
176
     1
 90
       50
176
     1
290
     0
176
     1
 90
       50
176
     1
 62
   256
176
     0
 40
1.0
176
     0
 90
        2
176
     1
  1
strokes_ogs.tif
176
     1
290
     0
176
     1
 40
1.0
176
     1
 40
1.0
176
     1
  0
VISUALSTYLE
  5
FF
102
{ACAD_REACTORS
330
EF
102
}
330
EF
100
AcDbVisualStyle
  2
ColorChange
 70
    16
177
     3
291
     1
 70
    58
 90
        2
176
     1
 90
        2
176
     1
 90
        3
176
     1
 90
        0
176
     1
 40
0.6
176
     1
 40
30.0
176
     1
 62
     8
420
  8421504
176
     1
 90
        1
176
     1
 90
        4
176
     1
 62
     7
176
     1
 62
   257
176
     1
 90
        1
176
     1
 90
        1
176
     1
 40
1.0
176
     1
 90
        8
176
     1
 62
     8
420
  8421504
176
     1
 40
1.0
176
     1
 90
        1
176
     1
 90
        6
176
     1
 90
        2
176
     1
 62
     7
176
     1
 90
        5
176
     1
 90
        0
176
     1
 90
        0
176
     1
290
     0
176
     1
 90
        1
176
     1
 40
0.0
176
     1
 90
        0
176
     1
290
     0
176
     1
290
     1
176
     1
290
     1
176
     1
290
     0
176
     1
290
     0
176
     1
290
     0
176
     1
290
     0
176
     1
290
     0
176
     1
290
     0
176
     1
 90
       50
176
     1
 40
0.0
176
     1
 40
1.0
176
     1
 90
        0
176
     1
 62
    18
420
        0
176
     1
 90
       50
176
     1
 90
        3
176
     1
 62
     5
420
      255
176
     1
290
     0
176
     1
 90
       50
176
     1
 90
       50
176
     1
 90
       50
176
     1
290
     0
176
     1
 90
       50
176
     1
 62
   256
176
     0
 40
1.0
176
     0
 90
        2
176
     1
  1
strokes_ogs.tif
176
     1
290
     0
176
     1
 40
1.0
176
     1
 40
1.0
176
     1
  0
VISUALSTYLE
  5
F8
102
{ACAD_REACTORS
330
EF
102
}
330
EF
100
AcDbVisualStyle
  2
Conceptual
 70
     9
177
     3
291
     0
 70
    58
 90
        3
176
     1
 90
        2
176
     1
 90
        1
176
     1
 90
        0
176
     1
 40
0.6
176
     1
 40
30.0
176
     1
 62
     7
420
 16777215
176
     1
 90
        2
176
     1
 90
        2
176
     1
 62
     7
176
     1
 62
   257
176
     1
 90
        1
176
     1
 90
        1
176
     1
 40
40.0
176
     1
 90
        8
176
     1
 62
     7
176
     1
 40
1.0
176
     1
 90
        1
176
     1
 90
        6
176
     1
 90
        2
176
     1
 62
     7
176
     1
 90
        3
176
     1
 90
        0
176
     1
 90
        0
176
     1
290
     0
176
     1
 90
        1
176
     1
 40
0.0
176
     1
 90
        0
176
     1
290
     0
176
     1
290
     1
176
     1
290
     1
176
     1
290
     0
176
     1
290
     0
176
     1
290
     0
176
     1
290
     0
176
     1
290
     0
176
     1
290
     0
176
     1
 90
       50
176
     1
 40
0.0
176
     1
 40
1.0
176
     1
 90
        0
176
     1
 62
    18
420
        0
176
     1
 90
       50
176
     1
 90
        3
176
     1
 62
     5
420
      255
176
     1
290
     0
176
     1
 90
       50
176
     1
 90
       50
176
     1
 90
       50
176
     1
290
     0
176
     1
 90
       50
176
     1
 62
   256
176
     0
 40
1.0
176
     0
 90
        2
176
     1
  1
strokes_ogs.tif
176
     1
290
     0
176
     1
 40
1.0
176
     1
 40
1.0
176
     1
  0
VISUALSTYLE
  5
FA
102
{ACAD_REACTORS
330
EF
102
}
330
EF
100
AcDbVisualStyle
  2
Dim
 70
    11
177
     3
291
     1
 70
    58
 90
        2
176
     1
 90
        2
176
     1
 90
        1
176
     1
 90
        0
176
     1
 40
0.6
176
     1
 40
30.0
176
     1
 62
     7
420
 16777215
176
     1
 90
        1
176
     1
 90
        4
176
     1
 62
     7
176
     1
 62
   257
176
     1
 90
        1
176
     1
 90
        1
176
     1
 40
1.0
176
     1
 90
        8
176
     1
 62
     7
176
     1
 40
1.0
176
     1
 90
        1
176
     1
 90
        6
176
     1
 90
        2
176
     1
 62
     7
176
     1
 90
        5
176
     1
 90
        0
176
     1
 90
        0
176
     1
290
     0
176
     1
 90
        1
176
     1
 40
-50.0
176
     1
 90
        0
176
     1
290
     0
176
     1
290
     1
176
     1
290
     1
176
     1
290
     0
176
     1
290
     0
176
     1
290
     0
176
     1
290
     0
176
     1
290
     0
176
     1
290
     0
176
     1
 90
       50
176
     1
 40
0.0
176
     1
 40
1.0
176
     1
 90
        0
176
     1
 62
    18
420
        0
176
     1
 90
       50
176
     1
 90
        3
176
     1
 62
     5
420
      255
176
     1
290
     0
176
     1
 90
       50
176
     1
 90
       50
176
     1
 90
       50
176
     1
290
     0
176
     1
 90
       50
176
     1
 62
   256
176
     0
 40
1.0
176
     0
 90
        2
176
     1
  1
strokes_ogs.tif
176
     1
290
     0
176
     1
 40
1.0
176
     1
 40
1.0
176
     1
  0
VISUALSTYLE
  5
1E6
102
{ACAD_REACTORS
330
EF
102
}
330
EF
100
AcDbVisualStyle
  2
EdgeColorOff
 70
    22
177
     3
291
     1
 70
    58
 90
        2
176
     0
 90
        2
176
     0
 90
        0
176
     0
 90
        0
176
     0
 40
0.6
176
     0
 40
30.0
176
     0
 62
     7
420
 16777215
176
     0
 90
        1
176
     0
 90
        4
176
     0
 62
     7
176
     0
 62
   257
176
     0
 90
        1
176
     0
 90
        1
176
     0
 40
1.0
176
     0
 90
        8
176
     2
 62
     7
176
     0
 40
1.0
176
     0
 90
        1
176
     0
 90
        6
176
     0
 90
        2
176
     0
 62
     7
176
     0
 90
        5
176
     0
 90
        0
176
     0
 90
        0
176
     0
290
     0
176
     0
 90
        1
176
     0
 40
0.0
176
     0
 90
        0
176
     0
290
     0
176
     1
290
     1
176
     1
290
     1
176
     1
290
     0
176
     1
290
     0
176
     1
290
     0
176
     1
290
     0
176
     1
290
     0
176
     1
290
     0
176
     1
 90
       50
176
     1
 40
0.0
176
     1
 40
1.0
176
     1
 90
        0
176
     1
 62
    18
420
        0
176
     1
 90
       50
176
     1
 90
        3
176
     1
 62
     5
420
      255
176
     1
290
     0
176
     1
 90
       50
176
     1
 90
       50
176
     1
 90
       50
176
     1
290
     0
176
     1
 90
       50
176
     1
 62
   256
176
     0
 40
1.0
176
     0
 90
        2
176
     1
  1
strokes_ogs.tif
176
     1
290
     0
176
     1
 40
1.0
176
     1
 40
1.0
176
     1
  0
VISUALSTYLE
  5
FE
102
{ACAD_REACTORS
330
EF
102
}
330
EF
100
AcDbVisualStyle
  2
Facepattern
 70
    15
177
     3
291
     1
 70
    58
 90
        2
176
     1
 90
        2
176
     1
 90
        1
176
     1
 90
        0
176
     1
 40
0.6
176
     1
 40
30.0
176
     1
 62
     7
420
 16777215
176
     1
 90
        1
176
     1
 90
        4
176
     1
 62
     7
176
     1
 62
   257
176
     1
 90
        1
176
     1
 90
        1
176
     1
 40
1.0
176
     1
 90
        8
176
     1
 62
     7
176
     1
 40
1.0
176
     1
 90
        1
176
     1
 90
        6
176
     1
 90
        2
176
     1
 62
     7
176
     1
 90
        5
176
     1
 90
        0
176
     1
 90
        0
176
     1
290
     0
176
     1
 90
        1
176
     1
 40
0.0
176
     1
 90
        0
176
     1
290
     0
176
     1
290
     1
176
     1
290
     1
176
     1
290
     0
176
     1
290
     0
176
     1
290
     0
176
     1
290
     0
176
     1
290
     0
176
     1
290
     0
176
     1
 90
       50
176
     1
 40
0.0
176
     1
 40
1.0
176
     1
 90
        0
176
     1
 62
    18
420
        0
176
     1
 90
       50
176
     1
 90
        3
176
     1
 62
     5
420
      255
176
     1
290
     0
176
     1
 90
       50
176
     1
 90
       50
176
     1
 90
       50
176
     1
290
     0
176
     1
 90
       50
176
     1
 62
   256
176
     0
 40
1.0
176
     0
 90
        2
176
     1
  1
strokes_ogs.tif
176
     1
290
     0
176
     1
 40
1.0
176
     1
 40
1.0
176
     1
  0
VISUALSTYLE
  5
F0
102
{ACAD_REACTORS
330
EF
102
}
330
EF
100
AcDbVisualStyle
  2
Flat
 70
     0
177
     3
291
     1
 70
    58
 90
        2
176
     1
 90
        1
176
     1
 90
        1
176
     1
 90
        2
176
     1
 40
0.6
176
     1
 40
30.0
176
     1
 62
     7
420
 16777215
176
     1
 90
        0
176
     1
 90
        0
176
     1
 62
     7
176
     1
 62
   257
176
     1
 90
        1
176
     1
 90
        1
176
     1
 40
1.0
176
     1
 90
        8
176
     1
 62
     7
176
     1
 40
1.0
176
     1
 90
        1
176
     1
 90
        6
176
     1
 90
        2
176
     1
 62
     7
176
     1
 90
        5
176
     1
 90
        0
176
     1
 90
        0
176
     1
290
     0
176
     1
 90
       13
176
     1
 40
0.0
176
     1
 90
        0
176
     1
290
     0
176
     1
290
     1
176
     1
290
     1
176
     1
290
     0
176
     1
290
     0
176
     1
290
     0
176
     1
290
     0
176
     1
290
     0
176
     1
290
     0
176
     1
 90
       50
176
     1
 40
0.0
176
     1
 40
1.0
176
     1
 90
        0
176
     1
 62
    18
420
        0
176
     1
 90
       50
176
     1
 90
        3
176
     1
 62
     5
420
      255
176
     1
290
     0
176
     1
 90
       50
176
     1
 90
       50
176
     1
 90
       50
176
     1
290
     0
176
     1
 90
       50
176
     1
 62
   256
176
     0
 40
1.0
176
     0
 90
        2
176
     1
  1
strokes_ogs.tif
176
     1
290
     0
176
     1
 40
1.0
176
     1
 40
1.0
176
     1
  0
VISUALSTYLE
  5
F1
102
{ACAD_REACTORS
330
EF
102
}
330
EF
100
AcDbVisualStyle
  2
FlatWithEdges
 70
     1
177
     3
291
     1
 70
    58
 90
        2
176
     1
 90
        1
176
     1
 90
        1
176
     1
 90
        2
176
     1
 40
0.6
176
     1
 40
30.0
176
     1
 62
     7
420
 16777215
176
     1
 90
        1
176
     1
 90
        0
176
     1
 62
     7
176
     1
 62
   257
176
     1
 90
        1
176
     1
 90
        1
176
     1
 40
1.0
176
     1
 90
        0
176
     1
 62
   257
176
     1
 40
1.0
176
     1
 90
        1
176
     1
 90
        6
176
     1
 90
        2
176
     1
 62
     7
176
     1
 90
        5
176
     1
 90
        0
176
     1
 90
        0
176
     1
290
     0
176
     1
 90
       13
176
     1
 40
0.0
176
     1
 90
        0
176
     1
290
     0
176
     1
290
     1
176
     1
290
     1
176
     1
290
     0
176
     1
290
     0
176
     1
290
     0
176
     1
290
     0
176
     1
290
     0
176
     1
290
     0
176
     1
 90
       50
176
     1
 40
0.0
176
     1
 40
1.0
176
     1
 90
        0
176
     1
 62
    18
420
        0
176
     1
 90
       50
176
     1
 90
        3
176
     1
 62
     5
420
      255
176
     1
290
     0
176
     1
 90
       50
176
     1
 90
       50
176
     1
 90
       50
176
     1
290
     0
176
     1
 90
       50
176
     1
 62
   256
176
     0
 40
1.0
176
     0
 90
        2
176
     1
  1
strokes_ogs.tif
176
     1
290
     0
176
     1
 40
1.0
176
     1
 40
1.0
176
     1
  0
VISUALSTYLE
  5
F2
102
{ACAD_REACTORS
330
EF
102
}
330
EF
100
AcDbVisualStyle
  2
Gouraud
 70
     2
177
     3
291
     1
 70
    58
 90
        2
176
     1
 90
        2
176
     1
 90
        1
176
     1
 90
        2
176
     1
 40
0.6
176
     1
 40
30.0
176
     1
 62
     7
420
 16777215
176
     1
 90
        0
176
     1
 90
        0
176
     1
 62
     7
176
     1
 62
   257
176
     1
 90
        1
176
     1
 90
        1
176
     1
 40
1.0
176
     1
 90
        0
176
     1
 62
     7
176
     1
 40
1.0
176
     1
 90
        1
176
     1
 90
        6
176
     1
 90
        2
176
     1
 62
     7
176
     1
 90
        5
176
     1
 90
        0
176
     1
 90
        0
176
     1
290
     0
176
     1
 90
       13
176
     1
 40
0.0
176
     1
 90
        0
176
     1
290
     0
176
     1
290
     1
176
     1
290
     1
176
     1
290
     0
176
     1
290
     0
176
     1
290
     0
176
     1
290
     0
176
     1
290
     0
176
     1
290
     0
176
     1
 90
       50
176
     1
 40
0.0
176
     1
 40
1.0
176
     1
 90
        0
176
     1
 62
    18
420
        0
176
     1
 90
       50
176
     1
 90
        3
176
     1
 62
     5
420
      255
176
     1
290
     0
176
     1
 90
       50
176
     1
 90
       50
176
     1
 90
       50
176
     1
290
     0
176
     1
 90
       50
176
     1
 62
   256
176
     0
 40
1.0
176
     0
 90
        2
176
     1
  1
strokes_ogs.tif
176
     1
290
     0
176
     1
 40
1.0
176
     1
 40
1.0
176
     1
  0
VISUALSTYLE
  5
F3
102
{ACAD_REACTORS
330
EF
102
}
330
EF
100
AcDbVisualStyle
  2
GouraudWithEdges
 70
     3
177
     3
291
     1
 70
    58
 90
        2
176
     1
 90
        2
176
     1
 90
        1
176
     1
 90
        2
176
     1
 40
0.6
176
     1
 40
30.0
176
     1
 62
     7
420
 16777215
176
     1
 90
        1
176
     1
 90
        0
176
     1
 62
     7
176
     1
 62
   257
176
     1
 90
        1
176
     1
 90
        1
176
     1
 40
1.0
176
     1
 90
        0
176
     1
 62
   257
176
     1
 40
1.0
176
     1
 90
        1
176
     1
 90
        6
176
     1
 90
        2
176
     1
 62
     7
176
     1
 90
        5
176
     1
 90
        0
176
     1
 90
        0
176
     1
290
     0
176
     1
 90
       13
176
     1
 40
0.0
176
     1
 90
        0
176
     1
290
     0
176
     1
290
     1
176
     1
290
     1
176
     1
290
     0
176
     1
290
     0
176
     1
290
     0
176
     1
290
     0
176
     1
290
     0
176
     1
290
     0
176
     1
 90
       50
176
     1
 40
0.0
176
     1
 40
1.0
176
     1
 90
        0
176
     1
 62
    18
420
        0
176
     1
 90
       50
176
     1
 90
        3
176
     1
 62
     5
420
      255
176
     1
290
     0
176
     1
 90
       50
176
     1
 90
       50
176
     1
 90
       50
176
     1
290
     0
176
     1
 90
       50
176
     1
 62
   256
176
     0
 40
1.0
176
     0
 90
        2
176
     1
  1
strokes_ogs.tif
176
     1
290
     0
176
     1
 40
1.0
176
     1
 40
1.0
176
     1
  0
VISUALSTYLE
  5
F7
102
{ACAD_REACTORS
330
EF
102
}
330
EF
100
AcDbVisualStyle
  2
Hidden
 70
     6
177
     3
291
     0
 70
    58
 90
        1
176
     1
 90
        2
176
     1
 90
        2
176
     1
 90
        0
176
     1
 40
0.6
176
     1
 40
30.0
176
     1
 62
     7
420
 16777215
176
     1
 90
        2
176
     1
 90
        2
176
     1
 62
     7
176
     1
 62
   257
176
     1
 90
        2
176
     1
 90
        1
176
     1
 40
40.0
176
     1
 90
        0
176
     1
 62
   257
176
     1
 40
1.0
176
     1
 90
        1
176
     1
 90
        6
176
     1
 90
        2
176
     1
 62
     7
176
     1
 90
        3
176
     1
 90
        0
176
     1
 90
        0
176
     1
290
     0
176
     1
 90
        1
176
     1
 40
0.0
176
     1
 90
        0
176
     1
290
     0
176
     1
290
     1
176
     1
290
     1
176
     1
290
     0
176
     1
290
     0
176
     1
290
     0
176
     1
290
     0
176
     1
290
     0
176
     1
290
     0
176
     1
 90
       50
176
     1
 40
0.0
176
     1
 40
1.0
176
     1
 90
        0
176
     1
 62
    18
420
        0
176
     1
 90
       50
176
     1
 90
        3
176
     1
 62
     5
420
      255
176
     1
290
     0
176
     1
 90
       50
176
     1
 90
       50
176
     1
 90
       50
176
     1
290
     0
176
     1
 90
       50
176
     1
 62
   256
176
     0
 40
1.0
176
     0
 90
        2
176
     1
  1
strokes_ogs.tif
176
     1
290
     0
176
     1
 40
1.0
176
     1
 40
1.0
176
     1
  0
VISUALSTYLE
  5
1E4
102
{ACAD_REACTORS
330
EF
102
}
330
EF
100
AcDbVisualStyle
  2
JitterOff
 70
    20
177
     3
291
     1
 70
    58
 90
        2
176
     0
 90
        2
176
     0
 90
        0
176
     0
 90
        0
176
     0
 40
0.6
176
     0
 40
30.0
176
     0
 62
     7
420
 16777215
176
     0
 90
        1
176
     0
 90
        4
176
     0
 62
     7
176
     0
 62
   257
176
     0
 90
        1
176
     0
 90
        1
176
     0
 40
1.0
176
     0
 90
       10
176
     2
 62
     7
176
     0
 40
1.0
176
     0
 90
        1
176
     0
 90
        6
176
     0
 90
        2
176
     0
 62
     7
176
     0
 90
        5
176
     0
 90
        0
176
     0
 90
        0
176
     0
290
     0
176
     0
 90
        1
176
     0
 40
0.0
176
     0
 90
        0
176
     0
290
     0
176
     1
290
     1
176
     1
290
     1
176
     1
290
     0
176
     1
290
     0
176
     1
290
     0
176
     1
290
     0
176
     1
290
     0
176
     1
290
     0
176
     1
 90
       50
176
     1
 40
0.0
176
     1
 40
1.0
176
     1
 90
        0
176
     1
 62
    18
420
        0
176
     1
 90
       50
176
     1
 90
        3
176
     1
 62
     5
420
      255
176
     1
290
     0
176
     1
 90
       50
176
     1
 90
       50
176
     1
 90
       50
176
     1
290
     0
176
     1
 90
       50
176
     1
 62
   256
176
     0
 40
1.0
176
     0
 90
        2
176
     1
  1
strokes_ogs.tif
176
     1
290
     0
176
     1
 40
1.0
176
     1
 40
1.0
176
     1
  0
VISUALSTYLE
  5
FD
102
{ACAD_REACTORS
330
EF
102
}
330
EF
100
AcDbVisualStyle
  2
Linepattern
 70
    14
177
     3
291
     1
 70
    58
 90
        2
176
     1
 90
        2
176
     1
 90
        1
176
     1
 90
        0
176
     1
 40
0.6
176
     1
 40
30.0
176
     1
 62
     7
420
 16777215
176
     1
 90
        1
176
     1
 90
        4
176
     1
 62
     7
176
     1
 62
   257
176
     1
 90
        7
176
     1
 90
        7
176
     1
 40
1.0
176
     1
 90
        8
176
     1
 62
     7
176
     1
 40
1.0
176
     1
 90
        1
176
     1
 90
        6
176
     1
 90
        2
176
     1
 62
     7
176
     1
 90
        5
176
     1
 90
        0
176
     1
 90
        0
176
     1
290
     0
176
     1
 90
        1
176
     1
 40
0.0
176
     1
 90
        0
176
     1
290
     0
176
     1
290
     1
176
     1
290
     1
176
     1
290
     0
176
     1
290
     0
176
     1
290
     0
176
     1
290
     0
176
     1
290
     0
176
     1
290
     0
176
     1
 90
       50
176
     1
 40
0.0
176
     1
 40
1.0
176
     1
 90
        0
176
     1
 62
    18
420
        0
176
     1
 90
       50
176
     1
 90
        3
176
     1
 62
     5
420
      255
176
     1
290
     0
176
     1
 90
       50
176
     1
 90
       50
176
     1
 90
       50
176
     1
290
     0
176
     1
 90
       50
176
     1
 62
   256
176
     0
 40
1.0
176
     0
 90
        2
176
     1
  1
strokes_ogs.tif
176
     1
290
     0
176
     1
 40
1.0
176
     1
 40
1.0
176
     1
  0
VISUALSTYLE
  5
1E5
102
{ACAD_REACTORS
330
EF
102
}
330
EF
100
AcDbVisualStyle
  2
OverhangOff
 70
    21
177
     3
291
     1
 70
    58
 90
        2
176
     0
 90
        2
176
     0
 90
        0
176
     0
 90
        0
176
     0
 40
0.6
176
     0
 40
30.0
176
     0
 62
     7
420
 16777215
176
     0
 90
        1
176
     0
 90
        4
176
     0
 62
     7
176
     0
 62
   257
176
     0
 90
        1
176
     0
 90
        1
176
     0
 40
1.0
176
     0
 90
        9
176
     2
 62
     7
176
     0
 40
1.0
176
     0
 90
        1
176
     0
 90
        6
176
     0
 90
        2
176
     0
 62
     7
176
     0
 90
        5
176
     0
 90
        0
176
     0
 90
        0
176
     0
290
     0
176
     0
 90
        1
176
     0
 40
0.0
176
     0
 90
        0
176
     0
290
     0
176
     1
290
     1
176
     1
290
     1
176
     1
290
     0
176
     1
290
     0
176
     1
290
     0
176
     1
290
     0
176
     1
290
     0
176
     1
290
     0
176
     1
 90
       50
176
     1
 40
0.0
176
     1
 40
1.0
176
     1
 90
        0
176
     1
 62
    18
420
        0
176
     1
 90
       50
176
     1
 90
        3
176
     1
 62
     5
420
      255
176
     1
290
     0
176
     1
 90
       50
176
     1
 90
       50
176
     1
 90
       50
176
     1
290
     0
176
     1
 90
       50
176
     1
 62
   256
176
     0
 40
1.0
176
     0
 90
        2
176
     1
  1
strokes_ogs.tif
176
     1
290
     0
176
     1
 40
1.0
176
     1
 40
1.0
176
     1
  0
VISUALSTYLE
  5
F9
102
{ACAD_REACTORS
330
EF
102
}
330
EF
100
AcDbVisualStyle
  2
Realistic
 70
     8
177
     3
291
     0
 70
    58
 90
        2
176
     1
 90
        3
176
     1
 90
        0
176
     1
 90
        2
176
     1
 40
0.6
176
     1
 40
30.0
176
     1
 62
     7
420
 16777215
176
     1
 90
        0
176
     1
 90
        0
176
     1
 62
     7
176
     1
 62
   257
176
     1
 90
        1
176
     1
 90
        1
176
     1
 40
1.0
176
     1
 90
        8
176
     1
 62
   257
176
     1
 40
1.0
176
     1
 90
        1
176
     1
 90
        6
176
     1
 90
        2
176
     1
 62
     7
176
     1
 90
        3
176
     1
 90
        0
176
     1
 90
        0
176
     1
290
     0
176
     1
 90
       13
176
     1
 40
0.0
176
     1
 90
        0
176
     1
290
     0
176
     1
290
     1
176
     1
290
     1
176
     1
290
     0
176
     1
290
     0
176
     1
290
     0
176
     1
290
     0
176
     1
290
     0
176
     1
290
     0
176
     1
 90
       50
176
     1
 40
0.0
176
     1
 40
1.0
176
     1
 90
        0
176
     1
 62
    18
420
        0
176
     1
 90
       50
176
     1
 90
        3
176
     1
 62
     5
420
      255
176
     1
290
     0
176
     1
 90
       50
176
     1
 90
       50
176
     1
 90
       50
176
     1
290
     0
176
     1
 90
       50
176
     1
 62
   256
176
     0
 40
1.0
176
     0
 90
        2
176
     1
  1
strokes_ogs.tif
176
     1
290
     0
176
     1
 40
1.0
176
     1
 40
1.0
176
     1
  0
VISUALSTYLE
  5
1F3
102
{ACAD_REACTORS
330
EF
102
}
330
EF
100
AcDbVisualStyle
  2
Shaded
 70
    27
177
     3
291
     0
 70
    58
 90
        2
176
     1
 90
        2
176
     1
 90
        1
176
     1
 90
        2
176
     1
 40
0.6
176
     1
 40
30.0
176
     1
 62
     7
420
 16777215
176
     1
 90
        0
176
     1
 90
        4
176
     1
 62
     7
176
     1
 62
   257
176
     1
 90
        1
176
     1
 90
        1
176
     1
 40
1.0
176
     1
 90
        8
176
     1
 62
   257
176
     1
 40
1.0
176
     1
 90
        1
176
     1
 90
        6
176
     1
 90
        2
176
     1
 62
     8
420
  7895160
176
     1
 90
        3
176
     1
 90
        0
176
     1
 90
        0
176
     1
290
     0
176
     1
 90
        5
176
     1
 40
0.0
176
     1
 90
        0
176
     1
290
     0
176
     1
290
     1
176
     1
290
     1
176
     1
290
     0
176
     1
290
     0
176
     1
290
     0
176
     1
290
     0
176
     1
290
     0
176
     1
290
     0
176
     1
 90
       50
176
     1
 40
0.0
176
     1
 40
1.0
176
     1
 90
        0
176
     1
 62
    18
420
        0
176
     1
 90
       50
176
     1
 90
        3
176
     1
 62
     5
420
      255
176
     1
290
     0
176
     1
 90
       50
176
     1
 90
       50
176
     1
 90
       50
176
     1
290
     0
176
     1
 90
       50
176
     1
 62
   256
176
     0
 40
1.0
176
     0
 90
        2
176
     1
  1
strokes_ogs.tif
176
     1
290
     0
176
     1
 40
1.0
176
     1
 40
1.0
176
     1
  0
VISUALSTYLE
  5
1F2
102
{ACAD_REACTORS
330
EF
102
}
330
EF
100
AcDbVisualStyle
  2
Shaded with edges
 70
    26
177
     3
291
     0
 70
    58
 90
        2
176
     1
 90
        2
176
     1
 90
        1
176
     1
 90
        2
176
     1
 40
0.6
176
     1
 40
30.0
176
     1
 62
     7
420
 16777215
176
     1
 90
        1
176
     1
 90
        2
176
     1
 62
     7
176
     1
 62
   257
176
     1
 90
        2
176
     1
 90
        1
176
     1
 40
1.0
176
     1
 90
        8
176
     1
 62
   257
176
     1
 40
1.0
176
     1
 90
        1
176
     1
 90
        6
176
     1
 90
        2
176
     1
 62
     7
176
     1
 90
        3
176
     1
 90
        0
176
     1
 90
        0
176
     1
290
     0
176
     1
 90
        5
176
     1
 40
0.0
176
     1
 90
        0
176
     1
290
     0
176
     1
290
     1
176
     1
290
     1
176
     1
290
     0
176
     1
290
     0
176
     1
290
     0
176
     1
290
     0
176
     1
290
     0
176
     1
290
     0
176
     1
 90
       50
176
     1
 40
0.0
176
     1
 40
1.0
176
     1
 90
        0
176
     1
 62
    18
420
        0
176
     1
 90
       50
176
     1
 90
        3
176
     1
 62
     5
420
      255
176
     1
290
     0
176
     1
 90
       50
176
     1
 90
       50
176
     1
 90
       50
176
     1
290
     0
176
     1
 90
       50
176
     1
 62
   256
176
     0
 40
1.0
176
     0
 90
        2
176
     1
  1
strokes_ogs.tif
176
     1
290
     0
176
     1
 40
1.0
176
     1
 40
1.0
176
     1
  0
VISUALSTYLE
  5
1EF
102
{ACAD_REACTORS
330
EF
102
}
330
EF
100
AcDbVisualStyle
  2
Shades of Gray
 70
    23
177
     3
291
     0
 70
    58
 90
        2
176
     1
 90
        2
176
     1
 90
        3
176
     1
 90
        0
176
     1
 40
0.6
176
     1
 40
30.0
176
     1
 62
     7
420
 16777215
176
     1
 90
        2
176
     1
 90
        2
176
     1
 62
     7
176
     1
 62
     7
176
     1
 90
        1
176
     1
 90
        1
176
     1
 40
40.0
176
     1
 90
        8
176
     1
 62
     7
176
     1
 40
1.0
176
     1
 90
        1
176
     1
 90
        6
176
     1
 90
        2
176
     1
 62
     7
176
     1
 90
        3
176
     1
 90
        0
176
     1
 90
        0
176
     1
290
     0
176
     1
 90
        1
176
     1
 40
0.0
176
     1
 90
        0
176
     1
290
     0
176
     1
290
     1
176
     1
290
     1
176
     1
290
     0
176
     1
290
     0
176
     1
290
     0
176
     1
290
     0
176
     1
290
     0
176
     1
290
     0
176
     1
 90
       50
176
     1
 40
0.0
176
     1
 40
1.0
176
     1
 90
        0
176
     1
 62
    18
420
        0
176
     1
 90
       50
176
     1
 90
        3
176
     1
 62
     5
420
      255
176
     1
290
     0
176
     1
 90
       50
176
     1
 90
       50
176
     1
 90
       50
176
     1
290
     0
176
     1
 90
       50
176
     1
 62
   256
176
     0
 40
1.0
176
     0
 90
        2
176
     1
  1
strokes_ogs.tif
176
     1
290
     0
176
     1
 40
1.0
176
     1
 40
1.0
176
     1
  0
VISUALSTYLE
  5
1F0
102
{ACAD_REACTORS
330
EF
102
}
330
EF
100
AcDbVisualStyle
  2
Sketchy
 70
    24
177
     3
291
     0
 70
    58
 90
        1
176
     1
 90
        2
176
     1
 90
        2
176
     1
 90
        0
176
     1
 40
0.6
176
     1
 40
30.0
176
     1
 62
     7
420
 16777215
176
     1
 90
        2
176
     1
 90
        2
176
     1
 62
     7
176
     1
 62
     7
176
     1
 90
        1
176
     1
 90
        1
176
     1
 40
40.0
176
     1
 90
       11
176
     1
 62
     7
176
     1
 40
1.0
176
     1
 90
        1
176
     1
 90
        6
176
     1
 90
        2
176
     1
 62
     7
176
     1
 90
        6
176
     1
 90
        0
176
     1
 90
        0
176
     1
290
     0
176
     1
 90
        1
176
     1
 40
0.0
176
     1
 90
        0
176
     1
290
     0
176
     1
290
     1
176
     1
290
     1
176
     1
290
     0
176
     1
290
     0
176
     1
290
     0
176
     1
290
     0
176
     1
290
     0
176
     1
290
     0
176
     1
 90
       50
176
     1
 40
0.0
176
     1
 40
1.0
176
     1
 90
        0
176
     1
 62
    18
420
        0
176
     1
 90
       50
176
     1
 90
        3
176
     1
 62
     5
420
      255
176
     1
290
     0
176
     1
 90
       50
176
     1
 90
       50
176
     1
 90
       50
176
     1
290
     0
176
     1
 90
       50
176
     1
 62
   256
176
     0
 40
1.0
176
     0
 90
        2
176
     1
  1
strokes_ogs.tif
176
     1
290
     0
176
     1
 40
1.0
176
     1
 40
1.0
176
     1
  0
VISUALSTYLE
  5
FC
102
{ACAD_REACTORS
330
EF
102
}
330
EF
100
AcDbVisualStyle
  2
Thicken
 70
    13
177
     3
291
     1
 70
    58
 90
        2
176
     1
 90
        2
176
     1
 90
        1
176
     1
 90
        0
176
     1
 40
0.6
176
     1
 40
30.0
176
     1
 62
     7
420
 16777215
176
     1
 90
        1
176
     1
 90
        4
176
     1
 62
     7
176
     1
 62
   257
176
     1
 90
        1
176
     1
 90
        1
176
     1
 40
1.0
176
     1
 90
       12
176
     1
 62
     7
176
     1
 40
1.0
176
     1
 90
        1
176
     1
 90
        6
176
     1
 90
        2
176
     1
 62
     7
176
     1
 90
        5
176
     1
 90
        0
176
     1
 90
        0
176
     1
290
     0
176
     1
 90
        1
176
     1
 40
0.0
176
     1
 90
        0
176
     1
290
     0
176
     1
290
     1
176
     1
290
     1
176
     1
290
     0
176
     1
290
     0
176
     1
290
     0
176
     1
290
     0
176
     1
290
     0
176
     1
290
     0
176
     1
 90
       50
176
     1
 40
0.0
176
     1
 40
1.0
176
     1
 90
        0
176
     1
 62
    18
420
        0
176
     1
 90
       50
176
     1
 90
        3
176
     1
 62
     5
420
      255
176
     1
290
     0
176
     1
 90
       50
176
     1
 90
       50
176
     1
 90
       50
176
     1
290
     0
176
     1
 90
       50
176
     1
 62
   256
176
     0
 40
1.0
176
     0
 90
        2
176
     1
  1
strokes_ogs.tif
176
     1
290
     0
176
     1
 40
1.0
176
     1
 40
1.0
176
     1
  0
VISUALSTYLE
  5
F6
102
{ACAD_REACTORS
330
EF
102
}
330
EF
100
AcDbVisualStyle
  2
Wireframe
 70
     5
177
     3
291
     0
 70
    58
 90
        0
176
     1
 90
        2
176
     1
 90
        0
176
     1
 90
        0
176
     1
 40
0.6
176
     1
 40
30.0
176
     1
 62
     7
420
 16777215
176
     1
 90
        1
176
     1
 90
        4
176
     1
 62
     7
176
     1
 62
   257
176
     1
 90
        1
176
     1
 90
        1
176
     1
 40
1.0
176
     1
 90
        0
176
     1
 62
   257
176
     1
 40
1.0
176
     1
 90
        1
176
     1
 90
        6
176
     1
 90
        2
176
     1
 62
     7
176
     1
 90
        3
176
     1
 90
        0
176
     1
 90
        0
176
     1
290
     0
176
     1
 90
        1
176
     1
 40
0.0
176
     1
 90
        0
176
     1
290
     0
176
     1
290
     1
176
     1
290
     1
176
     1
290
     0
176
     1
290
     0
176
     1
290
     0
176
     1
290
     0
176
     1
290
     0
176
     1
290
     0
176
     1
 90
       50
176
     1
 40
0.0
176
     1
 40
1.0
176
     1
 90
        0
176
     1
 62
    18
420
        0
176
     1
 90
       50
176
     1
 90
        3
176
     1
 62
     5
420
      255
176
     1
290
     0
176
     1
 90
       50
176
     1
 90
       50
176
     1
 90
       50
176
     1
290
     0
176
     1
 90
       50
176
     1
 62
   256
176
     0
 40
1.0
176
     0
 90
        2
176
     1
  1
strokes_ogs.tif
176
     1
290
     0
176
     1
 40
1.0
176
     1
 40
1.0
176
     1
  0
VISUALSTYLE
  5
1F1
102
{ACAD_REACTORS
330
EF
102
}
330
EF
100
AcDbVisualStyle
  2
X-Ray
 70
    25
177
     3
291
     0
 70
    58
 90
        2
176
     1
 90
        2
176
     1
 90
        1
176
     1
 90
        1
176
     1
 40
0.5
176
     1
 40
30.0
176
     1
 62
     7
420
 16777215
176
     1
 90
        1
176
     1
 90
        0
176
     1
 62
     7
176
     1
 62
   257
176
     1
 90
        1
176
     1
 90
        1
176
     1
 40
1.0
176
     1
 90
        8
176
     1
 62
     7
176
     1
 40
1.0
176
     1
 90
        1
176
     1
 90
        6
176
     1
 90
        2
176
     1
 62
     7
176
     1
 90
        3
176
     1
 90
        0
176
     1
 90
        0
176
     1
290
     0
176
     1
 90
       13
176
     1
 40
0.0
176
     1
 90
        0
176
     1
290
     0
176
     1
290
     1
176
     1
290
     1
176
     1
290
     0
176
     1
290
     0
176
     1
290
     0
176
     1
290
     0
176
     1
290
     0
176
     1
290
     0
176
     1
 90
       50
176
     1
 40
0.0
176
     1
 40
1.0
176
     1
 90
        0
176
     1
 62
    18
420
        0
176
     1
 90
       50
176
     1
 90
        3
176
     1
 62
     5
420
      255
176
     1
290
     0
176
     1
 90
       50
176
     1
 90
       50
176
     1
 90
       50
176
     1
290
     0
176
     1
 90
       50
176
     1
 62
   256
176
     0
 40
1.0
176
     0
 90
        2
176
     1
  1
strokes_ogs.tif
176
     1
290
     0
176
     1
 40
1.0
176
     1
 40
1.0
176
     1
  0
DICTIONARYVAR
  5
146
102
{ACAD_REACTORS
330
5E
102
}
330
5E
100
DictionaryVariables
280
     0
  1
1:1
  0
DICTIONARYVAR
  5
259
102
{ACAD_REACTORS
330
5E
102
}
330
5E
100
DictionaryVariables
280
     0
  1
3.500000
  0
DICTIONARYVAR
  5
25A
102
{ACAD_REACTORS
330
5E
102
}
330
5E
100
DictionaryVariables
280
     0
  1
acadiso.lin
  0
DICTIONARYVAR
  5
145
102
{ACAD_REACTORS
330
5E
102
}
330
5E
100
DictionaryVariables
280
     0
  1
STANDARD
  0
DICTIONARYVAR
  5
84
102
{ACAD_REACTORS
330
5E
102
}
330
5E
100
DictionaryVariables
280
     0
  1
STANDARD
  0
DICTIONARYVAR
  5
227
102
{ACAD_REACTORS
330
5E
102
}
330
5E
100
DictionaryVariables
280
     0
  1
Metric50
  0
DICTIONARYVAR
  5
228
102
{ACAD_REACTORS
330
5E
102
}
330
5E
100
DictionaryVariables
280
     0
  1
Metric50
  0
DICTIONARYVAR
  5
5F
102
{ACAD_REACTORS
330
5E
102
}
330
5E
100
DictionaryVariables
280
     0
  1
2
  0
DICTIONARYVAR
  5
63
102
{ACAD_REACTORS
330
5E
102
}
330
5E
100
DictionaryVariables
280
     0
  1
1
  0
DICTIONARYVAR
  5
1AE
102
{ACAD_REACTORS
330
5E
102
}
330
5E
100
DictionaryVariables
280
     0
  1
0
  0
DICTIONARYVAR
  5
1AF
102
{ACAD_REACTORS
330
5E
102
}
330
5E
100
DictionaryVariables
280
     0
  1
0
  0
ACDBASSOCNETWORK
  5
323
102
{ACAD_REACTORS
330
322
102
}
330
322
100
AcDbAssocAction
 90
        2
 90
        0
330
325
360
0
 90
        1
 90
        0
 90
        0
 90
        0
 90
        0
 90
        0
 90
        0
100
AcDbAssocNetwork
 90
        0
 90
       73
 90
       58
360
326
360
327
360
328
360
329
360
32A
360
32B
360
32C
360
33D
360
341
360
345
360
34C
360
35B
360
362
360
369
360
370
360
377
360
37E
360
385
360
38B
360
391
360
397
360
39D
360
3A4
360
3AA
360
3B0
360
3B7
360
3BD
360
3DF
360
3E5
360
3EB
360
3F1
360
40B
360
412
360
419
360
420
360
427
360
42E
360
435
360
43C
360
443
360
449
360
44F
360
455
360
45B
360
461
360
467
360
46D
360
474
360
47B
360
482
360
4CF
360
4D6
360
4DD
360
4E4
360
521
360
52B
360
530
360
53C
 90
        0
  0
DICTIONARY
  5
205
330
22
100
AcDbDictionary
280
     1
281
     1
  0
DICTIONARY
  5
1F9
330
ED
100
AcDbDictionary
280
     1
281
     1
  3
FBXASSET
360
1FA
  0
DICTIONARY
  5
1F7
330
EC
100
AcDbDictionary
280
     1
281
     1
  3
FBXASSET
360
1F8
  0
DICTIONARY
  5
173
330
EE
100
AcDbDictionary
280
     1
281
     1
  3
BUMPTILE
360
175
  3
DIFFUSETILE
360
174
  3
FBXASSET
360
1FB
  3
OPACITYTILE
360
176
  3
REFLECTIONTILE
360
177
  0
DICTIONARY
  5
162
330
7F
100
AcDbDictionary
280
     1
281
     1
  3
ACAD_ROUNDTRIP_2008_TABLESTYLE_CELLSTYLEMAP
360
58C
  0
ACDBASSOCVARIABLE
  5
326
102
{ACAD_REACTORS
330
3C8
330
3C9
330
3CA
330
3CB
330
3CC
330
3CD
330
3CE
330
3CF
330
4E9
330
4EA
330
4EF
330
4F0
330
4F1
330
4F2
330
4F3
330
4F4
330
4F5
330
4F6
330
558
330
55A
102
}
330
323
100
AcDbAssocAction
 90
        2
 90
        0
330
323
360
0
 90
        1
 90
        0
 90
        0
 90
        0
 90
        0
 90
        0
 90
        0
100
AcDbAssocVariable
 90
        2
  1
entrada_alto
  1
4.7
  1
AcDbCalc:1.0
  1

 40
4.7
290
     0
290
     0
 90
        0
  0
ACDBASSOCVARIABLE
  5
327
102
{ACAD_REACTORS
330
3C1
330
3C2
330
3C3
330
3C4
330
3C5
330
3C6
330
3C7
330
505
330
506
330
507
330
508
102
}
330
323
100
AcDbAssocAction
 90
        2
 90
        0
330
323
360
0
 90
        2
 90
        0
 90
        0
 90
        0
 90
        0
 90
        0
 90
        0
100
AcDbAssocVariable
 90
        2
  1
cuadrado_largo
  1
8.5
  1
AcDbCalc:1.0
  1

 40
8.5
290
     0
290
     0
 90
        0
  0
ACDBASSOCVARIABLE
  5
328
102
{ACAD_REACTORS
330
3D0
330
3D1
330
3D2
330
3D3
330
4F7
330
4FA
330
4FB
330
4FC
330
4FD
102
}
330
323
100
AcDbAssocAction
 90
        2
 90
        0
330
323
360
0
 90
        3
 90
        0
 90
        0
 90
        0
 90
        0
 90
        0
 90
        0
100
AcDbAssocVariable
 90
        2
  1
entrada_corto
  1
2.9
  1
AcDbCalc:1.0
  1

 40
2.9
290
     0
290
     0
 90
        0
  0
ACDBASSOCVARIABLE
  5
329
102
{ACAD_REACTORS
330
3F8
330
3F9
102
}
330
323
100
AcDbAssocAction
 90
        2
 90
        0
330
323
360
0
 90
        4
 90
        0
 90
        0
 90
        0
 90
        0
 90
        0
 90
        0
100
AcDbAssocVariable
 90
        2
  1
rectangulo_largo
  1
40
  1
AcDbCalc:1.0
  1

 90
       40
290
     0
290
     0
 90
        0
  0
ACDBASSOCVARIABLE
  5
32A
102
{ACAD_REACTORS
330
3F6
330
3F7
102
}
330
323
100
AcDbAssocAction
 90
        2
 90
        0
330
323
360
0
 90
        5
 90
        0
 90
        0
 90
        0
 90
        0
 90
        0
 90
        0
100
AcDbAssocVariable
 90
        2
  1
rectangulo_corto
  1
20
  1
AcDbCalc:1.0
  1

 90
       20
290
     0
290
     0
 90
        0
  0
ACDBASSOCVARIABLE
  5
32B
330
323
100
AcDbAssocAction
 90
        2
 90
        0
330
323
360
0
 90
        6
 90
        0
 90
        0
 90
        0
 90
        0
 90
        0
 90
        0
100
AcDbAssocVariable
 90
        2
  1
arco_espacio
  1
3.7
  1
AcDbCalc:1.0
  1

 40
3.7
290
     0
290
     0
 90
        0
  0
ACDBASSOCVARIABLE
  5
32C
102
{ACAD_REACTORS
330
4FF
330
500
330
501
330
502
330
556
330
557
102
}
330
323
100
AcDbAssocAction
 90
        2
 90
        0
330
323
360
0
 90
        7
 90
        0
 90
        0
 90
        0
 90
        0
 90
        0
 90
        0
100
AcDbAssocVariable
 90
        2
  1
arco_largo
  1
10.325
  1
AcDbCalc:1.0
  1

 40
10.325
290
     0
290
     0
 90
        0
  0
ACDBASSOCVARIABLE
  5
33D
102
{ACAD_REACTORS
330
33E
102
}
330
323
100
AcDbAssocAction
 90
        2
 90
        0
330
323
360
0
 90
        9
 90
        1
 90
        0
 90
        0
 90
        0
 90
        0
 90
        0
100
AcDbAssocVariable
 90
        2
  1
d1
  1
cuadrado_largo
  1
AcDbCalc:1.0
  1

 40
8.5
290
     0
290
     0
 90
        1
360
3C1
 90
        0
  0
ACDBASSOC2DCONSTRAINTGROUP
  5
341
330
323
100
AcDbAssocAction
 90
        2
 90
        0
330
323
360
0
 90
       10
 90
      226
 90
        0
 90
        0
 90
        0
 90
        0
 90
        0
 90
        2
 70
     0
 10
0.0
 20
0.0
 30
0.0
 10
1.0
 20
0.0
 30
0.0
 10
0.0
 20
1.0
 30
0.0
360
0
 90
      154
360
34D
360
3BE
360
43E
360
3B8
360
343
360
444
360
347
360
34E
360
34A
360
346
360
441
360
40D
360
386
360
33E
360
33F
360
3B2
360
3B1
360
44B
360
35C
360
350
360
532
360
38C
360
380
360
41E
360
395
360
41A
360
399
360
425
360
3AE
360
4E1
360
3A6
360
35F
360
4D7
360
41B
360
417
360
398
360
3B4
360
3AC
360
3A8
360
35D
360
3BF
360
3BB
360
480
360
38F
360
53D
360
478
360
387
360
484
360
383
360
45C
360
36B
360
519
360
363
360
367
360
463
360
3E7
360
364
360
45F
360
36A
360
3E1
360
459
360
36E
360
3EF
360
374
360
378
360
522
360
371
360
476
360
379
360
3F2
360
46E
360
523
360
372
360
3E9
360
37B
360
37F
360
3EC
360
389
360
38D
360
392
360
39B
360
39F
360
414
360
393
360
3A1
360
422
360
4E6
360
3A5
360
4DA
360
39E
360
410
360
3AB
360
3B9
360
43D
360
3D4
360
3D5
360
428
360
3E3
360
3E0
360
3E6
360
453
360
3ED
360
469
360
3F5
360
3F3
360
40C
360
413
360
421
360
42C
360
429
360
433
360
42F
360
430
360
43A
360
436
360
437
360
447
360
445
360
44D
360
44A
360
450
360
451
360
456
360
457
360
4E8
360
45D
360
465
360
462
360
46B
360
468
360
52D
360
471
360
52C
360
46F
360
4D1
360
475
360
47C
360
47D
360
486
360
540
360
483
360
4D3
360
4D0
360
4D8
360
4DE
360
4DF
360
4E5
360
515
360
516
360
534
360
531
360
53E
360
584
360
588
 90
      729
 90
        0
 90
        0
290
     0
 90
      423
  1
AcConstrainedBoundedLine
 90
        6
  1
AcConstrainedImplicitPoint
 90
        7
  1
AcPointCurveConstraint
 90
        8
  1
AcConstrainedImplicitPoint
 90
        9
  1
AcPointCurveConstraint
 90
       10
  1
AcDistanceConstraint
 90
       12
  1
AcConstrainedBoundedLine
 90
       18
  1
AcConstrainedImplicitPoint
 90
       19
  1
AcPointCurveConstraint
 90
       20
  1
AcConstrainedImplicitPoint
 90
       21
  1
AcPointCurveConstraint
 90
       22
  1
AcDistanceConstraint
 90
       24
  1
AcConstrainedBoundedLine
 90
       25
  1
AcConstrainedImplicitPoint
 90
       26
  1
AcPointCurveConstraint
 90
       27
  1
AcConstrainedImplicitPoint
 90
       28
  1
AcPointCurveConstraint
 90
       29
  1
AcPointCoincidenceConstraint
 90
       30
  1
AcDistanceConstraint
 90
       37
  1
AcConstrainedBoundedLine
 90
       38
  1
AcConstrainedImplicitPoint
 90
       39
  1
AcPointCurveConstraint
 90
       40
  1
AcConstrainedImplicitPoint
 90
       41
  1
AcPointCurveConstraint
 90
       42
  1
AcDistanceConstraint
 90
       49
  1
AcConstrainedBoundedLine
 90
       55
  1
AcConstrainedImplicitPoint
 90
       56
  1
AcPointCurveConstraint
 90
       57
  1
AcConstrainedImplicitPoint
 90
       58
  1
AcPointCurveConstraint
 90
       59
  1
AcDistanceConstraint
 90
       61
  1
AcConstrainedBoundedLine
 90
       68
  1
AcConstrainedImplicitPoint
 90
       69
  1
AcPointCurveConstraint
 90
       70
  1
AcConstrainedImplicitPoint
 90
       71
  1
AcPointCurveConstraint
 90
       72
  1
AcDistanceConstraint
 90
       74
  1
AcConstrainedBoundedLine
 90
       75
  1
AcConstrainedImplicitPoint
 90
       76
  1
AcPointCurveConstraint
 90
       77
  1
AcConstrainedImplicitPoint
 90
       78
  1
AcPointCurveConstraint
 90
       79
  1
AcDistanceConstraint
 90
       87
  1
AcConstrainedBoundedLine
 90
       88
  1
AcConstrainedImplicitPoint
 90
       89
  1
AcPointCurveConstraint
 90
       90
  1
AcConstrainedImplicitPoint
 90
       91
  1
AcPointCurveConstraint
 90
       92
  1
AcDistanceConstraint
 90
       99
  1
AcConstrainedBoundedLine
 90
      105
  1
AcConstrainedImplicitPoint
 90
      106
  1
AcPointCurveConstraint
 90
      107
  1
AcConstrainedImplicitPoint
 90
      108
  1
AcPointCurveConstraint
 90
      109
  1
AcDistanceConstraint
 90
      111
  1
AcConstrainedBoundedLine
 90
      112
  1
AcConstrainedImplicitPoint
 90
      113
  1
AcPointCurveConstraint
 90
      114
  1
AcConstrainedImplicitPoint
 90
      115
  1
AcPointCurveConstraint
 90
      116
  1
AcPointCoincidenceConstraint
 90
      117
  1
AcPointCoincidenceConstraint
 90
      118
  1
AcDistanceConstraint
 90
      119
  1
AcConstrainedBoundedLine
 90
      120
  1
AcConstrainedImplicitPoint
 90
      121
  1
AcPointCurveConstraint
 90
      122
  1
AcConstrainedImplicitPoint
 90
      123
  1
AcPointCurveConstraint
 90
      124
  1
AcPointCoincidenceConstraint
 90
      125
  1
AcPointCoincidenceConstraint
 90
      126
  1
AcDistanceConstraint
 90
      127
  1
AcConstrainedBoundedLine
 90
      128
  1
AcConstrainedImplicitPoint
 90
      129
  1
AcPointCurveConstraint
 90
      130
  1
AcConstrainedImplicitPoint
 90
      131
  1
AcPointCurveConstraint
 90
      132
  1
AcPointCoincidenceConstraint
 90
      133
  1
AcPointCoincidenceConstraint
 90
      134
  1
AcDistanceConstraint
 90
      135
  1
AcConstrainedBoundedLine
 90
      136
  1
AcConstrainedImplicitPoint
 90
      137
  1
AcPointCurveConstraint
 90
      138
  1
AcConstrainedImplicitPoint
 90
      139
  1
AcPointCurveConstraint
 90
      140
  1
AcPointCoincidenceConstraint
 90
      141
  1
AcPointCoincidenceConstraint
 90
      142
  1
AcDistanceConstraint
 90
      143
  1
AcConstrainedBoundedLine
 90
      144
  1
AcConstrainedImplicitPoint
 90
      145
  1
AcPointCurveConstraint
 90
      146
  1
AcConstrainedImplicitPoint
 90
      147
  1
AcPointCurveConstraint
 90
      148
  1
AcPointCoincidenceConstraint
 90
      149
  1
AcDistanceConstraint
 90
      157
  1
AcConstrainedBoundedLine
 90
      158
  1
AcConstrainedImplicitPoint
 90
      159
  1
AcPointCurveConstraint
 90
      160
  1
AcConstrainedImplicitPoint
 90
      161
  1
AcPointCurveConstraint
 90
      162
  1
AcPointCoincidenceConstraint
 90
      163
  1
AcPointCoincidenceConstraint
 90
      164
  1
AcDistanceConstraint
 90
      165
  1
AcConstrainedBoundedLine
 90
      166
  1
AcConstrainedImplicitPoint
 90
      167
  1
AcPointCurveConstraint
 90
      168
  1
AcConstrainedImplicitPoint
 90
      169
  1
AcPointCurveConstraint
 90
      170
  1
AcPointCoincidenceConstraint
 90
      171
  1
AcDistanceConstraint
 90
      172
  1
AcConstrainedBoundedLine
 90
      173
  1
AcConstrainedImplicitPoint
 90
      174
  1
AcPointCurveConstraint
 90
      175
  1
AcConstrainedImplicitPoint
 90
      176
  1
AcPointCurveConstraint
 90
      177
  1
AcPointCoincidenceConstraint
 90
      178
  1
AcDistanceConstraint
 90
      185
  1
AcConstrainedBoundedLine
 90
      186
  1
AcConstrainedImplicitPoint
 90
      187
  1
AcPointCurveConstraint
 90
      188
  1
AcConstrainedImplicitPoint
 90
      189
  1
AcPointCurveConstraint
 90
      190
  1
AcPointCoincidenceConstraint
 90
      191
  1
AcPointCoincidenceConstraint
 90
      192
  1
AcDistanceConstraint
 90
      193
  1
AcDistanceConstraint
 90
      194
  1
AcConstrainedDatumLine
 90
      195
  1
AcHorizontalConstraint
 90
      197
  1
AcHorizontalConstraint
 90
      199
  1
AcHorizontalConstraint
 90
      201
  1
AcHorizontalConstraint
 90
      203
  1
AcHorizontalConstraint
 90
      205
  1
AcHorizontalConstraint
 90
      207
  1
AcHorizontalConstraint
 90
      209
  1
AcHorizontalConstraint
 90
      211
  1
AcHorizontalConstraint
 90
      213
  1
AcHorizontalConstraint
 90
      215
  1
AcConstrainedDatumLine
 90
      216
  1
AcVerticalConstraint
 90
      217
  1
AcVerticalConstraint
 90
      218
  1
AcConstrainedBoundedLine
 90
      219
  1
AcConstrainedImplicitPoint
 90
      220
  1
AcPointCurveConstraint
 90
      221
  1
AcConstrainedImplicitPoint
 90
      222
  1
AcPointCurveConstraint
 90
      223
  1
AcPointCoincidenceConstraint
 90
      224
  1
AcPointCoincidenceConstraint
 90
      225
  1
AcVerticalConstraint
 90
      226
  1
AcVerticalConstraint
 90
      227
  1
AcVerticalConstraint
 90
      228
  1
AcVerticalConstraint
 90
      229
  1
AcVerticalConstraint
 90
      230
  1
AcVerticalConstraint
 90
      231
  1
AcVerticalConstraint
 90
      232
  1
AcConstrainedBoundedLine
 90
      233
  1
AcConstrainedImplicitPoint
 90
      234
  1
AcPointCurveConstraint
 90
      235
  1
AcConstrainedImplicitPoint
 90
      236
  1
AcPointCurveConstraint
 90
      237
  1
AcPointCoincidenceConstraint
 90
      238
  1
AcVerticalConstraint
 90
      239
  1
AcConstrainedBoundedLine
 90
      240
  1
AcConstrainedImplicitPoint
 90
      241
  1
AcPointCurveConstraint
 90
      242
  1
AcConstrainedImplicitPoint
 90
      243
  1
AcPointCurveConstraint
 90
      244
  1
AcDistanceConstraint
 90
      245
  1
AcConstrainedBoundedLine
 90
      246
  1
AcConstrainedImplicitPoint
 90
      247
  1
AcPointCurveConstraint
 90
      248
  1
AcConstrainedImplicitPoint
 90
      249
  1
AcPointCurveConstraint
 90
      250
  1
AcPointCoincidenceConstraint
 90
      251
  1
AcDistanceConstraint
 90
      252
  1
AcConstrainedBoundedLine
 90
      253
  1
AcConstrainedImplicitPoint
 90
      254
  1
AcPointCurveConstraint
 90
      255
  1
AcConstrainedImplicitPoint
 90
      256
  1
AcPointCurveConstraint
 90
      257
  1
AcPointCoincidenceConstraint
 90
      258
  1
AcDistanceConstraint
 90
      259
  1
AcConstrainedBoundedLine
 90
      260
  1
AcConstrainedImplicitPoint
 90
      261
  1
AcPointCurveConstraint
 90
      262
  1
AcConstrainedImplicitPoint
 90
      263
  1
AcPointCurveConstraint
 90
      264
  1
AcPointCoincidenceConstraint
 90
      265
  1
AcDistanceConstraint
 90
      266
  1
AcHorizontalConstraint
 90
      267
  1
AcHorizontalConstraint
 90
      268
  1
AcVerticalConstraint
 90
      269
  1
AcVerticalConstraint
 90
      270
  1
AcConstrainedBoundedLine
 90
      276
  1
AcConstrainedImplicitPoint
 90
      277
  1
AcPointCurveConstraint
 90
      278
  1
AcConstrainedImplicitPoint
 90
      279
  1
AcPointCurveConstraint
 90
      280
  1
AcDistanceConstraint
 90
      282
  1
AcConstrainedBoundedLine
 90
      288
  1
AcConstrainedImplicitPoint
 90
      289
  1
AcPointCurveConstraint
 90
      290
  1
AcConstrainedImplicitPoint
 90
      291
  1
AcPointCurveConstraint
 90
      292
  1
AcDistanceConstraint
 90
      294
  1
AcConstrainedBoundedLine
 90
      300
  1
AcConstrainedImplicitPoint
 90
      301
  1
AcPointCurveConstraint
 90
      302
  1
AcConstrainedImplicitPoint
 90
      303
  1
AcPointCurveConstraint
 90
      304
  1
AcDistanceConstraint
 90
      306
  1
AcConstrainedBoundedLine
 90
      312
  1
AcConstrainedImplicitPoint
 90
      313
  1
AcPointCurveConstraint
 90
      314
  1
AcConstrainedImplicitPoint
 90
      315
  1
AcPointCurveConstraint
 90
      316
  1
AcDistanceConstraint
 90
      318
  1
AcConstrainedBoundedLine
 90
      325
  1
AcConstrainedImplicitPoint
 90
      326
  1
AcPointCurveConstraint
 90
      327
  1
AcConstrainedImplicitPoint
 90
      328
  1
AcPointCurveConstraint
 90
      329
  1
AcDistanceConstraint
 90
      331
  1
AcConstrainedBoundedLine
 90
      338
  1
AcConstrainedImplicitPoint
 90
      339
  1
AcPointCurveConstraint
 90
      340
  1
AcConstrainedImplicitPoint
 90
      341
  1
AcPointCurveConstraint
 90
      342
  1
AcDistanceConstraint
 90
      344
  1
AcConstrainedBoundedLine
 90
      351
  1
AcConstrainedImplicitPoint
 90
      352
  1
AcPointCurveConstraint
 90
      353
  1
AcConstrainedImplicitPoint
 90
      354
  1
AcPointCurveConstraint
 90
      355
  1
AcDistanceConstraint
 90
      357
  1
AcConstrainedBoundedLine
 90
      363
  1
AcConstrainedImplicitPoint
 90
      364
  1
AcPointCurveConstraint
 90
      365
  1
AcConstrainedImplicitPoint
 90
      366
  1
AcPointCurveConstraint
 90
      367
  1
AcPointCoincidenceConstraint
 90
      368
  1
AcDistanceConstraint
 90
      370
  1
AcConstrainedBoundedLine
 90
      371
  1
AcConstrainedImplicitPoint
 90
      372
  1
AcPointCurveConstraint
 90
      373
  1
AcConstrainedImplicitPoint
 90
      374
  1
AcPointCurveConstraint
 90
      375
  1
AcPointCoincidenceConstraint
 90
      376
  1
AcPointCoincidenceConstraint
 90
      377
  1
AcDistanceConstraint
 90
      378
  1
AcConstrainedBoundedLine
 90
      379
  1
AcConstrainedImplicitPoint
 90
      380
  1
AcPointCurveConstraint
 90
      381
  1
AcConstrainedImplicitPoint
 90
      382
  1
AcPointCurveConstraint
 90
      383
  1
AcPointCoincidenceConstraint
 90
      384
  1
AcPointCoincidenceConstraint
 90
      385
  1
AcDistanceConstraint
 90
      386
  1
AcConstrainedBoundedLine
 90
      387
  1
AcConstrainedImplicitPoint
 90
      388
  1
AcPointCurveConstraint
 90
      389
  1
AcConstrainedImplicitPoint
 90
      390
  1
AcPointCurveConstraint
 90
      391
  1
AcPointCoincidenceConstraint
 90
      392
  1
AcPointCoincidenceConstraint
 90
      393
  1
AcDistanceConstraint
 90
      394
  1
AcConstrainedBoundedLine
 90
      395
  1
AcConstrainedImplicitPoint
 90
      396
  1
AcPointCurveConstraint
 90
      397
  1
AcConstrainedImplicitPoint
 90
      398
  1
AcPointCurveConstraint
 90
      399
  1
AcPointCoincidenceConstraint
 90
      400
  1
AcPointCoincidenceConstraint
 90
      401
  1
AcDistanceConstraint
 90
      402
  1
AcConstrainedBoundedLine
 90
      403
  1
AcConstrainedImplicitPoint
 90
      404
  1
AcPointCurveConstraint
 90
      405
  1
AcConstrainedImplicitPoint
 90
      406
  1
AcPointCurveConstraint
 90
      407
  1
AcPointCoincidenceConstraint
 90
      408
  1
AcPointCoincidenceConstraint
 90
      409
  1
AcDistanceConstraint
 90
      410
  1
AcConstrainedBoundedLine
 90
      411
  1
AcConstrainedImplicitPoint
 90
      412
  1
AcPointCurveConstraint
 90
      413
  1
AcConstrainedImplicitPoint
 90
      414
  1
AcPointCurveConstraint
 90
      415
  1
AcPointCoincidenceConstraint
 90
      416
  1
AcPointCoincidenceConstraint
 90
      417
  1
AcDistanceConstraint
 90
      418
  1
AcConstrainedBoundedLine
 90
      419
  1
AcConstrainedImplicitPoint
 90
      420
  1
AcPointCurveConstraint
 90
      421
  1
AcConstrainedImplicitPoint
 90
      422
  1
AcPointCurveConstraint
 90
      423
  1
AcPointCoincidenceConstraint
 90
      424
  1
AcDistanceConstraint
 90
      425
  1
AcConstrainedBoundedLine
 90
      426
  1
AcConstrainedImplicitPoint
 90
      427
  1
AcPointCurveConstraint
 90
      428
  1
AcConstrainedImplicitPoint
 90
      429
  1
AcPointCurveConstraint
 90
      430
  1
AcPointCoincidenceConstraint
 90
      431
  1
AcDistanceConstraint
 90
      438
  1
AcConstrainedBoundedLine
 90
      439
  1
AcConstrainedImplicitPoint
 90
      440
  1
AcPointCurveConstraint
 90
      441
  1
AcConstrainedImplicitPoint
 90
      442
  1
AcPointCurveConstraint
 90
      443
  1
AcPointCoincidenceConstraint
 90
      444
  1
AcDistanceConstraint
 90
      451
  1
AcConstrainedBoundedLine
 90
      457
  1
AcConstrainedImplicitPoint
 90
      458
  1
AcPointCurveConstraint
 90
      459
  1
AcConstrainedImplicitPoint
 90
      460
  1
AcPointCurveConstraint
 90
      461
  1
AcPointCoincidenceConstraint
 90
      462
  1
AcDistanceConstraint
 90
      464
  1
AcConstrainedBoundedLine
 90
      465
  1
AcConstrainedImplicitPoint
 90
      466
  1
AcPointCurveConstraint
 90
      467
  1
AcConstrainedImplicitPoint
 90
      468
  1
AcPointCurveConstraint
 90
      469
  1
AcPointCoincidenceConstraint
 90
      470
  1
AcDistanceConstraint
 90
      477
  1
AcConstrainedBoundedLine
 90
      561
  1
AcConstrainedImplicitPoint
 90
      562
  1
AcPointCurveConstraint
 90
      563
  1
AcConstrainedImplicitPoint
 90
      564
  1
AcPointCurveConstraint
 90
      565
  1
AcDistanceConstraint
 90
      572
  1
AcConstrainedBoundedLine
 90
      573
  1
AcConstrainedImplicitPoint
 90
      574
  1
AcPointCurveConstraint
 90
      575
  1
AcConstrainedImplicitPoint
 90
      576
  1
AcPointCurveConstraint
 90
      577
  1
AcPointCoincidenceConstraint
 90
      578
  1
AcDistanceConstraint
 90
      585
  1
AcConstrainedBoundedLine
 90
      586
  1
AcConstrainedImplicitPoint
 90
      587
  1
AcPointCurveConstraint
 90
      588
  1
AcConstrainedImplicitPoint
 90
      589
  1
AcPointCurveConstraint
 90
      590
  1
AcPointCoincidenceConstraint
 90
      591
  1
AcDistanceConstraint
 90
      599
  1
AcConstrainedBoundedLine
 90
      600
  1
AcConstrainedImplicitPoint
 90
      601
  1
AcPointCurveConstraint
 90
      602
  1
AcConstrainedImplicitPoint
 90
      603
  1
AcPointCurveConstraint
 90
      604
  1
AcPointCoincidenceConstraint
 90
      605
  1
AcPointCoincidenceConstraint
 90
      606
  1
AcDistanceConstraint
 90
      607
  1
AcVerticalConstraint
 90
      608
  1
AcVerticalConstraint
 90
      609
  1
AcVerticalConstraint
 90
      610
  1
AcVerticalConstraint
 90
      611
  1
AcVerticalConstraint
 90
      612
  1
AcVerticalConstraint
 90
      613
  1
AcVerticalConstraint
 90
      614
  1
AcVerticalConstraint
 90
      615
  1
AcVerticalConstraint
 90
      616
  1
AcVerticalConstraint
 90
      617
  1
AcVerticalConstraint
 90
      618
  1
AcVerticalConstraint
 90
      623
  1
AcHorizontalConstraint
 90
      624
  1
AcHorizontalConstraint
 90
      626
  1
AcHorizontalConstraint
 90
      627
  1
AcHorizontalConstraint
 90
      628
  1
AcHorizontalConstraint
 90
      630
  1
AcHorizontalConstraint
 90
      632
  1
AcHorizontalConstraint
 90
      634
  1
AcHorizontalConstraint
 90
      635
  1
AcHorizontalConstraint
 90
      636
  1
AcHorizontalConstraint
 90
      637
  1
AcHorizontalConstraint
 90
      639
  1
AcConstrainedBoundedLine
 90
      640
  1
AcConstrainedImplicitPoint
 90
      641
  1
AcPointCurveConstraint
 90
      642
  1
AcConstrainedImplicitPoint
 90
      643
  1
AcPointCurveConstraint
 90
      644
  1
AcHorizontalConstraint
 90
      645
  1
AcConstrainedBoundedLine
 90
      646
  1
AcConstrainedImplicitPoint
 90
      647
  1
AcPointCurveConstraint
 90
      648
  1
AcConstrainedImplicitPoint
 90
      649
  1
AcPointCurveConstraint
 90
      650
  1
AcPointCoincidenceConstraint
 90
      651
  1
AcVerticalConstraint
 90
      652
  1
AcConstrainedBoundedLine
 90
      665
  1
AcConstrainedImplicitPoint
 90
      666
  1
AcPointCurveConstraint
 90
      667
  1
AcConstrainedImplicitPoint
 90
      668
  1
AcPointCurveConstraint
 90
      669
  1
AcPointCoincidenceConstraint
 90
      670
  1
AcPointCoincidenceConstraint
 90
      671
  1
AcHorizontalConstraint
 90
      672
  1
AcDistanceConstraint
 90
      681
  1
AcDistanceConstraint
 90
      683
  1
AcConstrainedBoundedLine
 90
      684
  1
AcConstrainedImplicitPoint
 90
      685
  1
AcPointCurveConstraint
 90
      686
  1
AcConstrainedImplicitPoint
 90
      687
  1
AcPointCurveConstraint
 90
      688
  1
AcDistanceConstraint
 90
      689
  1
AcConstrainedBoundedLine
 90
      696
  1
AcConstrainedImplicitPoint
 90
      697
  1
AcPointCurveConstraint
 90
      698
  1
AcConstrainedImplicitPoint
 90
      699
  1
AcPointCurveConstraint
 90
      700
  1
AcDistanceConstraint
 90
      701
  1
AcHorizontalConstraint
 90
      708
  1
AcVerticalConstraint
 90
      717
  1
AcConstrainedBoundedLine
 90
      718
  1
AcConstrainedImplicitPoint
 90
      719
  1
AcPointCurveConstraint
 90
      720
  1
AcConstrainedImplicitPoint
 90
      721
  1
AcPointCurveConstraint
 90
      722
  1
AcHorizontalConstraint
 90
      723
  1
AcConstrainedBoundedLine
 90
      724
  1
AcConstrainedImplicitPoint
 90
      725
  1
AcPointCurveConstraint
 90
      726
  1
AcConstrainedImplicitPoint
 90
      727
  1
AcPointCurveConstraint
 90
      728
  1
AcHorizontalConstraint
 90
      729
 90
        6
 90
        3
 90
        8
 90
       10
 90
      197
 70
     1
330
343
 90
        0
 10
1258.601232991963
 20
979.7889775948318
 30
0.0
 10
-1.0
 20
0.0
 30
0.0
290
     0
 10
1258.676227468395
 20
979.7889775948318
 30
0.0
 11
1250.176227468396
 21
979.7889775948318
 31
0.0
 90
        7
 90
        3
 90
        8
 90
       12
 90
      117
 70
     1
330
0
 90
        0
280
     0
 90
       -1
 90
        6
 90
        8
 90
        2
 90
        7
 90
        6
 70
     0
 90
        0
290
     1
290
     1
 90
        9
 90
        4
 90
       10
 90
       12
 90
       30
 90
       37
 70
     1
330
0
 90
        0
280
     1
 90
       -1
 90
        6
 90
       10
 90
        2
 90
        9
 90
        6
 70
     0
 90
        0
290
     1
290
     1
 90
       12
 90
        2
 90
        9
 90
        7
 70
     0
 90
        0
290
     0
290
     1
340
33E
340
33F
280
     1
 10
-1.0
 20
0.0
 30
0.0
 90
       18
 90
        3
 90
       20
 90
       22
 90
      199
 70
     1
330
34A
 90
        0
 10
1270.02782631436
 20
979.7889775948318
 30
0.0
 10
-1.0
 20
0.0
 30
0.0
290
     0
 10
1270.076227468395
 20
979.7889775948318
 30
0.0
 11
1261.576227468396
 21
979.7889775948318
 31
0.0
 90
       19
 90
        3
 90
       20
 90
       24
 90
      224
 70
     1
330
0
 90
        0
280
     0
 90
       -1
 90
       18
 90
       20
 90
        2
 90
       19
 90
       18
 70
     0
 90
        0
290
     1
290
     1
 90
       21
 90
        4
 90
       22
 90
       24
 90
      125
 90
      127
 70
     1
330
0
 90
        0
280
     1
 90
       -1
 90
       18
 90
       22
 90
        2
 90
       21
 90
       18
 70
     0
 90
        0
290
     1
290
     1
 90
       24
 90
        2
 90
       21
 90
       19
 70
     0
 90
        0
290
     0
290
     1
340
346
340
347
280
     1
 10
-1.0
 20
0.0
 30
0.0
 90
       25
 90
        3
 90
       27
 90
       29
 90
      217
 70
     1
330
350
 90
        0
 10
1250.176227468396
 20
979.8436273845915
 30
0.0
 10
0.0
 20
-1.0
 30
0.0
290
     0
 10
1250.176227468396
 20
979.7889775948318
 30
0.0
 11
1250.176227468396
 21
971.2889775948319
 31
0.0
 90
       26
 90
        2
 90
       27
 90
       30
 70
     1
330
0
 90
        0
280
     0
 90
       -1
 90
       25
 90
       27
 90
        2
 90
       26
 90
       25
 70
     0
 90
        0
290
     1
290
     1
 90
       28
 90
        4
 90
       29
 90
       37
 90
      133
 90
      135
 70
     1
330
0
 90
        0
280
     1
 90
       -1
 90
       25
 90
       29
 90
        2
 90
       28
 90
       25
 70
     0
 90
        0
290
     1
290
     1
 90
       30
 90
        2
 90
        9
 90
       26
 70
     0
 90
        0
290
     1
290
     1
 90
       37
 90
        2
 90
        9
 90
       28
 70
     0
 90
        0
290
     0
290
     1
340
34D
340
34E
280
     1
 10
0.0
 20
1.0
 30
0.0
 90
       38
 90
        3
 90
       40
 90
       42
 90
      230
 70
     1
330
35F
 90
        0
 10
1250.176227468396
 20
968.4148574036589
 30
0.0
 10
0.0
 20
-1.0
 30
0.0
290
     0
 10
1250.176227468396
 20
968.3889775948319
 30
0.0
 11
1250.176227468396
 21
959.8889775948318
 31
0.0
 90
       39
 90
        3
 90
       40
 90
       49
 90
      141
 70
     1
330
0
 90
        0
280
     0
 90
       -1
 90
       38
 90
       40
 90
        2
 90
       39
 90
       38
 70
     0
 90
        0
290
     1
290
     1
 90
       41
 90
        4
 90
       42
 90
       49
 90
      191
 90
      193
 70
     1
330
0
 90
        0
280
     1
 90
       -1
 90
       38
 90
       42
 90
        2
 90
       41
 90
       38
 70
     0
 90
        0
290
     1
290
     1
 90
       49
 90
        2
 90
       39
 90
       41
 70
     0
 90
        0
290
     0
290
     1
340
35C
340
35D
280
     1
 10
0.0
 20
1.0
 30
0.0
 90
       55
 90
        3
 90
       57
 90
       59
 90
      231
 70
     1
330
367
 90
        0
 10
1270.076227468395
 20
959.8667215989527
 30
0.0
 10
0.0
 20
1.0
 30
0.0
290
     0
 10
1270.076227468395
 20
959.8889775948318
 30
0.0
 11
1270.076227468395
 21
968.3889775948319
 31
0.0
 90
       56
 90
        3
 90
       57
 90
       61
 90
      178
 70
     1
330
0
 90
        0
280
     0
 90
       -1
 90
       55
 90
       57
 90
        2
 90
       56
 90
       55
 70
     0
 90
        0
290
     1
290
     1
 90
       58
 90
        4
 90
       59
 90
       61
 90
      163
 90
      165
 70
     1
330
0
 90
        0
280
     1
 90
       -1
 90
       55
 90
       59
 90
        2
 90
       58
 90
       55
 70
     0
 90
        0
290
     1
290
     1
 90
       61
 90
        2
 90
       58
 90
       56
 70
     0
 90
        0
290
     0
290
     1
340
363
340
364
280
     1
 10
0.0
 20
1.0
 30
0.0
 90
       68
 90
        3
 90
       70
 90
       72
 90
      201
 70
     1
330
36E
 90
        0
 10
1261.579576081936
 20
975.0889775948317
 30
0.0
 10
-1.0
 20
0.0
 30
0.0
290
     0
 10
1261.576227468396
 20
975.0889775948317
 30
0.0
 11
1258.676227468395
 21
975.0889775948317
 31
0.0
 90
       69
 90
        3
 90
       70
 90
       74
 90
      126
 70
     1
330
0
 90
        0
280
     0
 90
       -1
 90
       68
 90
       70
 90
        2
 90
       69
 90
       68
 70
     0
 90
        0
290
     1
290
     1
 90
       71
 90
        4
 90
       72
 90
       74
 90
      118
 90
      119
 70
     1
330
0
 90
        0
280
     1
 90
       -1
 90
       68
 90
       72
 90
        2
 90
       71
 90
       68
 70
     0
 90
        0
290
     1
290
     1
 90
       74
 90
        2
 90
       71
 90
       69
 70
     0
 90
        0
290
     0
290
     1
340
36A
340
36B
280
     1
 10
-1.0
 20
0.0
 30
0.0
 90
       75
 90
        3
 90
       77
 90
       79
 90
      228
 70
     1
330
374
 90
        0
 10
1254.876227468395
 20
971.3223955650457
 30
0.0
 10
0.0
 20
-1.0
 30
0.0
290
     0
 10
1254.876227468395
 20
971.2889775948319
 30
0.0
 11
1254.876227468395
 21
968.3889775948319
 31
0.0
 90
       76
 90
        3
 90
       77
 90
       87
 90
      134
 70
     1
330
0
 90
        0
280
     0
 90
       -1
 90
       75
 90
       77
 90
        2
 90
       76
 90
       75
 70
     0
 90
        0
290
     1
290
     1
 90
       78
 90
        4
 90
       79
 90
       87
 90
      142
 90
      143
 70
     1
330
0
 90
        0
280
     1
 90
       -1
 90
       75
 90
       79
 90
        2
 90
       78
 90
       75
 70
     0
 90
        0
290
     1
290
     1
 90
       87
 90
        2
 90
       76
 90
       78
 70
     0
 90
        0
290
     0
290
     1
340
371
340
372
280
     1
 10
0.0
 20
1.0
 30
0.0
 90
       88
 90
        3
 90
       90
 90
       92
 90
      215
 70
     1
330
37B
 90
        0
 10
1258.676667612819
 20
964.5889775948319
 30
0.0
 10
1.0
 20
0.0
 30
0.0
290
     0
 10
1258.676227468395
 20
964.5889775948319
 30
0.0
 11
1261.576227468396
 21
964.5889775948319
 31
0.0
 90
       89
 90
        3
 90
       90
 90
       99
 90
      171
 70
     1
330
0
 90
        0
280
     0
 90
       -1
 90
       88
 90
       90
 90
        2
 90
       89
 90
       88
 70
     0
 90
        0
290
     1
290
     1
 90
       91
 90
        4
 90
       92
 90
       99
 90
      185
 90
      238
 70
     1
330
0
 90
        0
280
     1
 90
       -1
 90
       88
 90
       92
 90
        2
 90
       91
 90
       88
 70
     0
 90
        0
290
     1
290
     1
 90
       99
 90
        2
 90
       89
 90
       91
 70
     0
 90
        0
290
     0
290
     1
340
378
340
379
280
     1
 10
-1.0
 20
0.0
 30
0.0
 90
      105
 90
        3
 90
      107
 90
      109
 90
      229
 70
     1
330
383
 90
        0
 10
1265.376227468395
 20
968.3921559784197
 30
0.0
 10
0.0
 20
1.0
 30
0.0
290
     0
 10
1265.376227468395
 20
968.3889775948319
 30
0.0
 11
1265.376227468395
 21
971.2889775948319
 31
0.0
 90
      106
 90
        3
 90
      107
 90
      111
 90
      164
 70
     1
330
0
 90
        0
280
     0
 90
       -1
 90
      105
 90
      107
 90
        2
 90
      106
 90
      105
 70
     0
 90
        0
290
     1
290
     1
 90
      108
 90
        4
 90
      109
 90
      111
 90
      149
 90
      157
 70
     1
330
0
 90
        0
280
     1
 90
       -1
 90
      105
 90
      109
 90
        2
 90
      108
 90
      105
 70
     0
 90
        0
290
     1
290
     1
 90
      111
 90
        2
 90
      108
 90
      106
 70
     0
 90
        0
290
     0
290
     1
340
37F
340
380
280
     1
 10
0.0
 20
1.0
 30
0.0
 90
      112
 90
        3
 90
      114
 90
      116
 90
      218
 70
     1
330
389
 90
        0
 10
1258.676227468395
 20
974.7936208633378
 30
0.0
 10
0.0
 20
1.0
 30
0.0
290
     0
 10
1258.676227468395
 20
975.0889775948317
 30
0.0
 11
1258.676227468395
 21
979.7889775948318
 31
0.0
 90
      113
 90
        2
 90
      114
 90
      118
 70
     1
330
0
 90
        0
280
     0
 90
       -1
 90
      112
 90
      114
 90
        2
 90
      113
 90
      112
 70
     0
 90
        0
290
     1
290
     1
 90
      115
 90
        3
 90
      116
 90
      117
 90
      119
 70
     1
330
0
 90
        0
280
     1
 90
       -1
 90
      112
 90
      116
 90
        2
 90
      115
 90
      112
 70
     0
 90
        0
290
     1
290
     1
 90
      117
 90
        2
 90
        7
 90
      115
 70
     0
 90
        0
290
     1
290
     1
 90
      118
 90
        2
 90
       71
 90
      113
 70
     0
 90
        0
290
     1
290
     1
 90
      119
 90
        2
 90
      115
 90
       71
 70
     0
 90
        0
290
     0
290
     1
340
386
340
387
280
     1
 10
0.0
 20
1.0
 30
0.0
 90
      120
 90
        3
 90
      122
 90
      124
 90
      227
 70
     1
330
38F
 90
        0
 10
1261.576227468396
 20
979.7805230436102
 30
0.0
 10
0.0
 20
-1.0
 30
0.0
290
     0
 10
1261.576227468396
 20
979.7889775948318
 30
0.0
 11
1261.576227468396
 21
975.0889775948317
 31
0.0
 90
      121
 90
        2
 90
      122
 90
      125
 70
     1
330
0
 90
        0
280
     0
 90
       -1
 90
      120
 90
      122
 90
        2
 90
      121
 90
      120
 70
     0
 90
        0
290
     1
290
     1
 90
      123
 90
        3
 90
      124
 90
      126
 90
      127
 70
     1
330
0
 90
        0
280
     1
 90
       -1
 90
      120
 90
      124
 90
        2
 90
      123
 90
      120
 70
     0
 90
        0
290
     1
290
     1
 90
      125
 90
        2
 90
       21
 90
      121
 70
     0
 90
        0
290
     1
290
     1
 90
      126
 90
        2
 90
       69
 90
      123
 70
     0
 90
        0
290
     1
290
     1
 90
      127
 90
        2
 90
       21
 90
      123
 70
     0
 90
        0
290
     0
290
     1
340
38C
340
38D
280
     1
 10
0.0
 20
1.0
 30
0.0
 90
      128
 90
        3
 90
      130
 90
      132
 90
      205
 70
     1
330
395
 90
        0
 10
1250.10123299196
 20
971.2889775948319
 30
0.0
 10
1.0
 20
0.0
 30
0.0
290
     0
 10
1250.176227468396
 20
971.2889775948319
 30
0.0
 11
1254.876227468395
 21
971.2889775948319
 31
0.0
 90
      129
 90
        2
 90
      130
 90
      133
 70
     1
330
0
 90
        0
280
     0
 90
       -1
 90
      128
 90
      130
 90
        2
 90
      129
 90
      128
 70
     0
 90
        0
290
     1
290
     1
 90
      131
 90
        3
 90
      132
 90
      134
 90
      135
 70
     1
330
0
 90
        0
280
     1
 90
       -1
 90
      128
 90
      132
 90
        2
 90
      131
 90
      128
 70
     0
 90
        0
290
     1
290
     1
 90
      133
 90
        2
 90
       28
 90
      129
 70
     0
 90
        0
290
     1
290
     1
 90
      134
 90
        2
 90
       76
 90
      131
 70
     0
 90
        0
290
     1
290
     1
 90
      135
 90
        2
 90
       28
 90
      131
 70
     0
 90
        0
290
     0
290
     1
340
392
340
393
280
     1
 10
-1.0
 20
0.0
 30
0.0
 90
      136
 90
        3
 90
      138
 90
      140
 90
      203
 70
     1
330
39B
 90
        0
 10
1255.163126897298
 20
968.3889775948319
 30
0.0
 10
-1.0
 20
0.0
 30
0.0
290
     0
 10
1254.876227468395
 20
968.3889775948319
 30
0.0
 11
1250.176227468396
 21
968.3889775948319
 31
0.0
 90
      137
 90
        2
 90
      138
 90
      142
 70
     1
330
0
 90
        0
280
     0
 90
       -1
 90
      136
 90
      138
 90
        2
 90
      137
 90
      136
 70
     0
 90
        0
290
     1
290
     1
 90
      139
 90
        3
 90
      140
 90
      141
 90
      143
 70
     1
330
0
 90
        0
280
     1
 90
       -1
 90
      136
 90
      140
 90
        2
 90
      139
 90
      136
 70
     0
 90
        0
290
     1
290
     1
 90
      141
 90
        2
 90
       39
 90
      139
 70
     0
 90
        0
290
     1
290
     1
 90
      142
 90
        2
 90
       78
 90
      137
 70
     0
 90
        0
290
     1
290
     1
 90
      143
 90
        2
 90
      139
 90
       78
 70
     0
 90
        0
290
     0
290
     1
340
398
340
399
280
     1
 10
-1.0
 20
0.0
 30
0.0
 90
      144
 90
        3
 90
      146
 90
      148
 90
      213
 70
     1
330
3A1
 90
        0
 10
1265.20551380075
 20
971.2889775948319
 30
0.0
 10
1.0
 20
0.0
 30
0.0
290
     0
 10
1265.376227468395
 20
971.2889775948319
 30
0.0
 11
1270.076227468395
 21
971.2889775948319
 31
0.0
 90
      145
 90
        2
 90
      146
 90
      149
 70
     1
330
0
 90
        0
280
     0
 90
       -1
 90
      144
 90
      146
 90
        2
 90
      145
 90
      144
 70
     0
 90
        0
290
     1
290
     1
 90
      147
 90
        3
 90
      148
 90
      157
 90
      225
 70
     1
330
0
 90
        0
280
     1
 90
       -1
 90
      144
 90
      148
 90
        2
 90
      147
 90
      144
 70
     0
 90
        0
290
     1
290
     1
 90
      149
 90
        2
 90
      108
 90
      145
 70
     0
 90
        0
290
     1
290
     1
 90
      157
 90
        2
 90
      108
 90
      147
 70
     0
 90
        0
290
     0
290
     1
340
39E
340
39F
280
     1
 10
-1.0
 20
0.0
 30
0.0
 90
      158
 90
        3
 90
      160
 90
      162
 90
      211
 70
     1
330
3A8
 90
        0
 10
1270.179730666486
 20
968.3889775948319
 30
0.0
 10
-1.0
 20
0.0
 30
0.0
290
     0
 10
1270.076227468395
 20
968.3889775948319
 30
0.0
 11
1265.376227468395
 21
968.3889775948319
 31
0.0
 90
      159
 90
        2
 90
      160
 90
      163
 70
     1
330
0
 90
        0
280
     0
 90
       -1
 90
      158
 90
      160
 90
        2
 90
      159
 90
      158
 70
     0
 90
        0
290
     1
290
     1
 90
      161
 90
        3
 90
      162
 90
      164
 90
      165
 70
     1
330
0
 90
        0
280
     1
 90
       -1
 90
      158
 90
      162
 90
        2
 90
      161
 90
      158
 70
     0
 90
        0
290
     1
290
     1
 90
      163
 90
        2
 90
       58
 90
      159
 70
     0
 90
        0
290
     1
290
     1
 90
      164
 90
        2
 90
      106
 90
      161
 70
     0
 90
        0
290
     1
290
     1
 90
      165
 90
        2
 90
      161
 90
       58
 70
     0
 90
        0
290
     0
290
     1
340
3A5
340
3A6
280
     1
 10
-1.0
 20
0.0
 30
0.0
 90
      166
 90
        3
 90
      168
 90
      170
 90
      232
 70
     1
330
3AE
 90
        0
 10
1258.676227468395
 20
959.8887730161242
 30
0.0
 10
0.0
 20
1.0
 30
0.0
290
     0
 10
1258.676227468395
 20
959.8889775948318
 30
0.0
 11
1258.676227468395
 21
964.5889775948319
 31
0.0
 90
      167
 90
        3
 90
      168
 90
      172
 90
      192
 70
     1
330
0
 90
        0
280
     0
 90
       -1
 90
      166
 90
      168
 90
        2
 90
      167
 90
      166
 70
     0
 90
        0
290
     1
290
     1
 90
      169
 90
        3
 90
      170
 90
      171
 90
      172
 70
     1
330
0
 90
        0
280
     1
 90
       -1
 90
      166
 90
      170
 90
        2
 90
      169
 90
      166
 70
     0
 90
        0
290
     1
290
     1
 90
      171
 90
        2
 90
       89
 90
      169
 70
     0
 90
        0
290
     1
290
     1
 90
      172
 90
        2
 90
      167
 90
      169
 70
     0
 90
        0
290
     0
290
     1
340
3AB
340
3AC
280
     1
 10
0.0
 20
-1.0
 30
0.0
 90
      173
 90
        3
 90
      175
 90
      177
 90
      209
 70
     1
330
3B4
 90
        0
 10
1261.574706029815
 20
959.8889775948318
 30
0.0
 10
1.0
 20
0.0
 30
0.0
290
     0
 10
1261.576227468396
 20
959.8889775948318
 30
0.0
 11
1270.076227468395
 21
959.8889775948318
 31
0.0
 90
      174
 90
        3
 90
      175
 90
      185
 90
      194
 70
     1
330
0
 90
        0
280
     0
 90
       -1
 90
      173
 90
      175
 90
        2
 90
      174
 90
      173
 70
     0
 90
        0
290
     1
290
     1
 90
      176
 90
        3
 90
      177
 90
      178
 90
      194
 70
     1
330
0
 90
        0
280
     1
 90
       -1
 90
      173
 90
      177
 90
        2
 90
      176
 90
      173
 70
     0
 90
        0
290
     1
290
     1
 90
      178
 90
        2
 90
       56
 90
      176
 70
     0
 90
        0
290
     1
290
     1
 90
      185
 90
        2
 90
      174
 90
       91
 70
     0
 90
        0
290
     0
290
     1
340
3B1
340
3B2
280
     1
 10
0.0
 20
-1.0
 30
0.0
 90
      186
 90
        3
 90
      188
 90
      190
 90
      207
 70
     1
330
3BB
 90
        0
 10
1250.158781954954
 20
959.8889775948318
 30
0.0
 10
1.0
 20
0.0
 30
0.0
290
     0
 10
1250.176227468396
 20
959.8889775948318
 30
0.0
 11
1258.676227468395
 21
959.8889775948318
 31
0.0
 90
      187
 90
        2
 90
      188
 90
      191
 70
     1
330
0
 90
        0
280
     0
 90
       -1
 90
      186
 90
      188
 90
        2
 90
      187
 90
      186
 70
     0
 90
        0
290
     1
290
     1
 90
      189
 90
        3
 90
      190
 90
      192
 90
      193
 70
     1
330
0
 90
        0
280
     1
 90
       -1
 90
      186
 90
      190
 90
        2
 90
      189
 90
      186
 70
     0
 90
        0
290
     1
290
     1
 90
      191
 90
        2
 90
       41
 90
      187
 70
     0
 90
        0
290
     1
290
     1
 90
      192
 90
        2
 90
      167
 90
      189
 70
     0
 90
        0
290
     1
290
     1
 90
      193
 90
        2
 90
       41
 90
      189
 70
     0
 90
        0
290
     0
290
     1
340
3B8
340
3B9
280
     1
 10
-1.0
 20
0.0
 30
0.0
 90
      194
 90
        2
 90
      174
 90
      176
 70
     0
 90
        0
290
     0
290
     1
340
3BE
340
3BF
280
     1
 10
-1.0
 20
0.0
 30
0.0
 90
      195
 90
        0
 70
     0
330
0
 90
        0
 10
0.0
 20
0.0
 30
0.0
 10
1.0
 20
0.0
 30
0.0
 90
      197
 90
        1
 90
        6
 70
     0
 90
        0
290
     0
290
     1
 90
      195
 90
      199
 90
        1
 90
       18
 70
     0
 90
        0
290
     0
290
     1
 90
      195
 90
      201
 90
        1
 90
       68
 70
     0
 90
        0
290
     0
290
     1
 90
      195
 90
      203
 90
        1
 90
      136
 70
     0
 90
        0
290
     0
290
     1
 90
      195
 90
      205
 90
        1
 90
      128
 70
     0
 90
        0
290
     0
290
     1
 90
      195
 90
      207
 90
        1
 90
      186
 70
     0
 90
        0
290
     0
290
     1
 90
      195
 90
      209
 90
        1
 90
      173
 70
     0
 90
        0
290
     0
290
     1
 90
      195
 90
      211
 90
        1
 90
      158
 70
     0
 90
        0
290
     0
290
     1
 90
      195
 90
      213
 90
        1
 90
      144
 70
     0
 90
        0
290
     0
290
     1
 90
      195
 90
      215
 90
        1
 90
       88
 70
     0
 90
        0
290
     0
290
     1
 90
      195
 90
      216
 90
        0
 70
     0
330
0
 90
        0
 10
0.0
 20
0.0
 30
0.0
 10
0.0
 20
1.0
 30
0.0
 90
      217
 90
        1
 90
       25
 70
     0
 90
        0
290
     0
290
     1
 90
      216
 90
      218
 90
        1
 90
      112
 70
     0
 90
        0
290
     0
290
     1
 90
      216
 90
      219
 90
        3
 90
      221
 90
      223
 90
      226
 70
     1
330
3D4
 90
        0
 10
1270.076227468395
 20
971.299207254635
 30
0.0
 10
0.0
 20
1.0
 30
0.0
290
     0
 10
1270.076227468395
 20
971.2889775948319
 30
0.0
 11
1270.076227468395
 21
979.7889775948318
 31
0.0
 90
      220
 90
        2
 90
      221
 90
      225
 70
     1
330
0
 90
        0
280
     0
 90
       -1
 90
      219
 90
      221
 90
        2
 90
      220
 90
      219
 70
     0
 90
        0
290
     1
290
     1
 90
      222
 90
        2
 90
      223
 90
      224
 70
     1
330
0
 90
        0
280
     1
 90
       -1
 90
      219
 90
      223
 90
        2
 90
      222
 90
      219
 70
     0
 90
        0
290
     1
290
     1
 90
      224
 90
        2
 90
       19
 90
      222
 70
     0
 90
        0
290
     1
290
     1
 90
      225
 90
        2
 90
      147
 90
      220
 70
     0
 90
        0
290
     1
290
     1
 90
      226
 90
        1
 90
      219
 70
     0
 90
        0
290
     0
290
     1
 90
      216
 90
      227
 90
        1
 90
      120
 70
     0
 90
        0
290
     0
290
     1
 90
      216
 90
      228
 90
        1
 90
       75
 70
     0
 90
        0
290
     0
290
     1
 90
      216
 90
      229
 90
        1
 90
      105
 70
     0
 90
        0
290
     0
290
     1
 90
      216
 90
      230
 90
        1
 90
       38
 70
     0
 90
        0
290
     0
290
     1
 90
      216
 90
      231
 90
        1
 90
       55
 70
     0
 90
        0
290
     0
290
     1
 90
      216
 90
      232
 90
        1
 90
      166
 70
     0
 90
        0
290
     0
290
     1
 90
      216
 90
      233
 90
        3
 90
      235
 90
      237
 90
      239
 70
     1
330
3D5
 90
        0
 10
1261.576227468396
 20
964.8889775948319
 30
0.0
 10
0.0
 20
-1.0
 30
0.0
290
     0
 10
1261.576227468396
 20
964.5889775948319
 30
0.0
 11
1261.576227468396
 21
959.9039806183524
 31
0.0
 90
      234
 90
        2
 90
      235
 90
      238
 70
     1
330
0
 90
        0
280
     0
 90
       -1
 90
      233
 90
      235
 90
        2
 90
      234
 90
      233
 70
     0
 90
        0
290
     1
290
     1
 90
      236
 90
        1
 90
      237
 70
     1
330
0
 90
        0
280
     1
 90
       -1
 90
      233
 90
      237
 90
        2
 90
      236
 90
      233
 70
     0
 90
        0
290
     1
290
     1
 90
      238
 90
        2
 90
       91
 90
      234
 70
     0
 90
        0
290
     1
290
     1
 90
      239
 90
        1
 90
      233
 70
     0
 90
        0
290
     0
290
     1
 90
      216
 90
      240
 90
        3
 90
      242
 90
      244
 90
      267
 70
     1
330
3E3
 90
        0
 10
1280.182172581861
 20
980.1549702813407
 30
0.0
 10
1.0
 20
0.0
 30
0.0
290
     0
 10
1280.182172581833
 20
980.1549702813408
 30
0.0
 11
1320.182172581833
 21
980.154970281341
 31
0.0
 90
      241
 90
        3
 90
      242
 90
      245
 90
      251
 70
     1
330
0
 90
        0
280
     0
 90
       -1
 90
      240
 90
      242
 90
        2
 90
      241
 90
      240
 70
     0
 90
        0
290
     1
290
     1
 90
      243
 90
        2
 90
      244
 90
      245
 70
     1
330
0
 90
        0
280
     1
 90
       -1
 90
      240
 90
      244
 90
        2
 90
      243
 90
      240
 70
     0
 90
        0
290
     1
290
     1
 90
      245
 90
        2
 90
      241
 90
      243
 70
     0
 90
        0
290
     0
290
     1
340
3E0
340
3E1
280
     1
 10
-1.0
 20
0.0
 30
0.0
 90
      246
 90
        3
 90
      248
 90
      250
 90
      269
 70
     1
330
3E9
 90
        0
 10
1280.182172581833
 20
960.1549702813409
 30
0.0
 10
0.0
 20
1.0
 30
0.0
290
     0
 10
1280.182172581833
 20
960.1549702813409
 30
0.0
 11
1280.182172581833
 21
980.1549702813408
 31
0.0
 90
      247
 90
        3
 90
      248
 90
      252
 90
      258
 70
     1
330
0
 90
        0
280
     0
 90
       -1
 90
      246
 90
      248
 90
        2
 90
      247
 90
      246
 70
     0
 90
        0
290
     1
290
     1
 90
      249
 90
        3
 90
      250
 90
      251
 90
      252
 70
     1
330
0
 90
        0
280
     1
 90
       -1
 90
      246
 90
      250
 90
        2
 90
      249
 90
      246
 70
     0
 90
        0
290
     1
290
     1
 90
      251
 90
        2
 90
      241
 90
      249
 70
     0
 90
        0
290
     1
290
     1
 90
      252
 90
        2
 90
      249
 90
      247
 70
     0
 90
        0
290
     0
290
     1
340
3E6
340
3E7
280
     1
 10
0.0
 20
1.0
 30
0.0
 90
      253
 90
        3
 90
      255
 90
      257
 90
      268
 70
     1
330
3EF
 90
        0
 10
1320.182172581833
 20
960.1549702813409
 30
0.0
 10
-1.0
 20
0.0
 30
0.0
290
     0
 10
1320.182172581833
 20
960.1549702813409
 30
0.0
 11
1280.182172581833
 21
960.1549702813409
 31
0.0
 90
      254
 90
        3
 90
      255
 90
      259
 90
      265
 70
     1
330
0
 90
        0
280
     0
 90
       -1
 90
      253
 90
      255
 90
        2
 90
      254
 90
      253
 70
     0
 90
        0
290
     1
290
     1
 90
      256
 90
        3
 90
      257
 90
      258
 90
      259
 70
     1
330
0
 90
        0
280
     1
 90
       -1
 90
      253
 90
      257
 90
        2
 90
      256
 90
      253
 70
     0
 90
        0
290
     1
290
     1
 90
      258
 90
        2
 90
      247
 90
      256
 70
     0
 90
        0
290
     1
290
     1
 90
      259
 90
        2
 90
      256
 90
      254
 70
     0
 90
        0
290
     0
290
     1
340
3EC
340
3ED
280
     1
 10
-1.0
 20
0.0
 30
0.0
 90
      260
 90
        3
 90
      262
 90
      264
 90
      270
 70
     1
330
3F5
 90
        0
 10
1320.182172581833
 20
980.1549702813408
 30
0.0
 10
0.0
 20
-1.0
 30
0.0
290
     0
 10
1320.182172581833
 20
980.1549702813408
 30
0.0
 11
1320.182172581833
 21
960.1549702813409
 31
0.0
 90
      261
 90
        2
 90
      262
 90
      266
 70
     1
330
0
 90
        0
280
     0
 90
       -1
 90
      260
 90
      262
 90
        2
 90
      261
 90
      260
 70
     0
 90
        0
290
     1
290
     1
 90
      263
 90
        3
 90
      264
 90
      265
 90
      266
 70
     1
330
0
 90
        0
280
     1
 90
       -1
 90
      260
 90
      264
 90
        2
 90
      263
 90
      260
 70
     0
 90
        0
290
     1
290
     1
 90
      265
 90
        2
 90
      254
 90
      263
 70
     0
 90
        0
290
     1
290
     1
 90
      266
 90
        2
 90
      263
 90
      261
 70
     0
 90
        0
290
     0
290
     1
340
3F2
340
3F3
280
     1
 10
0.0
 20
-1.0
 30
0.0
 90
      267
 90
        1
 90
      240
 70
     0
 90
        0
290
     0
290
     1
 90
      195
 90
      268
 90
        1
 90
      253
 70
     0
 90
        0
290
     0
290
     1
 90
      195
 90
      269
 90
        1
 90
      246
 70
     0
 90
        0
290
     0
290
     1
 90
      216
 90
      270
 90
        1
 90
      260
 70
     0
 90
        0
290
     0
290
     1
 90
      216
 90
      276
 90
        3
 90
      278
 90
      280
 90
      624
 70
     1
330
410
 90
        0
 10
1340.428120702868
 20
979.6718953069229
 30
0.0
 10
-1.0
 20
0.0
 30
0.0
290
     0
 10
1340.428526882419
 20
979.671895306923
 30
0.0
 11
1330.103526882419
 21
979.671895306923
 31
0.0
 90
      277
 90
        3
 90
      278
 90
      282
 90
      376
 70
     1
330
0
 90
        0
280
     0
 90
       -1
 90
      276
 90
      278
 90
        2
 90
      277
 90
      276
 70
     0
 90
        0
290
     1
290
     1
 90
      279
 90
        4
 90
      280
 90
      282
 90
      368
 90
      370
 70
     1
330
0
 90
        0
280
     1
 90
       -1
 90
      276
 90
      280
 90
        2
 90
      279
 90
      276
 70
     0
 90
        0
290
     1
290
     1
 90
      282
 90
        2
 90
      279
 90
      277
 70
     0
 90
        0
290
     0
290
     1
340
40C
340
40D
280
     1
 10
-1.0
 20
0.0
 30
0.0
 90
      288
 90
        3
 90
      290
 90
      292
 90
      630
 70
     1
330
417
 90
        0
 10
1353.653085125922
 20
979.6718953069229
 30
0.0
 10
-1.0
 20
0.0
 30
0.0
290
     0
 10
1353.65352688242
 20
979.671895306923
 30
0.0
 11
1343.32852688242
 21
979.671895306923
 31
0.0
 90
      289
 90
        3
 90
      290
 90
      294
 90
      392
 70
     1
330
0
 90
        0
280
     0
 90
       -1
 90
      288
 90
      290
 90
        2
 90
      289
 90
      288
 70
     0
 90
        0
290
     1
290
     1
 90
      291
 90
        4
 90
      292
 90
      294
 90
      384
 90
      386
 70
     1
330
0
 90
        0
280
     1
 90
       -1
 90
      288
 90
      292
 90
        2
 90
      291
 90
      288
 70
     0
 90
        0
290
     1
290
     1
 90
      294
 90
        2
 90
      291
 90
      289
 70
     0
 90
        0
290
     0
290
     1
340
413
340
414
280
     1
 10
-1.0
 20
0.0
 30
0.0
 90
      300
 90
        3
 90
      302
 90
      304
 90
      632
 70
     1
330
41E
 90
        0
 10
1366.879893568721
 20
979.6718953069229
 30
0.0
 10
-1.0
 20
0.0
 30
0.0
290
     0
 10
1366.87852688242
 20
979.671895306923
 30
0.0
 11
1356.55352688242
 21
979.671895306923
 31
0.0
 90
      301
 90
        3
 90
      302
 90
      306
 90
      408
 70
     1
330
0
 90
        0
280
     0
 90
       -1
 90
      300
 90
      302
 90
        2
 90
      301
 90
      300
 70
     0
 90
        0
290
     1
290
     1
 90
      303
 90
        4
 90
      304
 90
      306
 90
      400
 90
      402
 70
     1
330
0
 90
        0
280
     1
 90
       -1
 90
      300
 90
      304
 90
        2
 90
      303
 90
      300
 70
     0
 90
        0
290
     1
290
     1
 90
      306
 90
        2
 90
      303
 90
      301
 70
     0
 90
        0
290
     0
290
     1
340
41A
340
41B
280
     1
 10
-1.0
 20
0.0
 30
0.0
 90
      312
 90
        3
 90
      314
 90
      316
 90
      635
 70
     1
330
425
 90
        0
 10
1380.10552177719
 20
979.6718953069229
 30
0.0
 10
-1.0
 20
0.0
 30
0.0
290
     0
 10
1380.10352688242
 20
979.671895306923
 30
0.0
 11
1369.77852688242
 21
979.671895306923
 31
0.0
 90
      313
 90
        3
 90
      314
 90
      318
 90
      424
 70
     1
330
0
 90
        0
280
     0
 90
       -1
 90
      312
 90
      314
 90
        2
 90
      313
 90
      312
 70
     0
 90
        0
290
     1
290
     1
 90
      315
 90
        4
 90
      316
 90
      318
 90
      416
 90
      418
 70
     1
330
0
 90
        0
280
     1
 90
       -1
 90
      312
 90
      316
 90
        2
 90
      315
 90
      312
 70
     0
 90
        0
290
     1
290
     1
 90
      318
 90
        2
 90
      315
 90
      313
 70
     0
 90
        0
290
     0
290
     1
340
421
340
422
280
     1
 10
-1.0
 20
0.0
 30
0.0
 90
      325
 90
        3
 90
      327
 90
      329
 90
      626
 70
     1
330
42C
 90
        0
 10
1343.328152953658
 20
974.971895306923
 30
0.0
 10
-1.0
 20
0.0
 30
0.0
290
     0
 10
1343.32852688242
 20
974.971895306923
 30
0.0
 11
1340.428526882419
 21
974.971895306923
 31
0.0
 90
      326
 90
        3
 90
      327
 90
      331
 90
      385
 70
     1
330
0
 90
        0
280
     0
 90
       -1
 90
      325
 90
      327
 90
        2
 90
      326
 90
      325
 70
     0
 90
        0
290
     1
290
     1
 90
      328
 90
        4
 90
      329
 90
      331
 90
      377
 90
      378
 70
     1
330
0
 90
        0
280
     1
 90
       -1
 90
      325
 90
      329
 90
        2
 90
      328
 90
      325
 70
     0
 90
        0
290
     1
290
     1
 90
      331
 90
        2
 90
      328
 90
      326
 70
     0
 90
        0
290
     0
290
     1
340
428
340
429
280
     1
 10
-1.0
 20
0.0
 30
0.0
 90
      338
 90
        3
 90
      340
 90
      342
 90
      639
 70
     1
330
433
 90
        0
 10
1356.553467776707
 20
974.971895306923
 30
0.0
 10
-1.0
 20
0.0
 30
0.0
290
     0
 10
1356.55352688242
 20
974.971895306923
 30
0.0
 11
1353.65352688242
 21
974.971895306923
 31
0.0
 90
      339
 90
        3
 90
      340
 90
      344
 90
      401
 70
     1
330
0
 90
        0
280
     0
 90
       -1
 90
      338
 90
      340
 90
        2
 90
      339
 90
      338
 70
     0
 90
        0
290
     1
290
     1
 90
      341
 90
        4
 90
      342
 90
      344
 90
      393
 90
      394
 70
     1
330
0
 90
        0
280
     1
 90
       -1
 90
      338
 90
      342
 90
        2
 90
      341
 90
      338
 70
     0
 90
        0
290
     1
290
     1
 90
      344
 90
        2
 90
      341
 90
      339
 70
     0
 90
        0
290
     0
290
     1
340
42F
340
430
280
     1
 10
-1.0
 20
0.0
 30
0.0
 90
      351
 90
        3
 90
      353
 90
      355
 90
      634
 70
     1
330
43A
 90
        0
 10
1369.778316508055
 20
974.971895306923
 30
0.0
 10
-1.0
 20
0.0
 30
0.0
290
     0
 10
1369.77852688242
 20
974.971895306923
 30
0.0
 11
1366.87852688242
 21
974.971895306923
 31
0.0
 90
      352
 90
        3
 90
      353
 90
      357
 90
      417
 70
     1
330
0
 90
        0
280
     0
 90
       -1
 90
      351
 90
      353
 90
        2
 90
      352
 90
      351
 70
     0
 90
        0
290
     1
290
     1
 90
      354
 90
        4
 90
      355
 90
      357
 90
      409
 90
      410
 70
     1
330
0
 90
        0
280
     1
 90
       -1
 90
      351
 90
      355
 90
        2
 90
      354
 90
      351
 70
     0
 90
        0
290
     1
290
     1
 90
      357
 90
        2
 90
      354
 90
      352
 70
     0
 90
        0
290
     0
290
     1
340
436
340
437
280
     1
 10
-1.0
 20
0.0
 30
0.0
 90
      363
 90
        3
 90
      365
 90
      367
 90
      608
 70
     1
330
441
 90
        0
 10
1330.103526882419
 20
979.8014505532551
 30
0.0
 10
0.0
 20
-1.0
 30
0.0
290
     0
 10
1330.103526882419
 20
979.671895306923
 30
0.0
 11
1330.103526882419
 21
971.171895306923
 31
0.0
 90
      364
 90
        2
 90
      365
 90
      368
 70
     1
330
0
 90
        0
280
     0
 90
       -1
 90
      363
 90
      365
 90
        2
 90
      364
 90
      363
 70
     0
 90
        0
290
     1
290
     1
 90
      366
 90
        4
 90
      367
 90
      370
 90
      431
 90
      438
 70
     1
330
0
 90
        0
280
     1
 90
       -1
 90
      363
 90
      367
 90
        2
 90
      366
 90
      363
 70
     0
 90
        0
290
     1
290
     1
 90
      368
 90
        2
 90
      279
 90
      364
 70
     0
 90
        0
290
     1
290
     1
 90
      370
 90
        2
 90
      366
 90
      279
 70
     0
 90
        0
290
     0
290
     1
340
43D
340
43E
280
     1
 10
0.0
 20
-1.0
 30
0.0
 90
      371
 90
        3
 90
      373
 90
      375
 90
      609
 70
     1
330
447
 90
        0
 10
1340.428526882419
 20
974.806070359841
 30
0.0
 10
0.0
 20
1.0
 30
0.0
290
     0
 10
1340.428526882419
 20
974.971895306923
 30
0.0
 11
1340.428526882419
 21
979.671895306923
 31
0.0
 90
      372
 90
        2
 90
      373
 90
      377
 70
     1
330
0
 90
        0
280
     0
 90
       -1
 90
      371
 90
      373
 90
        2
 90
      372
 90
      371
 70
     0
 90
        0
290
     1
290
     1
 90
      374
 90
        3
 90
      375
 90
      376
 90
      378
 70
     1
330
0
 90
        0
280
     1
 90
       -1
 90
      371
 90
      375
 90
        2
 90
      374
 90
      371
 70
     0
 90
        0
290
     1
290
     1
 90
      376
 90
        2
 90
      277
 90
      374
 70
     0
 90
        0
290
     1
290
     1
 90
      377
 90
        2
 90
      328
 90
      372
 70
     0
 90
        0
290
     1
290
     1
 90
      378
 90
        2
 90
      328
 90
      374
 70
     0
 90
        0
290
     0
290
     1
340
444
340
445
280
     1
 10
0.0
 20
-1.0
 30
0.0
 90
      379
 90
        3
 90
      381
 90
      383
 90
      610
 70
     1
330
44D
 90
        0
 10
1343.32852688242
 20
979.7821372241322
 30
0.0
 10
0.0
 20
-1.0
 30
0.0
290
     0
 10
1343.32852688242
 20
979.671895306923
 30
0.0
 11
1343.32852688242
 21
974.971895306923
 31
0.0
 90
      380
 90
        2
 90
      381
 90
      384
 70
     1
330
0
 90
        0
280
     0
 90
       -1
 90
      379
 90
      381
 90
        2
 90
      380
 90
      379
 70
     0
 90
        0
290
     1
290
     1
 90
      382
 90
        3
 90
      383
 90
      385
 90
      386
 70
     1
330
0
 90
        0
280
     1
 90
       -1
 90
      379
 90
      383
 90
        2
 90
      382
 90
      379
 70
     0
 90
        0
290
     1
290
     1
 90
      384
 90
        2
 90
      291
 90
      380
 70
     0
 90
        0
290
     1
290
     1
 90
      385
 90
        2
 90
      326
 90
      382
 70
     0
 90
        0
290
     1
290
     1
 90
      386
 90
        2
 90
      382
 90
      291
 70
     0
 90
        0
290
     0
290
     1
340
44A
340
44B
280
     1
 10
0.0
 20
-1.0
 30
0.0
 90
      387
 90
        3
 90
      389
 90
      391
 90
      611
 70
     1
330
453
 90
        0
 10
1353.65352688242
 20
974.7655390338332
 30
0.0
 10
0.0
 20
1.0
 30
0.0
290
     0
 10
1353.65352688242
 20
974.971895306923
 30
0.0
 11
1353.65352688242
 21
979.671895306923
 31
0.0
 90
      388
 90
        2
 90
      389
 90
      393
 70
     1
330
0
 90
        0
280
     0
 90
       -1
 90
      387
 90
      389
 90
        2
 90
      388
 90
      387
 70
     0
 90
        0
290
     1
290
     1
 90
      390
 90
        3
 90
      391
 90
      392
 90
      394
 70
     1
330
0
 90
        0
280
     1
 90
       -1
 90
      387
 90
      391
 90
        2
 90
      390
 90
      387
 70
     0
 90
        0
290
     1
290
     1
 90
      392
 90
        2
 90
      289
 90
      390
 70
     0
 90
        0
290
     1
290
     1
 90
      393
 90
        2
 90
      341
 90
      388
 70
     0
 90
        0
290
     1
290
     1
 90
      394
 90
        2
 90
      341
 90
      390
 70
     0
 90
        0
290
     0
290
     1
340
450
340
451
280
     1
 10
0.0
 20
-1.0
 30
0.0
 90
      395
 90
        3
 90
      397
 90
      399
 90
      612
 70
     1
330
459
 90
        0
 10
1356.55352688242
 20
979.7638928230142
 30
0.0
 10
0.0
 20
-1.0
 30
0.0
290
     0
 10
1356.55352688242
 20
979.671895306923
 30
0.0
 11
1356.55352688242
 21
974.971895306923
 31
0.0
 90
      396
 90
        2
 90
      397
 90
      400
 70
     1
330
0
 90
        0
280
     0
 90
       -1
 90
      395
 90
      397
 90
        2
 90
      396
 90
      395
 70
     0
 90
        0
290
     1
290
     1
 90
      398
 90
        3
 90
      399
 90
      401
 90
      402
 70
     1
330
0
 90
        0
280
     1
 90
       -1
 90
      395
 90
      399
 90
        2
 90
      398
 90
      395
 70
     0
 90
        0
290
     1
290
     1
 90
      400
 90
        2
 90
      303
 90
      396
 70
     0
 90
        0
290
     1
290
     1
 90
      401
 90
        2
 90
      339
 90
      398
 70
     0
 90
        0
290
     1
290
     1
 90
      402
 90
        2
 90
      398
 90
      303
 70
     0
 90
        0
290
     0
290
     1
340
456
340
457
280
     1
 10
0.0
 20
-1.0
 30
0.0
 90
      403
 90
        3
 90
      405
 90
      407
 90
      613
 70
     1
330
45F
 90
        0
 10
1366.87852688242
 20
974.769763612697
 30
0.0
 10
0.0
 20
1.0
 30
0.0
290
     0
 10
1366.87852688242
 20
974.971895306923
 30
0.0
 11
1366.87852688242
 21
979.671895306923
 31
0.0
 90
      404
 90
        2
 90
      405
 90
      409
 70
     1
330
0
 90
        0
280
     0
 90
       -1
 90
      403
 90
      405
 90
        2
 90
      404
 90
      403
 70
     0
 90
        0
290
     1
290
     1
 90
      406
 90
        3
 90
      407
 90
      408
 90
      410
 70
     1
330
0
 90
        0
280
     1
 90
       -1
 90
      403
 90
      407
 90
        2
 90
      406
 90
      403
 70
     0
 90
        0
290
     1
290
     1
 90
      408
 90
        2
 90
      301
 90
      406
 70
     0
 90
        0
290
     1
290
     1
 90
      409
 90
        2
 90
      354
 90
      404
 70
     0
 90
        0
290
     1
290
     1
 90
      410
 90
        2
 90
      354
 90
      406
 70
     0
 90
        0
290
     0
290
     1
340
45C
340
45D
280
     1
 10
0.0
 20
-1.0
 30
0.0
 90
      411
 90
        3
 90
      413
 90
      415
 90
      614
 70
     1
330
465
 90
        0
 10
1369.77852688242
 20
979.7666496775626
 30
0.0
 10
0.0
 20
-1.0
 30
0.0
290
     0
 10
1369.77852688242
 20
979.671895306923
 30
0.0
 11
1369.77852688242
 21
974.971895306923
 31
0.0
 90
      412
 90
        2
 90
      413
 90
      416
 70
     1
330
0
 90
        0
280
     0
 90
       -1
 90
      411
 90
      413
 90
        2
 90
      412
 90
      411
 70
     0
 90
        0
290
     1
290
     1
 90
      414
 90
        3
 90
      415
 90
      417
 90
      418
 70
     1
330
0
 90
        0
280
     1
 90
       -1
 90
      411
 90
      415
 90
        2
 90
      414
 90
      411
 70
     0
 90
        0
290
     1
290
     1
 90
      416
 90
        2
 90
      315
 90
      412
 70
     0
 90
        0
290
     1
290
     1
 90
      417
 90
        2
 90
      352
 90
      414
 70
     0
 90
        0
290
     1
290
     1
 90
      418
 90
        2
 90
      414
 90
      315
 70
     0
 90
        0
290
     0
290
     1
340
462
340
463
280
     1
 10
0.0
 20
-1.0
 30
0.0
 90
      419
 90
        3
 90
      421
 90
      423
 90
      615
 70
     1
330
46B
 90
        0
 10
1380.10352688242
 20
971.0679864517448
 30
0.0
 10
0.0
 20
1.0
 30
0.0
290
     0
 10
1380.10352688242
 20
971.171895306923
 30
0.0
 11
1380.10352688242
 21
979.671895306923
 31
0.0
 90
      420
 90
        3
 90
      421
 90
      425
 90
      605
 70
     1
330
0
 90
        0
280
     0
 90
       -1
 90
      419
 90
      421
 90
        2
 90
      420
 90
      419
 70
     0
 90
        0
290
     1
290
     1
 90
      422
 90
        3
 90
      423
 90
      424
 90
      425
 70
     1
330
0
 90
        0
280
     1
 90
       -1
 90
      419
 90
      423
 90
        2
 90
      422
 90
      419
 70
     0
 90
        0
290
     1
290
     1
 90
      424
 90
        2
 90
      313
 90
      422
 70
     0
 90
        0
290
     1
290
     1
 90
      425
 90
        2
 90
      420
 90
      422
 70
     0
 90
        0
290
     0
290
     1
340
468
340
469
280
     1
 10
0.0
 20
-1.0
 30
0.0
 90
      426
 90
        3
 90
      428
 90
      430
 90
      627
 70
     1
330
471
 90
        0
 10
1330.148442683712
 20
971.171895306923
 30
0.0
 10
1.0
 20
0.0
 30
0.0
290
     0
 10
1330.103526882419
 20
971.171895306923
 30
0.0
 11
1334.803526882419
 21
971.171895306923
 31
0.0
 90
      427
 90
        2
 90
      428
 90
      431
 70
     1
330
0
 90
        0
280
     0
 90
       -1
 90
      426
 90
      428
 90
        2
 90
      427
 90
      426
 70
     0
 90
        0
290
     1
290
     1
 90
      429
 90
        4
 90
      430
 90
      438
 90
      444
 90
      451
 70
     1
330
0
 90
        0
280
     1
 90
       -1
 90
      426
 90
      430
 90
        2
 90
      429
 90
      426
 70
     0
 90
        0
290
     1
290
     1
 90
      431
 90
        2
 90
      366
 90
      427
 70
     0
 90
        0
290
     1
290
     1
 90
      438
 90
        2
 90
      366
 90
      429
 70
     0
 90
        0
290
     0
290
     1
340
46E
340
46F
280
     1
 10
-1.0
 20
0.0
 30
0.0
 90
      439
 90
        3
 90
      441
 90
      443
 90
      616
 70
     1
330
478
 90
        0
 10
1334.803526882419
 20
971.2511178261383
 30
0.0
 10
0.0
 20
-1.0
 30
0.0
290
     0
 10
1334.803526882419
 20
971.171895306923
 30
0.0
 11
1334.803526882419
 21
968.271895306923
 31
0.0
 90
      440
 90
        2
 90
      441
 90
      444
 70
     1
330
0
 90
        0
280
     0
 90
       -1
 90
      439
 90
      441
 90
        2
 90
      440
 90
      439
 70
     0
 90
        0
290
     1
290
     1
 90
      442
 90
        4
 90
      443
 90
      451
 90
      462
 90
      464
 70
     1
330
0
 90
        0
280
     1
 90
       -1
 90
      439
 90
      443
 90
        2
 90
      442
 90
      439
 70
     0
 90
        0
290
     1
290
     1
 90
      444
 90
        2
 90
      429
 90
      440
 70
     0
 90
        0
290
     1
290
     1
 90
      451
 90
        2
 90
      429
 90
      442
 70
     0
 90
        0
290
     0
290
     1
340
475
340
476
280
     1
 10
0.0
 20
1.0
 30
0.0
 90
      457
 90
        3
 90
      459
 90
      461
 90
      628
 70
     1
330
480
 90
        0
 10
1335.105369837591
 20
968.271895306923
 30
0.0
 10
-1.0
 20
0.0
 30
0.0
290
     0
 10
1334.803526882419
 20
968.271895306923
 30
0.0
 11
1330.103526882419
 21
968.271895306923
 31
0.0
 90
      458
 90
        2
 90
      459
 90
      462
 70
     1
330
0
 90
        0
280
     0
 90
       -1
 90
      457
 90
      459
 90
        2
 90
      458
 90
      457
 70
     0
 90
        0
290
     1
290
     1
 90
      460
 90
        4
 90
      461
 90
      464
 90
      470
 90
      477
 70
     1
330
0
 90
        0
280
     1
 90
       -1
 90
      457
 90
      461
 90
        2
 90
      460
 90
      457
 70
     0
 90
        0
290
     1
290
     1
 90
      462
 90
        2
 90
      442
 90
      458
 70
     0
 90
        0
290
     1
290
     1
 90
      464
 90
        2
 90
      460
 90
      442
 70
     0
 90
        0
290
     0
290
     1
340
47C
340
47D
280
     1
 10
-1.0
 20
0.0
 30
0.0
 90
      465
 90
        3
 90
      467
 90
      469
 90
      618
 70
     1
330
486
 90
        0
 10
1330.103526882419
 20
968.3590480988407
 30
0.0
 10
0.0
 20
-1.0
 30
0.0
290
     0
 10
1330.103526882419
 20
968.271895306923
 30
0.0
 11
1330.103526882419
 21
959.7718953069231
 31
0.0
 90
      466
 90
        2
 90
      467
 90
      470
 70
     1
330
0
 90
        0
280
     0
 90
       -1
 90
      465
 90
      467
 90
        2
 90
      466
 90
      465
 70
     0
 90
        0
290
     1
290
     1
 90
      468
 90
        2
 90
      469
 90
      477
 70
     1
330
0
 90
        0
280
     1
 90
       -1
 90
      465
 90
      469
 90
        2
 90
      468
 90
      465
 70
     0
 90
        0
290
     1
290
     1
 90
      470
 90
        2
 90
      460
 90
      466
 70
     0
 90
        0
290
     1
290
     1
 90
      477
 90
        2
 90
      460
 90
      468
 70
     0
 90
        0
290
     0
290
     1
340
483
340
484
280
     1
 10
0.0
 20
1.0
 30
0.0
 90
      561
 90
        3
 90
      563
 90
      565
 90
      623
 70
     1
330
4D3
 90
        0
 10
1380.10352688242
 20
959.4218300891126
 30
0.0
 10
0.0
 20
1.0
 30
0.0
290
     0
 10
1380.10352688242
 20
959.7718953069231
 30
0.0
 11
1380.10352688242
 21
968.271895306923
 31
0.0
 90
      562
 90
        3
 90
      563
 90
      572
 90
      670
 70
     1
330
0
 90
        0
280
     0
 90
       -1
 90
      561
 90
      563
 90
        2
 90
      562
 90
      561
 70
     0
 90
        0
290
     1
290
     1
 90
      564
 90
        4
 90
      565
 90
      572
 90
      578
 90
      585
 70
     1
330
0
 90
        0
280
     1
 90
       -1
 90
      561
 90
      565
 90
        2
 90
      564
 90
      561
 70
     0
 90
        0
290
     1
290
     1
 90
      572
 90
        2
 90
      562
 90
      564
 70
     0
 90
        0
290
     0
290
     1
340
4D0
340
4D1
280
     1
 10
0.0
 20
-1.0
 30
0.0
 90
      573
 90
        3
 90
      575
 90
      577
 90
      637
 70
     1
330
4DA
 90
        0
 10
1380.103324359614
 20
968.271895306923
 30
0.0
 10
-1.0
 20
0.0
 30
0.0
290
     0
 10
1380.10352688242
 20
968.271895306923
 30
0.0
 11
1375.40352688242
 21
968.271895306923
 31
0.0
 90
      574
 90
        2
 90
      575
 90
      578
 70
     1
330
0
 90
        0
280
     0
 90
       -1
 90
      573
 90
      575
 90
        2
 90
      574
 90
      573
 70
     0
 90
        0
290
     1
290
     1
 90
      576
 90
        4
 90
      577
 90
      585
 90
      591
 90
      599
 70
     1
330
0
 90
        0
280
     1
 90
       -1
 90
      573
 90
      577
 90
        2
 90
      576
 90
      573
 70
     0
 90
        0
290
     1
290
     1
 90
      578
 90
        2
 90
      564
 90
      574
 70
     0
 90
        0
290
     1
290
     1
 90
      585
 90
        2
 90
      564
 90
      576
 70
     0
 90
        0
290
     0
290
     1
340
4D7
340
4D8
280
     1
 10
1.0
 20
0.0
 30
0.0
 90
      586
 90
        3
 90
      588
 90
      590
 90
      617
 70
     1
330
4E1
 90
        0
 10
1375.40352688242
 20
968.1541535861191
 30
0.0
 10
0.0
 20
1.0
 30
0.0
290
     0
 10
1375.40352688242
 20
968.271895306923
 30
0.0
 11
1375.40352688242
 21
971.171895306923
 31
0.0
 90
      587
 90
        2
 90
      588
 90
      591
 70
     1
330
0
 90
        0
280
     0
 90
       -1
 90
      586
 90
      588
 90
        2
 90
      587
 90
      586
 70
     0
 90
        0
290
     1
290
     1
 90
      589
 90
        4
 90
      590
 90
      599
 90
      606
 90
      607
 70
     1
330
0
 90
        0
280
     1
 90
       -1
 90
      586
 90
      590
 90
        2
 90
      589
 90
      586
 70
     0
 90
        0
290
     1
290
     1
 90
      591
 90
        2
 90
      576
 90
      587
 70
     0
 90
        0
290
     1
290
     1
 90
      599
 90
        2
 90
      576
 90
      589
 70
     0
 90
        0
290
     0
290
     1
340
4DE
340
4DF
280
     1
 10
0.0
 20
-1.0
 30
0.0
 90
      600
 90
        3
 90
      602
 90
      604
 90
      636
 70
     1
330
4E8
 90
        0
 10
1375.103314738173
 20
971.171895306923
 30
0.0
 10
1.0
 20
0.0
 30
0.0
290
     0
 10
1375.40352688242
 20
971.171895306923
 30
0.0
 11
1380.10352688242
 21
971.171895306923
 31
0.0
 90
      601
 90
        2
 90
      602
 90
      606
 70
     1
330
0
 90
        0
280
     0
 90
       -1
 90
      600
 90
      602
 90
        2
 90
      601
 90
      600
 70
     0
 90
        0
290
     1
290
     1
 90
      603
 90
        3
 90
      604
 90
      605
 90
      607
 70
     1
330
0
 90
        0
280
     1
 90
       -1
 90
      600
 90
      604
 90
        2
 90
      603
 90
      600
 70
     0
 90
        0
290
     1
290
     1
 90
      605
 90
        2
 90
      420
 90
      603
 70
     0
 90
        0
290
     1
290
     1
 90
      606
 90
        2
 90
      589
 90
      601
 70
     0
 90
        0
290
     1
290
     1
 90
      607
 90
        2
 90
      589
 90
      603
 70
     0
 90
        0
290
     0
290
     1
340
4E5
340
4E6
280
     1
 10
-1.0
 20
0.0
 30
0.0
 90
      608
 90
        1
 90
      363
 70
     0
 90
        0
290
     0
290
     1
 90
      216
 90
      609
 90
        1
 90
      371
 70
     0
 90
        0
290
     0
290
     1
 90
      216
 90
      610
 90
        1
 90
      379
 70
     0
 90
        0
290
     0
290
     1
 90
      216
 90
      611
 90
        1
 90
      387
 70
     0
 90
        0
290
     0
290
     1
 90
      216
 90
      612
 90
        1
 90
      395
 70
     0
 90
        0
290
     0
290
     1
 90
      216
 90
      613
 90
        1
 90
      403
 70
     0
 90
        0
290
     0
290
     1
 90
      216
 90
      614
 90
        1
 90
      411
 70
     0
 90
        0
290
     0
290
     1
 90
      216
 90
      615
 90
        1
 90
      419
 70
     0
 90
        0
290
     0
290
     1
 90
      216
 90
      616
 90
        1
 90
      439
 70
     0
 90
        0
290
     0
290
     1
 90
      216
 90
      617
 90
        1
 90
      586
 70
     0
 90
        0
290
     0
290
     1
 90
      216
 90
      618
 90
        1
 90
      465
 70
     0
 90
        0
290
     0
290
     1
 90
      216
 90
      623
 90
        1
 90
      561
 70
     0
 90
        0
290
     0
290
     1
 90
      216
 90
      624
 90
        1
 90
      276
 70
     0
 90
        0
290
     0
290
     1
 90
      195
 90
      626
 90
        1
 90
      325
 70
     0
 90
        0
290
     0
290
     1
 90
      195
 90
      627
 90
        1
 90
      426
 70
     0
 90
        0
290
     0
290
     1
 90
      195
 90
      628
 90
        1
 90
      457
 70
     0
 90
        0
290
     0
290
     1
 90
      195
 90
      630
 90
        1
 90
      288
 70
     0
 90
        0
290
     0
290
     1
 90
      195
 90
      632
 90
        1
 90
      300
 70
     0
 90
        0
290
     0
290
     1
 90
      195
 90
      634
 90
        1
 90
      351
 70
     0
 90
        0
290
     0
290
     1
 90
      195
 90
      635
 90
        1
 90
      312
 70
     0
 90
        0
290
     0
290
     1
 90
      195
 90
      636
 90
        1
 90
      600
 70
     0
 90
        0
290
     0
290
     1
 90
      195
 90
      637
 90
        1
 90
      573
 70
     0
 90
        0
290
     0
290
     1
 90
      195
 90
      639
 90
        1
 90
      338
 70
     0
 90
        0
290
     0
290
     1
 90
      195
 90
      640
 90
        3
 90
      642
 90
      644
 90
      645
 70
     1
330
515
 90
        0
 10
1366.88172513052
 20
964.4718953069231
 30
0.0
 10
1.0
 20
0.0
 30
0.0
290
     0
 10
1366.88172513052
 20
964.4718953069231
 30
0.0
 11
1369.77852688242
 21
964.4718953069231
 31
0.0
 90
      641
 90
        1
 90
      642
 70
     1
330
0
 90
        0
280
     0
 90
       -1
 90
      640
 90
      642
 90
        2
 90
      641
 90
      640
 70
     0
 90
        0
290
     1
290
     1
 90
      643
 90
        3
 90
      644
 90
      651
 90
      683
 70
     1
330
0
 90
        0
280
     1
 90
       -1
 90
      640
 90
      644
 90
        2
 90
      643
 90
      640
 70
     0
 90
        0
290
     1
290
     1
 90
      645
 90
        1
 90
      640
 70
     0
 90
        0
290
     0
290
     1
 90
      195
 90
      646
 90
        3
 90
      648
 90
      650
 90
      652
 70
     1
330
516
 90
        0
 10
1369.77852688242
 20
964.7718953069229
 30
0.0
 10
0.0
 20
-1.0
 30
0.0
290
     0
 10
1369.77852688242
 20
964.4718953069231
 30
0.0
 11
1369.77852688242
 21
959.7718953069231
 31
0.0
 90
      647
 90
        2
 90
      648
 90
      651
 70
     1
330
0
 90
        0
280
     0
 90
       -1
 90
      646
 90
      648
 90
        2
 90
      647
 90
      646
 70
     0
 90
        0
290
     1
290
     1
 90
      649
 90
        4
 90
      650
 90
      671
 90
      681
 90
      683
 70
     1
330
0
 90
        0
280
     1
 90
       -1
 90
      646
 90
      650
 90
        2
 90
      649
 90
      646
 70
     0
 90
        0
290
     1
290
     1
 90
      651
 90
        2
 90
      643
 90
      647
 70
     0
 90
        0
290
     1
290
     1
 90
      652
 90
        1
 90
      646
 70
     0
 90
        0
290
     0
290
     1
 90
      216
 90
      665
 90
        3
 90
      667
 90
      669
 90
      672
 70
     1
330
519
 90
        0
 10
1369.78172513052
 20
959.7718953069229
 30
0.0
 10
1.0
 20
0.0
 30
0.0
290
     0
 10
1369.77852688242
 20
959.7718953069231
 30
0.0
 11
1380.10352688242
 21
959.7718953069231
 31
0.0
 90
      666
 90
        2
 90
      667
 90
      671
 70
     1
330
0
 90
        0
280
     0
 90
       -1
 90
      665
 90
      667
 90
        2
 90
      666
 90
      665
 70
     0
 90
        0
290
     1
290
     1
 90
      668
 90
        3
 90
      669
 90
      670
 90
      681
 70
     1
330
0
 90
        0
280
     1
 90
       -1
 90
      665
 90
      669
 90
        2
 90
      668
 90
      665
 70
     0
 90
        0
290
     1
290
     1
 90
      670
 90
        2
 90
      562
 90
      668
 70
     0
 90
        0
290
     1
290
     1
 90
      671
 90
        2
 90
      649
 90
      666
 70
     0
 90
        0
290
     1
290
     1
 90
      672
 90
        1
 90
      665
 70
     0
 90
        0
290
     0
290
     1
 90
      195
 90
      681
 90
        2
 90
      649
 90
      668
 70
     0
 90
        0
290
     0
290
     1
340
522
340
523
280
     1
 10
-1.0
 20
0.0
 30
0.0
 90
      683
 90
        2
 90
      649
 90
      643
 70
     0
 90
        0
290
     0
290
     1
340
52C
340
52D
280
     1
 10
0.0
 20
-1.0
 30
0.0
 90
      684
 90
        3
 90
      686
 90
      688
 90
      708
 70
     1
330
534
 90
        0
 10
1340.42257573399
 20
959.8018611792532
 30
0.0
 10
-1.0
 20
0.0
 30
0.0
290
     0
 10
1340.42257573391
 20
959.8018611792532
 30
0.0
 11
1330.097575733909
 21
959.8018611792532
 31
0.0
 90
      685
 90
        2
 90
      686
 90
      689
 70
     1
330
0
 90
        0
280
     0
 90
       -1
 90
      684
 90
      686
 90
        2
 90
      685
 90
      684
 70
     0
 90
        0
290
     1
290
     1
 90
      687
 90
        2
 90
      688
 90
      689
 70
     1
330
0
 90
        0
280
     1
 90
       -1
 90
      684
 90
      688
 90
        2
 90
      687
 90
      684
 70
     0
 90
        0
290
     1
290
     1
 90
      689
 90
        2
 90
      687
 90
      685
 70
     0
 90
        0
290
     0
290
     1
340
531
340
532
280
     1
 10
-1.0
 20
0.0
 30
0.0
 90
      696
 90
        3
 90
      698
 90
      700
 90
      717
 70
     1
330
540
 90
        0
 10
1343.322579130292
 20
959.7967959969512
 30
0.0
 10
0.0
 20
1.0
 30
0.0
290
     0
 10
1343.322579130292
 20
959.7967959969512
 30
0.0
 11
1343.322579130292
 21
964.4967959969513
 31
0.0
 90
      697
 90
        2
 90
      698
 90
      701
 70
     1
330
0
 90
        0
280
     0
 90
       -1
 90
      696
 90
      698
 90
        2
 90
      697
 90
      696
 70
     0
 90
        0
290
     1
290
     1
 90
      699
 90
        2
 90
      700
 90
      701
 70
     1
330
0
 90
        0
280
     1
 90
       -1
 90
      696
 90
      700
 90
        2
 90
      699
 90
      696
 70
     0
 90
        0
290
     1
290
     1
 90
      701
 90
        2
 90
      697
 90
      699
 70
     0
 90
        0
290
     0
290
     1
340
53D
340
53E
280
     1
 10
0.0
 20
-1.0
 30
0.0
 90
      708
 90
        1
 90
      684
 70
     0
 90
        0
290
     0
290
     1
 90
      195
 90
      717
 90
        1
 90
      696
 70
     0
 90
        0
290
     0
290
     1
 90
      216
 90
      718
 90
        3
 90
      720
 90
      722
 90
      723
 70
     1
330
584
 90
        0
 10
1343.322565921603
 20
959.8069263615554
 30
0.0
 10
1.0
 20
0.0
 30
0.0
290
     0
 10
1343.322565921603
 20
959.8069263615554
 30
0.0
 11
1347.20729927414
 21
959.8069263615554
 31
0.0
 90
      719
 90
        1
 90
      720
 70
     1
330
0
 90
        0
280
     0
 90
       -1
 90
      718
 90
      720
 90
        2
 90
      719
 90
      718
 70
     0
 90
        0
290
     1
290
     1
 90
      721
 90
        1
 90
      722
 70
     1
330
0
 90
        0
280
     1
 90
       -1
 90
      718
 90
      722
 90
        2
 90
      721
 90
      718
 70
     0
 90
        0
290
     1
290
     1
 90
      723
 90
        1
 90
      718
 70
     0
 90
        0
290
     0
290
     1
 90
      195
 90
      724
 90
        3
 90
      726
 90
      728
 90
      729
 70
     1
330
588
 90
        0
 10
1340.422294298835
 20
964.4967959969511
 30
0.0
 10
1.0
 20
0.0
 30
0.0
290
     0
 10
1340.422294298835
 20
964.4967959969511
 30
0.0
 11
1343.322579130292
 21
964.4967959969513
 31
0.0
 90
      725
 90
        1
 90
      726
 70
     1
330
0
 90
        0
280
     0
 90
       -1
 90
      724
 90
      726
 90
        2
 90
      725
 90
      724
 70
     0
 90
        0
290
     1
290
     1
 90
      727
 90
        1
 90
      728
 70
     1
330
0
 90
        0
280
     1
 90
       -1
 90
      724
 90
      728
 90
        2
 90
      727
 90
      724
 70
     0
 90
        0
290
     1
290
     1
 90
      729
 90
        1
 90
      724
 70
     0
 90
        0
290
     0
290
     1
 90
      195
  0
ACDBASSOCVARIABLE
  5
345
102
{ACAD_REACTORS
330
346
102
}
330
323
100
AcDbAssocAction
 90
        2
 90
        0
330
323
360
0
 90
       11
 90
        1
 90
        0
 90
        0
 90
        0
 90
        0
 90
        0
100
AcDbAssocVariable
 90
        2
  1
d2
  1
cuadrado_largo
  1
AcDbCalc:1.0
  1

 40
8.5
290
     0
290
     0
 90
        1
360
3C4
 90
        0
  0
ACDBASSOCVARIABLE
  5
34C
102
{ACAD_REACTORS
330
34D
102
}
330
323
100
AcDbAssocAction
 90
        2
 90
        0
330
323
360
0
 90
       12
 90
        1
 90
        0
 90
        0
 90
        0
 90
        0
 90
        0
100
AcDbAssocVariable
 90
        2
  1
d3
  1
cuadrado_largo
  1
AcDbCalc:1.0
  1

 40
8.5
290
     0
290
     0
 90
        1
360
3C5
 90
        0
  0
ACDBASSOCVARIABLE
  5
35B
102
{ACAD_REACTORS
330
35C
102
}
330
323
100
AcDbAssocAction
 90
        2
 90
        0
330
323
360
0
 90
       13
 90
        1
 90
        0
 90
        0
 90
        0
 90
        0
 90
        0
100
AcDbAssocVariable
 90
        2
  1
d4
  1
cuadrado_largo
  1
AcDbCalc:1.0
  1

 40
8.5
290
     0
290
     0
 90
        1
360
3C6
 90
        0
  0
ACDBASSOCVARIABLE
  5
362
102
{ACAD_REACTORS
330
363
102
}
330
323
100
AcDbAssocAction
 90
        2
 90
        0
330
323
360
0
 90
       14
 90
        1
 90
        0
 90
        0
 90
        0
 90
        0
 90
        0
100
AcDbAssocVariable
 90
        2
  1
d5
  1
cuadrado_largo
  1
AcDbCalc:1.0
  1

 40
8.5
290
     0
290
     0
 90
        1
360
3C7
 90
        0
  0
ACDBASSOCVARIABLE
  5
369
102
{ACAD_REACTORS
330
36A
102
}
330
323
100
AcDbAssocAction
 90
        2
 90
        0
330
323
360
0
 90
       15
 90
        1
 90
        0
 90
        0
 90
        0
 90
        0
 90
        0
100
AcDbAssocVariable
 90
        2
  1
d6
  1
entrada_corto
  1
AcDbCalc:1.0
  1

 40
2.9
290
     0
290
     0
 90
        1
360
3D0
 90
        0
  0
ACDBASSOCVARIABLE
  5
370
102
{ACAD_REACTORS
330
371
102
}
330
323
100
AcDbAssocAction
 90
        2
 90
        0
330
323
360
0
 90
       16
 90
        1
 90
        0
 90
        0
 90
        0
 90
        0
 90
        0
100
AcDbAssocVariable
 90
        2
  1
d7
  1
entrada_corto
  1
AcDbCalc:1.0
  1

 40
2.9
290
     0
290
     0
 90
        1
360
3D1
 90
        0
  0
ACDBASSOCVARIABLE
  5
377
102
{ACAD_REACTORS
330
378
102
}
330
323
100
AcDbAssocAction
 90
        2
 90
        0
330
323
360
0
 90
       17
 90
        1
 90
        0
 90
        0
 90
        0
 90
        0
 90
        0
100
AcDbAssocVariable
 90
        2
  1
d8
  1
entrada_corto
  1
AcDbCalc:1.0
  1

 40
2.9
290
     0
290
     0
 90
        1
360
3D2
 90
        0
  0
ACDBASSOCVARIABLE
  5
37E
102
{ACAD_REACTORS
330
37F
102
}
330
323
100
AcDbAssocAction
 90
        2
 90
        0
330
323
360
0
 90
       18
 90
        1
 90
        0
 90
        0
 90
        0
 90
        0
 90
        0
100
AcDbAssocVariable
 90
        2
  1
d9
  1
entrada_corto
  1
AcDbCalc:1.0
  1

 40
2.9
290
     0
290
     0
 90
        1
360
3D3
 90
        0
  0
ACDBASSOCVARIABLE
  5
385
102
{ACAD_REACTORS
330
386
102
}
330
323
100
AcDbAssocAction
 90
        2
 90
        0
330
323
360
0
 90
       19
 90
        1
 90
        0
 90
        0
 90
        0
 90
        0
 90
        0
100
AcDbAssocVariable
 90
        2
  1
d10
  1
entrada_alto
  1
AcDbCalc:1.0
  1

 40
4.7
290
     0
290
     0
 90
        1
360
3C8
 90
        0
  0
ACDBASSOCVARIABLE
  5
38B
102
{ACAD_REACTORS
330
38C
102
}
330
323
100
AcDbAssocAction
 90
        2
 90
        0
330
323
360
0
 90
       20
 90
        1
 90
        0
 90
        0
 90
        0
 90
        0
 90
        0
100
AcDbAssocVariable
 90
        2
  1
d11
  1
entrada_alto
  1
AcDbCalc:1.0
  1

 40
4.7
290
     0
290
     0
 90
        1
360
3C9
 90
        0
  0
ACDBASSOCVARIABLE
  5
391
102
{ACAD_REACTORS
330
392
102
}
330
323
100
AcDbAssocAction
 90
        2
 90
        0
330
323
360
0
 90
       21
 90
        1
 90
        0
 90
        0
 90
        0
 90
        0
 90
        0
100
AcDbAssocVariable
 90
        2
  1
d12
  1
entrada_alto
  1
AcDbCalc:1.0
  1

 40
4.7
290
     0
290
     0
 90
        1
360
3CA
 90
        0
  0
ACDBASSOCVARIABLE
  5
397
102
{ACAD_REACTORS
330
398
102
}
330
323
100
AcDbAssocAction
 90
        2
 90
        0
330
323
360
0
 90
       22
 90
        1
 90
        0
 90
        0
 90
        0
 90
        0
 90
        0
100
AcDbAssocVariable
 90
        2
  1
d13
  1
entrada_alto
  1
AcDbCalc:1.0
  1

 40
4.7
290
     0
290
     0
 90
        1
360
3CB
 90
        0
  0
ACDBASSOCVARIABLE
  5
39D
102
{ACAD_REACTORS
330
39E
102
}
330
323
100
AcDbAssocAction
 90
        2
 90
        0
330
323
360
0
 90
       23
 90
        1
 90
        0
 90
        0
 90
        0
 90
        0
 90
        0
100
AcDbAssocVariable
 90
        2
  1
d14
  1
entrada_alto
  1
AcDbCalc:1.0
  1

 40
4.7
290
     0
290
     0
 90
        1
360
3CC
 90
        0
  0
ACDBASSOCVARIABLE
  5
3A4
102
{ACAD_REACTORS
330
3A5
102
}
330
323
100
AcDbAssocAction
 90
        2
 90
        0
330
323
360
0
 90
       24
 90
        1
 90
        0
 90
        0
 90
        0
 90
        0
 90
        0
100
AcDbAssocVariable
 90
        2
  1
d15
  1
entrada_alto
  1
AcDbCalc:1.0
  1

 40
4.7
290
     0
290
     0
 90
        1
360
3CD
 90
        0
  0
ACDBASSOCVARIABLE
  5
3AA
102
{ACAD_REACTORS
330
3AB
102
}
330
323
100
AcDbAssocAction
 90
        2
 90
        0
330
323
360
0
 90
       25
 90
        1
 90
        0
 90
        0
 90
        0
 90
        0
 90
        0
100
AcDbAssocVariable
 90
        2
  1
d16
  1
entrada_alto
  1
AcDbCalc:1.0
  1

 40
4.7
290
     0
290
     0
 90
        1
360
3CE
 90
        0
  0
ACDBASSOCVARIABLE
  5
3B0
102
{ACAD_REACTORS
330
3B1
102
}
330
323
100
AcDbAssocAction
 90
        2
 90
        0
330
323
360
0
 90
       26
 90
        1
 90
        0
 90
        0
 90
        0
 90
        0
 90
        0
100
AcDbAssocVariable
 90
        2
  1
d17
  1
entrada_alto
  1
AcDbCalc:1.0
  1

 40
4.7
290
     0
290
     0
 90
        1
360
3CF
 90
        0
  0
ACDBASSOCVARIABLE
  5
3B7
102
{ACAD_REACTORS
330
3B8
102
}
330
323
100
AcDbAssocAction
 90
        2
 90
        0
330
323
360
0
 90
       27
 90
        1
 90
        0
 90
        0
 90
        0
 90
        0
 90
        0
100
AcDbAssocVariable
 90
        2
  1
d18
  1
cuadrado_largo
  1
AcDbCalc:1.0
  1

 40
8.5
290
     0
290
     0
 90
        1
360
3C2
 90
        0
  0
ACDBASSOCVARIABLE
  5
3BD
102
{ACAD_REACTORS
330
3BE
102
}
330
323
100
AcDbAssocAction
 90
        2
 90
        0
330
323
360
0
 90
       28
 90
        1
 90
        0
 90
        0
 90
        0
 90
        0
 90
        0
100
AcDbAssocVariable
 90
        2
  1
d19
  1
cuadrado_largo
  1
AcDbCalc:1.0
  1

 40
8.5
290
     0
290
     0
 90
        1
360
3C3
 90
        0
  0
ACDBASSOCVARIABLE
  5
3DF
102
{ACAD_REACTORS
330
3E0
102
}
330
323
100
AcDbAssocAction
 90
        2
 90
        0
330
323
360
0
 90
       29
 90
        1
 90
        0
 90
        0
 90
        0
 90
        0
 90
        0
100
AcDbAssocVariable
 90
        2
  1
d20
  1
rectangulo_largo
  1
AcDbCalc:1.0
  1

 90
       40
290
     0
290
     0
 90
        1
360
3F9
 90
        0
  0
ACDBASSOCVARIABLE
  5
3E5
102
{ACAD_REACTORS
330
3E6
102
}
330
323
100
AcDbAssocAction
 90
        2
 90
        0
330
323
360
0
 90
       30
 90
        1
 90
        0
 90
        0
 90
        0
 90
        0
 90
        0
100
AcDbAssocVariable
 90
        2
  1
d21
  1
rectangulo_corto
  1
AcDbCalc:1.0
  1

 90
       20
290
     0
290
     0
 90
        1
360
3F6
 90
        0
  0
ACDBASSOCVARIABLE
  5
3EB
102
{ACAD_REACTORS
330
3EC
102
}
330
323
100
AcDbAssocAction
 90
        2
 90
        0
330
323
360
0
 90
       31
 90
        1
 90
        0
 90
        0
 90
        0
 90
        0
 90
        0
100
AcDbAssocVariable
 90
        2
  1
d22
  1
rectangulo_largo
  1
AcDbCalc:1.0
  1

 90
       40
290
     0
290
     0
 90
        1
360
3F8
 90
        0
  0
ACDBASSOCVARIABLE
  5
3F1
102
{ACAD_REACTORS
330
3F2
102
}
330
323
100
AcDbAssocAction
 90
        2
 90
        0
330
323
360
0
 90
       32
 90
        1
 90
        0
 90
        0
 90
        0
 90
        0
 90
        0
100
AcDbAssocVariable
 90
        2
  1
d23
  1
rectangulo_corto
  1
AcDbCalc:1.0
  1

 90
       20
290
     0
290
     0
 90
        1
360
3F7
 90
        0
  0
ACDBASSOCVARIABLE
  5
40B
102
{ACAD_REACTORS
330
40C
102
}
330
323
100
AcDbAssocAction
 90
        2
 90
        0
330
323
360
0
 90
       33
 90
        1
 90
        0
 90
        0
 90
        0
 90
        0
 90
        0
100
AcDbAssocVariable
 90
        2
  1
d24
  1
arco_largo
  1
AcDbCalc:1.0
  1

 40
10.325
290
     0
290
     0
 90
        1
360
4FF
 90
        0
  0
ACDBASSOCVARIABLE
  5
412
102
{ACAD_REACTORS
330
413
102
}
330
323
100
AcDbAssocAction
 90
        2
 90
        0
330
323
360
0
 90
       34
 90
        1
 90
        0
 90
        0
 90
        0
 90
        0
 90
        0
100
AcDbAssocVariable
 90
        2
  1
d25
  1
arco_largo
  1
AcDbCalc:1.0
  1

 40
10.325
290
     0
290
     0
 90
        1
360
500
 90
        0
  0
ACDBASSOCVARIABLE
  5
419
102
{ACAD_REACTORS
330
41A
102
}
330
323
100
AcDbAssocAction
 90
        2
 90
        0
330
323
360
0
 90
       35
 90
        1
 90
        0
 90
        0
 90
        0
 90
        0
 90
        0
100
AcDbAssocVariable
 90
        2
  1
d26
  1
arco_largo
  1
AcDbCalc:1.0
  1

 40
10.325
290
     0
290
     0
 90
        1
360
501
 90
        0
  0
ACDBASSOCVARIABLE
  5
420
102
{ACAD_REACTORS
330
421
102
}
330
323
100
AcDbAssocAction
 90
        2
 90
        0
330
323
360
0
 90
       36
 90
        1
 90
        0
 90
        0
 90
        0
 90
        0
 90
        0
100
AcDbAssocVariable
 90
        2
  1
d27
  1
arco_largo
  1
AcDbCalc:1.0
  1

 40
10.325
290
     0
290
     0
 90
        1
360
502
 90
        0
  0
ACDBASSOCVARIABLE
  5
427
102
{ACAD_REACTORS
330
428
102
}
330
323
100
AcDbAssocAction
 90
        2
 90
        0
330
323
360
0
 90
       37
 90
        1
 90
        0
 90
        0
 90
        0
 90
        0
 90
        0
100
AcDbAssocVariable
 90
        2
  1
d28
  1
entrada_corto
  1
AcDbCalc:1.0
  1

 40
2.9
290
     0
290
     0
 90
        1
360
4FC
 90
        0
  0
ACDBASSOCVARIABLE
  5
42E
102
{ACAD_REACTORS
330
42F
102
}
330
323
100
AcDbAssocAction
 90
        2
 90
        0
330
323
360
0
 90
       38
 90
        1
 90
        0
 90
        0
 90
        0
 90
        0
 90
        0
100
AcDbAssocVariable
 90
        2
  1
d29
  1
entrada_corto
  1
AcDbCalc:1.0
  1

 40
2.9
290
     0
290
     0
 90
        1
360
4FD
 90
        0
  0
ACDBASSOCVARIABLE
  5
435
102
{ACAD_REACTORS
330
436
102
}
330
323
100
AcDbAssocAction
 90
        2
 90
        0
330
323
360
0
 90
       39
 90
        1
 90
        0
 90
        0
 90
        0
 90
        0
 90
        0
100
AcDbAssocVariable
 90
        2
  1
d30
  1
entrada_corto
  1
AcDbCalc:1.0
  1

 40
2.9
290
     0
290
     0
 90
        1
360
4FB
 90
        0
  0
ACDBASSOCVARIABLE
  5
43C
102
{ACAD_REACTORS
330
43D
102
}
330
323
100
AcDbAssocAction
 90
        2
 90
        0
330
323
360
0
 90
       40
 90
        1
 90
        0
 90
        0
 90
        0
 90
        0
 90
        0
100
AcDbAssocVariable
 90
        2
  1
d31
  1
cuadrado_largo
  1
AcDbCalc:1.0
  1

 40
8.5
290
     0
290
     0
 90
        1
360
506
 90
        0
  0
ACDBASSOCVARIABLE
  5
443
102
{ACAD_REACTORS
330
444
102
}
330
323
100
AcDbAssocAction
 90
        2
 90
        0
330
323
360
0
 90
       41
 90
        1
 90
        0
 90
        0
 90
        0
 90
        0
 90
        0
100
AcDbAssocVariable
 90
        2
  1
d32
  1
entrada_alto
  1
AcDbCalc:1.0
  1

 40
4.7
290
     0
290
     0
 90
        1
360
4F6
 90
        0
  0
ACDBASSOCVARIABLE
  5
449
102
{ACAD_REACTORS
330
44A
102
}
330
323
100
AcDbAssocAction
 90
        2
 90
        0
330
323
360
0
 90
       42
 90
        1
 90
        0
 90
        0
 90
        0
 90
        0
 90
        0
100
AcDbAssocVariable
 90
        2
  1
d33
  1
entrada_alto
  1
AcDbCalc:1.0
  1

 40
4.7
290
     0
290
     0
 90
        1
360
4F5
 90
        0
  0
ACDBASSOCVARIABLE
  5
44F
102
{ACAD_REACTORS
330
450
102
}
330
323
100
AcDbAssocAction
 90
        2
 90
        0
330
323
360
0
 90
       43
 90
        1
 90
        0
 90
        0
 90
        0
 90
        0
 90
        0
100
AcDbAssocVariable
 90
        2
  1
d34
  1
entrada_alto
  1
AcDbCalc:1.0
  1

 40
4.7
290
     0
290
     0
 90
        1
360
4F4
 90
        0
  0
ACDBASSOCVARIABLE
  5
455
102
{ACAD_REACTORS
330
456
102
}
330
323
100
AcDbAssocAction
 90
        2
 90
        0
330
323
360
0
 90
       44
 90
        1
 90
        0
 90
        0
 90
        0
 90
        0
 90
        0
100
AcDbAssocVariable
 90
        2
  1
d35
  1
entrada_alto
  1
AcDbCalc:1.0
  1

 40
4.7
290
     0
290
     0
 90
        1
360
4F3
 90
        0
  0
ACDBASSOCVARIABLE
  5
45B
102
{ACAD_REACTORS
330
45C
102
}
330
323
100
AcDbAssocAction
 90
        2
 90
        0
330
323
360
0
 90
       45
 90
        1
 90
        0
 90
        0
 90
        0
 90
        0
 90
        0
100
AcDbAssocVariable
 90
        2
  1
d36
  1
entrada_alto
  1
AcDbCalc:1.0
  1

 40
4.7
290
     0
290
     0
 90
        1
360
4F2
 90
        0
  0
ACDBASSOCVARIABLE
  5
461
102
{ACAD_REACTORS
330
462
102
}
330
323
100
AcDbAssocAction
 90
        2
 90
        0
330
323
360
0
 90
       46
 90
        1
 90
        0
 90
        0
 90
        0
 90
        0
 90
        0
100
AcDbAssocVariable
 90
        2
  1
d37
  1
entrada_alto
  1
AcDbCalc:1.0
  1

 40
4.7
290
     0
290
     0
 90
        1
360
4F1
 90
        0
  0
ACDBASSOCVARIABLE
  5
467
102
{ACAD_REACTORS
330
468
102
}
330
323
100
AcDbAssocAction
 90
        2
 90
        0
330
323
360
0
 90
       47
 90
        1
 90
        0
 90
        0
 90
        0
 90
        0
 90
        0
100
AcDbAssocVariable
 90
        2
  1
d38
  1
cuadrado_largo
  1
AcDbCalc:1.0
  1

 40
8.5
290
     0
290
     0
 90
        1
360
507
 90
        0
  0
ACDBASSOCVARIABLE
  5
46D
102
{ACAD_REACTORS
330
46E
102
}
330
323
100
AcDbAssocAction
 90
        2
 90
        0
330
323
360
0
 90
       48
 90
        1
 90
        0
 90
        0
 90
        0
 90
        0
 90
        0
100
AcDbAssocVariable
 90
        2
  1
d39
  1
entrada_alto
  1
AcDbCalc:1.0
  1

 40
4.7
290
     0
290
     0
 90
        1
360
4F0
 90
        0
  0
ACDBASSOCVARIABLE
  5
474
102
{ACAD_REACTORS
330
475
102
}
330
323
100
AcDbAssocAction
 90
        2
 90
        0
330
323
360
0
 90
       49
 90
        1
 90
        0
 90
        0
 90
        0
 90
        0
 90
        0
100
AcDbAssocVariable
 90
        2
  1
d40
  1
entrada_corto
  1
AcDbCalc:1.0
  1

 40
2.9
290
     0
290
     0
 90
        1
360
4FA
 90
        0
  0
ACDBASSOCVARIABLE
  5
47B
102
{ACAD_REACTORS
330
47C
102
}
330
323
100
AcDbAssocAction
 90
        2
 90
        0
330
323
360
0
 90
       50
 90
        1
 90
        0
 90
        0
 90
        0
 90
        0
 90
        0
100
AcDbAssocVariable
 90
        2
  1
d41
  1
entrada_alto
  1
AcDbCalc:1.0
  1

 40
4.7
290
     0
290
     0
 90
        1
360
4EF
 90
        0
  0
ACDBASSOCVARIABLE
  5
482
102
{ACAD_REACTORS
330
483
102
}
330
323
100
AcDbAssocAction
 90
        2
 90
        0
330
323
360
0
 90
       51
 90
        1
 90
        0
 90
        0
 90
        0
 90
        0
 90
        0
100
AcDbAssocVariable
 90
        2
  1
d42
  1
cuadrado_largo
  1
AcDbCalc:1.0
  1

 40
8.5
290
     0
290
     0
 90
        1
360
508
 90
        0
  0
ACDBASSOCVARIABLE
  5
4CF
102
{ACAD_REACTORS
330
4D0
102
}
330
323
100
AcDbAssocAction
 90
        2
 90
        0
330
323
360
0
 90
       62
 90
        2
 90
        0
 90
        0
 90
        0
 90
        0
 90
        0
100
AcDbAssocVariable
 90
        2
  1
d53
  1
cuadrado_largo
  1
AcDbCalc:1.0
  1

 40
8.5
290
     0
290
     0
 90
        1
360
505
 90
        0
  0
ACDBASSOCVARIABLE
  5
4D6
102
{ACAD_REACTORS
330
4D7
102
}
330
323
100
AcDbAssocAction
 90
        2
 90
        0
330
323
360
0
 90
       63
 90
        1
 90
        0
 90
        0
 90
        0
 90
        0
 90
        0
100
AcDbAssocVariable
 90
        2
  1
d54
  1
entrada_alto
  1
AcDbCalc:1.0
  1

 40
4.7
290
     0
290
     0
 90
        1
360
4EA
 90
        0
  0
ACDBASSOCVARIABLE
  5
4DD
102
{ACAD_REACTORS
330
4DE
102
}
330
323
100
AcDbAssocAction
 90
        2
 90
        0
330
323
360
0
 90
       64
 90
        1
 90
        0
 90
        0
 90
        0
 90
        0
 90
        0
100
AcDbAssocVariable
 90
        2
  1
d55
  1
entrada_corto
  1
AcDbCalc:1.0
  1

 40
2.9
290
     0
290
     0
 90
        1
360
4F7
 90
        0
  0
ACDBASSOCVARIABLE
  5
4E4
102
{ACAD_REACTORS
330
4E5
102
}
330
323
100
AcDbAssocAction
 90
        2
 90
        0
330
323
360
0
 90
       65
 90
        1
 90
        0
 90
        0
 90
        0
 90
        0
 90
        0
100
AcDbAssocVariable
 90
        2
  1
d56
  1
entrada_alto
  1
AcDbCalc:1.0
  1

 40
4.7
290
     0
290
     0
 90
        1
360
4E9
 90
        0
  0
ACDBASSOCVARIABLE
  5
521
102
{ACAD_REACTORS
330
522
102
}
330
323
100
AcDbAssocAction
 90
        2
 90
        0
330
323
360
0
 90
       67
 90
        1
 90
        0
 90
        0
 90
        0
 90
        0
 90
        0
100
AcDbAssocVariable
 90
        2
  1
d44
  1
arco_largo
  1
AcDbCalc:1.0
  1

 40
10.325
290
     0
290
     0
 90
        1
360
557
 90
        0
  0
ACDBASSOCVARIABLE
  5
52B
102
{ACAD_REACTORS
330
52C
102
}
330
323
100
AcDbAssocAction
 90
        2
 90
        0
330
323
360
0
 90
       69
 90
        1
 90
        0
 90
        0
 90
        0
 90
        0
 90
        0
100
AcDbAssocVariable
 90
        2
  1
d46
  1
entrada_alto
  1
AcDbCalc:1.0
  1

 40
4.7
290
     0
290
     0
 90
        1
360
55A
 90
        0
  0
ACDBASSOCVARIABLE
  5
530
102
{ACAD_REACTORS
330
531
102
}
330
323
100
AcDbAssocAction
 90
        2
 90
        0
330
323
360
0
 90
       70
 90
        1
 90
        0
 90
        0
 90
        0
 90
        0
 90
        0
100
AcDbAssocVariable
 90
        2
  1
d47
  1
arco_largo
  1
AcDbCalc:1.0
  1

 40
10.325
290
     0
290
     0
 90
        1
360
556
 90
        0
  0
ACDBASSOCVARIABLE
  5
53C
102
{ACAD_REACTORS
330
53D
102
}
330
323
100
AcDbAssocAction
 90
        2
 90
        0
330
323
360
0
 90
       72
 90
        1
 90
        0
 90
        0
 90
        0
 90
        0
 90
        0
100
AcDbAssocVariable
 90
        2
  1
d49
  1
entrada_alto
  1
AcDbCalc:1.0
  1

 40
4.7
290
     0
290
     0
 90
        1
360
558
 90
        0
  0
XRECORD
  5
1FA
102
{ACAD_REACTORS
330
1F9
102
}
330
1F9
100
AcDbXrecord
280
     1
 70
     1
 90
429727718
  1
D62C5603-E3A1-4AEA-B7FB-FE5D8D0755AF
310
504B03040A0000080000CC70623B3DEE336E79000000790000001B0000006175746F6465736B2D64657369676E2D7061636B6167652E786D6C3C3F786D6C2076657273696F6E3D22312E302220656E636F64696E673D227574662D3822203F3E3C666F726D6174733E3C666F726D61743E687474703A2F2F736368656D612E
310
6175746F6465736B2E636F6D2F64657369676E2D7061636B6167652F323030393C2F666F726D61743E3C2F666F726D6174733E504B0304140006080800CC70623BD486FD9CA0000000F4000000130000005B436F6E74656E745F54797065735D2E786D6C7D8EC10E82300C865F65E91D8A1E8C310C0EEA1BF002731658846E
310
D98AC1B77784ABF1D8FE5FBFBF75BBCE937A534CCEB38643598122B6FEE978D0B0485F9C41B54DDD7D022595594E1A469170414C76A4D9A4D207E29CF43ECE46F218070CC6BECC4078ACAA135ACF422C856C0E68EA1BF5669944DDD7BCDE7B1F8E415D77AECB980613C2E4AC91FC167A2B244592486606FC29C8FD7F045B9A
310
EF7053A7E60B504B0304140006080800CC70623B853B8169EB0000007C01000008000000636F72652E786D6C8D90416EC3201045AF62CDB6C206821CC7C244919D9CA01740401C94182C03558F5F9C3852BBEB6A467FFE9B197D7EFC9E1EC5975982F5AE035262288C535E5B377690E21535501C055FBC8FBF6C503839990E
310
5619041F179FE64D52DE45E362569DD7661365082642A11EB9E920A89B99642953CC8E702F67A9EE7234257977194EC9EAE275C4EABCCF5EAD5940D4AC6F0E35A568B8F43562CD7046CD199FD07E60174276A7BE677B5EADB0E0D14EEFFB6A31321A0D82627C4084204C3F096B71DD52F6819B16635EADF63F509AF53FA164
310
5DDCD1EDDD17164090FCC8732078B56691CB33A85CD7DCC40F504B0304140006080800CC70623B55019EA25F0000007C00000007000000636E782E786D6C4DCB3B0E80201045D1AD90E915ED2CF8AC45050C11660C8261F98AB1B07AC9C97D42D718D865D3E909258CFD00CCE24AC6E326A164D74DC0B4128928FF32603847
310
2BA13128B1252AC747C6BAB984FC68F0B87FE8960A5C09FE86CFB69FBA01504B0304140006080800CC70623BDBABAAF470010000D40300000C0000006662782F636F72652E786D6CC553D16E823014FD95A6AF4B694182CC941A83FA05FB810A9511A125A5257EFE2E82712ECEB8A7F100CD39F7F69E734AF9FADC366850B6
310
AF8DCE7018308C942E4C59EB2AC3DE1D498AD15A706B8CFB56869196ADCAF00863C12B6B7C374385D14E6907A836A59A41D9F7CA615434B0C8705F7CAA5606D23BA8E84F41278B93AC54100640439DE0BDB320004D43C63716C7C399D30917DCFBBA9CD9BA8469F5B156168B24CED3F7248AC8769F27244EB73B92EED8862C
310
B7F13E0C179B3C8F979C8ECD82BBBABDAA2BAC924E9558448CBD9330242CFA08E3154B5651FCC6D215639C8EE5774DBE2B5F6CF2B5768B68963BB5F5588420E442FC700B1139D4CB01F450C1E918227C2E09DF070D8140C84E1E9AAB8F1340832A9CB13130A5F1376A908D57309505ECF2A0DF179C4E9D30F5B239B87E3823
310
7A79C6F31DE1A8A5AEC08474B03C7837EAE4938639B44E5932B833D2C6B6B279CDC613877FA26EE21F4A2A4C63EC7F29A2F301D1F9F7A0E37D145F504B0304140006080800CC70623B9C113CC27E0000009D0000000B0000006662782F636E782E786D6C4DCCDF0A83201C86E15B91DFB94BFB330DD428C8FB886521330DA7
310
6397BF1A1DECE883878F57749FCDA1B7892F1BBC047A23808C7F84D9FA55424E0BE6803A256208E9EF06C84F9B91703228B1C690F78B66B34CD9A5439DF5CF0BFBF65E35BCA1B8D6A5C6F540381E886698B5741C695F9503EBA150A2F8958E3DC3EA0B504B0304140006080800CC70623B7DF2F77C2A010000120200003100
310
00006662782F41393633353835312D344632462D344230382D423046372D3739314545314133324237412F636F72652E786D6C8D51DB8EC22014FC15C2939B0D2DB4B45643319AE817EC0F6041255A68B86CFCFC856D4D76DF7CE190393373060EDB3DC707F856CE6B6B7A480A0C81328395DA5C7B18C3057510EC3873D686
310
3F34088C18550F330C39BB3A1BA7051AAC09CA84841A2BD5020AEF55806078A44B0FFD7053A328440C89E1EFC52486BBB8AA8214A99D789CF9E05200300FC927E4FB4D5B375D43103D5527440FB843077C5AA3F5861C8F645F5787F59E95B390B318B55CE45AA638FAA2957BD7248B390B7A7CC51F9C124149C82B8C378810
310
84AB2F42B7B8DD56F413775B8C5999E9FF4471926F8AA236A1AE96B8B3CC434E5839373893369E1FAF30EA395917409EB7F26AF8801C171837A4A6AC9C89E9F9C9B1A58BA30FD6A5EF5DDDCF894B9AD9B6A59C957943A9FCAE2FD5BC4DFE03504B0304140006080800CC70623BAD7543B64E01000033030000300000006662
310
782F41393633353835312D344632462D344230382D423046372D3739314545314133324237412F636E782E786D6CD593CD6EC32010845F0571AD6CE3D48AD20813A9873E410FBD12D82434182C7EAAE6EDBB2424CD25871E7B41D6EC30B3FA84F9E67BB2E40B4234DE8DB46F1925E094D7C6ED479AD3AE5951B2113C789FEE
310
6C943839C1488B4C05DF079FE72A69D8C96C13AAD6B8631503449F83828872B949AC57D26200B826A308D316B4064D6E46FCDA41C05550DC9E483A00797BFD207EFB092A45DE9514C1BBD22178396BD39D891265658C238DEA00936C654E5E433CB65A26D9F6EDB5EBC14EBF49A45CB856E66048291F6939A9A81BB5C89177
310
38143CA680F4AA299D66A042CEB3354A2684DC9D8D178FE0D9B8B41CAAD720F880EE7EF93C0C18769E099ECC04D5A102C8049A8A05632F4DDF376CF1DE0F6BB65C2F8627B65A33C6BB62177CEBBDAD973006829F89F22E814B54F4BC2BE347F8AA8F681390B50FA73F804400B5F542E796F19FF974E7F78DB802FE05E20750
310
4B0304140006080800CC70623BE75B7789680500003C100000340000006662782F41393633353835312D344632462D344230382D423046372D3739314545314133324237412F6F626A656374732E786D6CAD575B8F9B3818FD2B887D06C22499CB8AA1CA655245D5B455A356FB305264C061D8018C6C3393D95FBFC7600890
310
A4CD5EF210B0B1BFEBF98E3F7B1FF6596ABC522E1296DF9BAE3D320D9A872C4AF2F8DE2CE5CEBA358D0FBEC719939D65A691938CDE9B6ADAF4BD98B3B2D05311DD91329583D9D5FC0F438434A7A611A644887B5384CF34233629258BA878B12322891DEFF6B66BD70BFB62634E8AE781D082709A4B588AF91C528CDA28B73F
310
1C998EEF39EABBEFA97FBD6A7C7E9553F9D3D79FE442923C3C523610337627CB87ABE99D359D4CC6D6E4FACAB5E6ABF9D2726FC6A3C5F56271377BB88362213924694B38DD99FE47C48627A1E7D49F5A8BB5E1A74C0A599ED3B0F21F1E56366B89112D681E218F0915D0D6F17AD41FBA2A369DCF6335D62ABBD39779D5DDD1
310
11D4D8DE3CBB96B2E04FB8202E41051754A1AA8E8F76B4C6DFE810B580B1547F4B84911149794252234D024EF8BBE963A95AE27B3D310A9D5C215C7960FAEE415ED75694C6AFB17BCACA5D99A60A9AA65F217B0BFC53292ACB92BF283FAD0D3621576592CB5BED907C2FA8E9DF794E35E97BEA31BED21FEB401ABB94C44839
310
DCACBF0E1C5DA8DA5B2F4DFFD32AD86F543D9E565E7056502E157C00AD2671CD534549AB752FCA9CDA00677A313F04E51B22FF19E57B300579E3C97EB29F682D92935CEC18CF901B7B54FD8C51F362B56FC72FE0B3C1EAE335EDCCBF5AEC39ADB17DC238973F804BA5E6F6BFE7AF1FB32E523BE9F3BD571418E3631DCA4D48
310
5250CF639223210A9446CA30052EDF057BD35F8329C1ECD84552BF0DC8D18BE7BCE23BFE6BD960AB4A7DE79923A103BEBD80F911CBAA2C60DB19B01CF164A5583B772EE6D3FFA56666CBCDA74DC97724A48F9A58967497E489C4D979006FD7A05E227A1EBDD0F737C623387A9C844D3709995625106D157315F8B8392CD4E0
310
A0B9A720C4BE9829CEF37EA1E13111214D53925356365ADA634861B52519DD27A00AEB808EAF0628E6F435519D446F45CF2C9CF5214F0A15B2F6D06B79DA3EE3CBF7F56780D2F4E7EF73A0F5E5B02A38D07DC852C6B7C1FBB6664213E0C39E3EBA7FF4E1AD23EA2829407C85E586727488B751B2DB9502BC7B228A3FD68B6E
310
A65A22397E690AA8D158D7E404EC8CDA235CC3B7D1898680131CEC2CDF2638C65196279577750F15884AEE19F94199155B92B13297978469D4F8D358DF0AEF7631E28DC8F0D9F437D5D39A83B2231A1D52D543813A824EF8D44BCFF2FA6A31BD1E8DAD87F1CCB526B3879935BF59CDADD5C37479BB1CDD4CA7B3556B516589
310
EF352754B706114D9C885EC9131DE6EFEB43D99AFE2391C2F958179413D7CFEF6B1B6DB1E7600F00DE6E5C67454A339A4BA2E0FBA85ED26F045D454F463DBFCE484C2F90F2E5E3666003662ED8F755951A7D1BECD5B30B550B2785C8E7320B7292A4838DDA71BBC863ED7613CAF659337A3354231D4FF4A182A54904C2898C
310
98B28C4AD0CE056CCF332A80986E571EE9DBC305BB5FEB7E509220A58D25CF042D712A806AC0AD0C657FDEF80D2D9CEAA2EE4D1C76F60BFE74219A06527D6F82DF6412526107381E55E353090704D085B52408A8913C4ED159D79BDA71BB4BC506F4831350EB6F975CD22D69BF7AC49B91A2C0A9DDA3D5CA36AD20FC478E37
310
E61844E2352865EBCB61A275A65283CAAA9DD27703B4102F5AF51EF5F573B75CBB5AD38BC845F7A49F82A0966A49C2E3EA5EA0ECD326CD965F1DB402C6FA8B51A4658C5C5E2EC9E214602E55810345408596591009A82E7E7FFACA19EEA299B14A0081A705CB3296EBC14CDF658DCD336EA6D1136881AAEB87B81AB9EE53D5
310
F5EB8BC8362082DA24122F98680A4E7930C01A0079749CEA14382A0783E5EBA5A10F8C098456A03D6A4AEB6BB881E2513747552A5DB22C7EDAF83BD5528081A365F7FF06504B0304140006080000CC70623B000000000000000000000000350000006662782F41393633353835312D344632462D344230382D423046372D37
310
39314545314133324237412F76657274696365732E62696E504B0304140006080800CC70623BF270F1330600000004000000360000006662782F41393633353835312D344632462D344230382D423046372D3739314545314133324237412F747269616E676C65732E62696E636660600000504B0304140006080000CC7062
310
3B000000000000000000000000370000006662782F41393633353835312D344632462D344230382D423046372D3739314545314133324237412F617474726962757465732E62696E504B0304140006080800CC70623B08DA0BD19000000041010000360000006662782F41393633353835312D344632462D344230382D4230
310
46372D3739314545314133324237412F6469726563746F72792E786D6C858F410AC3201045AF22B36F53E9A60B35CBEEBAE80D244E44489C6234F4F835464A48035D0DF398FF9F8AF63D0E6CC63039F212F8F9020C7D47C6792B21C5FE7403D62A1188E2E60C98D7234A5830286103A55745067B9D86B8A3CF9C7F90C11DE6
310
07FB144396D7B6A82D282E9A152AD114D5EF2CB866EEE831B8EEA07A7BB5A8D7D61A2BAAEB7FD5F70921FF497D00504B0304140006080800CC70623BEDD1DC58FD000000A00100003B0000006662782F41393633353835312D344632462D344230382D423046372D3739314545314133324237412F7265736F75726365732F
310
636F72652E786D6C8D504B6E833010BD0A9A6D65B00922041947112427E8052C33A156828DFCA97AFC9A40A576D7CDCCE87D344F8F9FBFE667F689CE6B6B3A6039850C8DB2A336530731DC4903D95970676DF82583CCC8193B5861107C72362E3BA4AC096842428D1D7107A5F7182053CF7474E0D507CE32973124857FE48B
310
540F3961CEF244279DE03EB81420DB9EAC1384436FA353E879B1B182C7A8C75DA3C7F453DF353A1075D537A7BA6464B8F535A99AE14A9A2BBD90E350DD183B5CFABE3AF262350B1EF4FC9351399401471025A527C218A1E53BAB5A5AB765F5469B96525EACF23FA6B88CFF34456DC2A1DCE36E360F82A5202F42F062ED2BAD
310
579969AFDD8A6F504B010214000A0000080000CC70623B3DEE336E79000000790000001B00000000000000000000000000000000006175746F6465736B2D64657369676E2D7061636B6167652E786D6C504B01021400140006080800CC70623BD486FD9CA0000000F40000001300000000000000000000000000B20000005B
310
436F6E74656E745F54797065735D2E786D6C504B01021400140006080800CC70623B853B8169EB0000007C010000080000000000000000000000000083010000636F72652E786D6C504B01021400140006080800CC70623B55019EA25F0000007C000000070000000000000000000000000094020000636E782E786D6C504B
310
01021400140006080800CC70623BDBABAAF470010000D40300000C00000000000000000000000000180300006662782F636F72652E786D6C504B01021400140006080800CC70623B9C113CC27E0000009D0000000B00000000000000000000000000B20400006662782F636E782E786D6C504B01021400140006080800CC70
310
623B7DF2F77C2A010000120200003100000000000000000000000000590500006662782F41393633353835312D344632462D344230382D423046372D3739314545314133324237412F636F72652E786D6C504B01021400140006080800CC70623BAD7543B64E010000330300003000000000000000000000000000D2060000
310
6662782F41393633353835312D344632462D344230382D423046372D3739314545314133324237412F636E782E786D6C504B01021400140006080800CC70623BE75B7789680500003C10000034000000000000000000000000006E0800006662782F41393633353835312D344632462D344230382D423046372D3739314545
310
314133324237412F6F626A656374732E786D6C504B01021400140006080000CC70623B0000000000000000000000003500000000000000000000000000280E00006662782F41393633353835312D344632462D344230382D423046372D3739314545314133324237412F76657274696365732E62696E504B01021400140006
310
080800CC70623BF270F133060000000400000036000000000000000000000000007B0E00006662782F41393633353835312D344632462D344230382D423046372D3739314545314133324237412F747269616E676C65732E62696E504B01021400140006080000CC70623B0000000000000000000000003700000000000000
310
000000000000D50E00006662782F41393633353835312D344632462D344230382D423046372D3739314545314133324237412F617474726962757465732E62696E504B01021400140006080800CC70623B08DA0BD1900000004101000036000000000000000000000000002A0F00006662782F41393633353835312D344632
310
462D344230382D423046372D3739314545314133324237412F6469726563746F72792E786D6C504B01021400140006080800CC70623BEDD1DC58FD000000A00100003B000000000000000000000000000E1000006662782F41393633353835312D344632462D344230382D423046372D3739314545314133324237412F7265
310
736F75726365732F636F72652E786D6C504B0506000000000E000E0080040000641100000000
  0
XRECORD
  5
1F8
102
{ACAD_REACTORS
330
1F7
102
}
330
1F7
100
AcDbXrecord
280
     1
 70
     1
 90
429727718
  1
30362254-06B7-45E0-A893-8CFA70E3D6BC
310
504B03040A0000080000CC70623B3DEE336E79000000790000001B0000006175746F6465736B2D64657369676E2D7061636B6167652E786D6C3C3F786D6C2076657273696F6E3D22312E302220656E636F64696E673D227574662D3822203F3E3C666F726D6174733E3C666F726D61743E687474703A2F2F736368656D612E
310
6175746F6465736B2E636F6D2F64657369676E2D7061636B6167652F323030393C2F666F726D61743E3C2F666F726D6174733E504B0304140006080800CC70623BD486FD9CA0000000F4000000130000005B436F6E74656E745F54797065735D2E786D6C7D8EC10E82300C865F65E91D8A1E8C310C0EEA1BF002731658846E
310
D98AC1B77784ABF1D8FE5FBFBF75BBCE937A534CCEB38643598122B6FEE978D0B0485F9C41B54DDD7D022595594E1A469170414C76A4D9A4D207E29CF43ECE46F218070CC6BECC4078ACAA135ACF422C856C0E68EA1BF5669944DDD7BCDE7B1F8E415D77AECB980613C2E4AC91FC167A2B244592486606FC29C8FD7F045B9A
310
EF7053A7E60B504B0304140006080800CC70623B1EC5D7A3EB0000007C01000008000000636F72652E786D6C8D90416EC3201045AF82665B6103C6756C6122AB4D4ED00B204C5C94182C03558F5F9C3852BBEB6A467FFE9B197D71FC9E6FE8CBACC17AD7032D0820E3B41FAD9B7A48F1820F808E52ACDEC75F36404ECDA687
310
4D0629A6D5A76597B477D1B89855E747B38B2A041301E95B6E7A08FAD3CCAA50296647B8168BD2573599823EBB0CA76447F43862C7BCCF5EAC59410E4DDD9C7973C2755553CCCFA4C603E3040F1565ED3B1FDE4E432BCA0D9622DAF9795FAF464533826484B498524CD807E51D79ED187F21878E10516EF63F505AC67F42C9
310
BA58B1FDDD071640D2FCC87D2045B96591CB3DA85CB7DCE40F504B0304140006080800CC70623B55019EA25F0000007C00000007000000636E782E786D6C4DCB3B0E80201045D1AD90E915ED2CF8AC45050C11660C8261F98AB1B07AC9C97D42D718D865D3E909258CFD00CCE24AC6E326A164D74DC0B4128928FF32603847
310
2BA13128B1252AC747C6BAB984FC68F0B87FE8960A5C09FE86CFB69FBA01504B0304140006080800CC70623B8C9102E971010000D40300000C0000006662782F636F72652E786D6CC5535B6E833010BC8AE5DF0A6C08340F1947A84D4ED00B38C6A128602363A31CBFCB234A53A551FA553EC09AD9F5CE8C31DB9E9B1AF5CA
310
7695D1198E428A91D2D214952E33ECDD315861B4E5CC1AE3BE9561A445A3323CC098B3D21ADFCE9034DA29ED00D5A6503328BA4E398C640D8B0C77F253352214DE4145770A5B214FA2546114020D759C75CE8200340D19DE981F0F6746269C33EFAB6266AB02A655C74A59CCF365BADC27CB5D902ED22848F6340DF238A141
310
BE88E2F57B92BFEDF23523433367AE6A2EEAA455C2A902F398D2751045018D3FA264435F3771F242571B4A1919CA6F9A7C5B3CD9E42BED16F12C776AEB308F40C848FC700B1139D4891EF410CEC810227CC6846F8386402064270EF5C5C709A05E49676C024C61FC95EA45ED154CA5211D1FF4FB8291A913A68E9B83EBBB33
310
E2A7673CDE118E5AE8124C0807CB8377834E366998436B950D7A7746DAD846D4CFD978E0F04FD455FC5D49D2D4C6FE9722321F10997F0F32DC47FE05504B0304140006080800CC70623BFFEA85907E0000009D0000000B0000006662782F636E782E786D6C4DCCD10A83201886E15B91FFDC95D95A811AB6F23E625948A6C3
310
E9D8E5AF46073BFAE0E1E365ED67B3E8ADC3CB78C7815C7240DA3DFC64DCC221C519D7805AC182F7F1EF06C88D9BE6703008B6049F9E274D7A1E938DBB5AE3D6131B2589BA0D3D965551E0B2EA732C9B9A624AAEB41E3A557677029960D9AFB4EF11165F504B0304140006080800CC70623B4FEEA4082C0100001202000031
310
0000006662782F39464131463745442D413632322D343644302D413938332D3331353338454246344243312F636F72652E786D6C8D515B6EC32010BC0AE2AB55850DD871ED0813254D72825EC00192A2C460F1A872FC42ED48ED5F7E00CDCECCCEB26C731F6FE05B39AFADE921293004CA082BB5B9F43086336A21D870E6AC
310
0D7F68109861543DCC30E4ECE26C9C164858139409093556AA051CBC570102714B8F1E7AF1A5C6A11862480C7F2DA6415C878B2A4891CA89C7990F2E050073937C42DE1DB7E4F87ED8A36D4329AA9B3D46DBAEAD504556557BD81DEBDD0761E52CE42C462D17B996298E3E6BE59E35C962CE821E1FF18553435012728A7187
310
0841987E927A8D9B35ADDF70BBC6989599FE4F1427F9A4286A132ABAC49D651EF234CD5CE04CDA78BA3DC2A8FB645D00B9DF8B57E215725C60BCA2A463E54C4CE327C7A65E1C7DB02E7DEFCBF594B864C5CA6CDBD49C957943E9FA5D5FBAF336F90F504B0304140006080800CC70623BAD7543B64E01000033030000300000
310
006662782F39464131463745442D413632322D343644302D413938332D3331353338454246344243312F636E782E786D6CD593CD6EC32010845F0571AD6CE3D48AD20813A9873E410FBD12D82434182C7EAAE6EDBB2424CD25871E7B41D6EC30B3FA84F9E67BB2E40B4234DE8DB46F1925E094D7C6ED479AD3AE5951B2113C
310
789FEE6C943839C1488B4C05DF079FE72A69D8C96C13AAD6B8631503449F83828872B949AC57D26200B826A308D316B4064D6E46FCDA41C05550DC9E483A00797BFD207EFB092A45DE9514C1BBD22178396BD39D891265658C238DEA00936C654E5E433CB65A26D9F6EDB5EBC14EBF49A45CB856E66048291F6939A9A81BB5
310
C8917738143CA680F4AA299D66A042CEB3354A2684DC9D8D178FE0D9B8B41CAAD720F880EE7EF93C0C18769E099ECC04D5A102C8049A8A05632F4DDF376CF1DE0F6BB65C2F8627B65A33C6BB62177CEBBDAD973006829F89F22E814B54F4BC2BE347F8AA8F681390B50FA73F804400B5F542E796F19FF974E7F78DB802FE05
310
E207504B0304140006080800CC70623B16AB87BA640500003C100000340000006662782F39464131463745442D413632322D343644302D413938332D3331353338454246344243312F6F626A656374732E786D6CAD575B6FA33818FD2B887DE6924B3BED8A326A92B68A663B534DD4D13E548A0C38942D60649B369D5FBFC7
310
600890A493BDE42160637FD7F31D7FF63E6FB3D478A55C242CBF3247B66B1A340F5994E4F19559CA8D75611A9F7D8F33263BCB4C232719BD32D5B4E97B316765A1A722BA21652A07B3B7B33F0D11D29C9A46981221AE4C113ED38CD8A4942CA2E2C58E882476BCD9DA23BB5ED8171B73523C0F841684D35CC252CCE79062D4
310
468DFA43D7747CCF51DF7D4FFDEB5593E3AB9CCA9FBEFE241792E4E19EB28198C968BAB8199F5D5A67D3E9C49A9E8F47D6EC76B6B0469F26EEFC7C3EBFBCBEB98462213924694B38DD98FE1D62C393D073EA4FADC5DAF04326852CCF6958F90F0F2B9BB5C48816348F90C7840A68EB78EDF68723159BCEE7891A6B95DDE9D3
310
BCEAEEE8086A6C6F9E5D4B59F0175C10A7A0820BAA5055C7473B5AE3CFDD452D602CD5DF12616444529E90D448938013FE6EFA58AA96F85E4F8C42275708571E98FE6827AF6B2B4AE3D7D83D64E5A64C53054DD3AF90BD06FEA9149565C94FCA0F6B834DC85599E4F2423B24DF0B6AFA979E534DFA9E7A4CC6FA631D486393
310
921829879BF5D781A373557BCB85E97FB90DB62B558F8795179C15944B051F40AB495CF35451D26A4727654E6D8033BD98EF82F21D91FF8AF2DD9982BCF1643BDD4EB516C9492E368C67C88DED563FC36D5EACF66DFF057C3658BDBFA69DF9578B3DA735B64F18C7F20770A9D45CFCF7FCF563D6456A277DBEF78A02637CA2
310
43B90A490AEAB94F72244481D24819A6C0E59B606BFA4B3025981DBB48EAB701D97BF19C577CC77F2D1B6C55A9EF3C732474C0B727303F625995056C3B02963D9EAC146BE78EC5FCEC7FA999EBC5EACBAAE41B12D27B4D2C0BBA49F244E2ECDC81B76B502F113D8F5EE8FB1BE3111CDD4FC2AA9B844CAB1288B68AB90A7CDC
310
1C166AB0D3DC5310625FCC14E779BFD0709F8890A629C9292B1B2DED31A4B0DA928CEE135085754027E3018A397D4D5427D15BD1330B677DC8934285AC3DF45A9EB68FF8F2B8FC0A509AFEECFD0FF2DE25CC6047F7214B195F07EFEB9A094D800F7BFAE8FED187B78EA8A3A400F115961BCAD1215E47C966530AF0EE8128FE
310
58CEBB996A8964FFA529A046635D9353B0336A8F700DDF46271A024E70B0B37C9DE01847591E54DED53D54202AB947E4076556AC49C6CA5C9E1226B7F1A7B1BE15DEED62C41B91E1B3E9AFAAA735036547343A925075041DF0A9979E893B391F8FCFA6967B3EFB644DCF6E5CEBFAE272625DCC6FAF3FB93793C5F90CE1EF57
310
407342756B10D1C489E8953CD1617E5CEECAD6F4EF8914CE5D5D504E5C3F1F9736DA62CFC11E00BCDDB8CC8A9466349744C1F75EBDA4DF09BA8A9E8C7A7E9991989E20E5DBDD6A6003664ED8F7A04A8DBE0DF6EAD9B9AA858342E47399053949D2C146EDB85DE4B176BB0965FBAC19BD19AA918E27FA50C1D22402E144464C
310
59462568E704B6E71915404CB72B8FF4EDE184DDAF753F284990D2C6926782963815403548A70C657FDEF80D2D9CEAA2AE4C1C76F60BFE74219A06527D6582DF6412526107381E55E353090704D085B52408D0933C4ED159D79BDA71BB4BC506F4831350EB6F979CD22D69BF7AC49B91A2C0A9DDA3D5CA36AD20FC478E37E6
310
1844E2352865EBCB6EA275A652E3836BE04EFB400BF1A2556F515F1FBB35B2AB35BD889C744FFA1004B5544B121E57F70215746DD2F5E2C1412B602CBF19455AC6C8E5E9922C4E01E65215385004546899059180EAFCF7A707CE7017CD8CDB0410789AB32C63B91E5CEBBBACB17AC6CD347A022D5075FD106377347AAABA7E
310
7D11590744509B44E205134DC1290F06580320F78E537D3D73540E06CB970B431F185308AD40BBD794D6D77003C5A36E8EAA54BA64597CD8F83BD552A080A365F7FF06504B0304140006080000CC70623B000000000000000000000000350000006662782F39464131463745442D413632322D343644302D413938332D3331
310
353338454246344243312F76657274696365732E62696E504B0304140006080800CC70623BF270F1330600000004000000360000006662782F39464131463745442D413632322D343644302D413938332D3331353338454246344243312F747269616E676C65732E62696E636660600000504B0304140006080000CC70623B
310
000000000000000000000000370000006662782F39464131463745442D413632322D343644302D413938332D3331353338454246344243312F617474726962757465732E62696E504B0304140006080800CC70623B08DA0BD19000000041010000360000006662782F39464131463745442D413632322D343644302D413938
310
332D3331353338454246344243312F6469726563746F72792E786D6C858F410AC3201045AF22B36F53E9A60B35CBEEBAE80D244E44489C6234F4F835464A48035D0DF398FF9F8AF63D0E6CC63039F212F8F9020C7D47C6792B21C5FE7403D62A1188E2E60C98D7234A5830286103A55745067B9D86B8A3CF9C7F90C11DE607
310
FB144396D7B6A82D282E9A152AD114D5EF2CB866EEE831B8EEA07A7BB5A8D7D61A2BAAEB7FD5F70921FF497D00504B0304140006080800CC70623B0D6EF93BFE000000A00100003B0000006662782F39464131463745442D413632322D343644302D413938332D3331353338454246344243312F7265736F75726365732F63
310
6F72652E786D6C8D50596E833010BD0A9ADFCA60B334011947A8694ED00B586642AC041B79A97AFC9A40A5F6AF3F33A3B7689E1E3F7DCD8FEC139DD7D6F4C0720A191A65476DA61E62B892236427C19DB5E1970C322367EC618541F0C9D9B8EC90B226A009093576C41D94DE63804C3DD2D18357379C652E63480A7FCF17A9
310
EE72C29CE5894E3AC17D702940B63D59270887DE46A7D0F36263058F518FBB468FE9A7BE6A7420864373B8D4873369AA8691FA421B3294352543C5CAF65C0F6FEF43CB8BD52C78D0F34F46E550061C419494B6843142CB0F5677F4B52BEB177AEC28E5C52AFF638ACBF84F53D42654E51E77B379102C05791282176B5F693D
310
CB4C7BED567C03504B010214000A0000080000CC70623B3DEE336E79000000790000001B00000000000000000000000000000000006175746F6465736B2D64657369676E2D7061636B6167652E786D6C504B01021400140006080800CC70623BD486FD9CA0000000F40000001300000000000000000000000000B20000005B
310
436F6E74656E745F54797065735D2E786D6C504B01021400140006080800CC70623B1EC5D7A3EB0000007C010000080000000000000000000000000083010000636F72652E786D6C504B01021400140006080800CC70623B55019EA25F0000007C000000070000000000000000000000000094020000636E782E786D6C504B
310
01021400140006080800CC70623B8C9102E971010000D40300000C00000000000000000000000000180300006662782F636F72652E786D6C504B01021400140006080800CC70623BFFEA85907E0000009D0000000B00000000000000000000000000B30400006662782F636E782E786D6C504B01021400140006080800CC70
310
623B4FEEA4082C0100001202000031000000000000000000000000005A0500006662782F39464131463745442D413632322D343644302D413938332D3331353338454246344243312F636F72652E786D6C504B01021400140006080800CC70623BAD7543B64E010000330300003000000000000000000000000000D5060000
310
6662782F39464131463745442D413632322D343644302D413938332D3331353338454246344243312F636E782E786D6C504B01021400140006080800CC70623B16AB87BA640500003C1000003400000000000000000000000000710800006662782F39464131463745442D413632322D343644302D413938332D3331353338
310
454246344243312F6F626A656374732E786D6C504B01021400140006080000CC70623B0000000000000000000000003500000000000000000000000000270E00006662782F39464131463745442D413632322D343644302D413938332D3331353338454246344243312F76657274696365732E62696E504B01021400140006
310
080800CC70623BF270F133060000000400000036000000000000000000000000007A0E00006662782F39464131463745442D413632322D343644302D413938332D3331353338454246344243312F747269616E676C65732E62696E504B01021400140006080000CC70623B0000000000000000000000003700000000000000
310
000000000000D40E00006662782F39464131463745442D413632322D343644302D413938332D3331353338454246344243312F617474726962757465732E62696E504B01021400140006080800CC70623B08DA0BD190000000410100003600000000000000000000000000290F00006662782F39464131463745442D413632
310
322D343644302D413938332D3331353338454246344243312F6469726563746F72792E786D6C504B01021400140006080800CC70623B0D6EF93BFE000000A00100003B000000000000000000000000000D1000006662782F39464131463745442D413632322D343644302D413938332D3331353338454246344243312F7265
310
736F75726365732F636F72652E786D6C504B0506000000000E000E0080040000641100000000
  0
XRECORD
  5
175
102
{ACAD_REACTORS
330
173
102
}
330
173
100
AcDbXrecord
280
     1
270
     1
271
     1
  0
XRECORD
  5
174
102
{ACAD_REACTORS
330
173
102
}
330
173
100
AcDbXrecord
280
     1
270
     1
271
     1
  0
XRECORD
  5
1FB
102
{ACAD_REACTORS
330
173
102
}
330
173
100
AcDbXrecord
280
     1
 70
     0
 90
1673772943
  1
ECE7A1D2-D628-4531-984C-D00F80459256
310
504B03040A0000080000CC70623B3DEE336E79000000790000001B0000006175746F6465736B2D64657369676E2D7061636B6167652E786D6C3C3F786D6C2076657273696F6E3D22312E302220656E636F64696E673D227574662D3822203F3E3C666F726D6174733E3C666F726D61743E687474703A2F2F736368656D612E
310
6175746F6465736B2E636F6D2F64657369676E2D7061636B6167652F323030393C2F666F726D61743E3C2F666F726D6174733E504B0304140006080800CC70623BD486FD9CA0000000F4000000130000005B436F6E74656E745F54797065735D2E786D6C7D8EC10E82300C865F65E91D8A1E8C310C0EEA1BF002731658846E
310
D98AC1B77784ABF1D8FE5FBFBF75BBCE937A534CCEB38643598122B6FEE978D0B0485F9C41B54DDD7D022595594E1A469170414C76A4D9A4D207E29CF43ECE46F218070CC6BECC4078ACAA135ACF422C856C0E68EA1BF5669944DDD7BCDE7B1F8E415D77AECB980613C2E4AC91FC167A2B244592486606FC29C8FD7F045B9A
310
EF7053A7E60B504B0304140006080800CC70623BD9DDAED0EC0000007C01000008000000636F72652E786D6C8D90416EC3201045AF82665B61836D9CD8C2444DD39CA01740405C94182C03558F5F9C3852BBEB6A467FFE9B197D7EF89E6EE8CB2CC17A37002D0820E394D7D68D03A478C17B4007C117EFE32F1B20272733C0
310
2A83E0E3E2D3BC49CABB685CCCAAF3DA6CA20CC14440EA969B0182FA34932C648AD911AEC52CD5558EA6A0CF2EC329598D1E47ACCEFBECC59A050463A7EA5833865FEBDD0E37353BE3EE8DBDE3F6786A48D375FBF6CC78B9C282473B3DEFABC5C86834888A900E538A49F5419B9EB47DD5BC907D4F082F57FB1F28CDFA9F50
310
B22ED6D5F6EE030B20687EE43E10BC5CB3C8E51E54AE6B6EE207504B0304140006080800CC70623B55019EA25F0000007C00000007000000636E782E786D6C4DCB3B0E80201045D1AD90E915ED2CF8AC45050C11660C8261F98AB1B07AC9C97D42D718D865D3E909258CFD00CCE24AC6E326A164D74DC0B4128928FF326038
310
472BA13128B1252AC747C6BAB984FC68F0B87FE8960A5C09FE86CFB69FBA01504B0304140006080800CC70623BA24EB22D72010000D40300000C0000006662782F636F72652E786D6CC5535B6E833010BC8AE5DF0A6C5E49888CA3A6694ED00B38E05014B091B1518EDFE511A5A9D228FD2A1F60CDEC7A67C6986DCE4D8D7A
310
69BA4AAB0C073EC548AA5C17952A33ECECD15B61B4E1CC686DBF9561A44423333CC098B3D268D7CE50AE9595CA02AA74216750749DB418E5352C32DCE59FB211BE70162ABA93DF8AFC244AE9073ED050C759670D0840D390E18DF9F1706664C23973AE2A66B62A605A75ACA4C13C4976E1364A12EF355A2EBD384AF65EFA96
310
BC7B8BED2EA6719AAE16FB8491A199335B351775B991C2CA02F390D2D40B028F861F41BCA68B7518BFD0D59A524686F29B26D7164F36B94AD9289CE54E6D1DE6010819891F6E21228B3AD1831EC219194284CF98F06DD01008846CC5A1BEF83801D4CBDC6A1303536877A57A513B0953A94FC707FDBE6064EA84A9E3E6E0FA
310
EE8CF0E9198F7784A316AA0413C2C2F2E0ECA0934D1AE6D05A69BCDE9E91D2A611F573361E38FC1375157F5752AE6B6DFE4B11990F88CCBF0719EE23FF02504B0304140006080800CC70623B408A7D3B7C0000009D0000000B0000006662782F636E782E786D6C4DCCD10A83201886E15B91FFDC552A92A0064DBC8F581632
310
D3703A76F9ABD1C18E3E78F878E5F0D9027ABBFCF2292AE86E2D20171F69F6715550CB827B40839639A5F2770314A7CD293819B45C73AAFB45B35BA61ACAA1C1C7E7855C58C15BC331339661262CC762340413D68D77DA5B42298546CBE6573AF60CEB2F504B0304140006080800CC70623B449FB9BD290100001202000031
310
0000006662782F36394639363044362D344446342D343946362D394244322D3234314243333846323333332F636F72652E786D6C8D515B6EC32010BC0AE22B55850D98B871848994463E412FE002495162B07854397EA176A4F62F3F2C9A9D991D587EB84F37F0AD7D30CEF6905418026DA553C65E7A98E219ED203808EE9D
310
8B7F6810D871D23D2C3014FCE25D9A57483A1BB58D19B54EE9151C43D0110279CB971E06F9A5A7B11A53CC8C70ADE6515EC78BAE4895DB992778883E0700CB907242D17643D7E2538BD869608875438BBAE38922CAC8F1BDD90DB4691A5E2F42C153326A951B95E398B3D1FE599322163C9AE9115F7A3D46ADA0A018778810
310
84E907617BDCEE297BC5BB3DC6BC2EF47FA234AB2745C9D8D8D035EE220B50105E2F0DC1954B9FB747187D9F9D8FA0CCDB042D5FA0C015C65B42DF78BD10F3F3B363CB56C7109DCFDFBBB97E662ED92EB62D13BC2E1BCAE5777DB9966D8A1F504B0304140006080800CC70623BAD7543B64E01000033030000300000006662
310
782F36394639363044362D344446342D343946362D394244322D3234314243333846323333332F636E782E786D6CD593CD6EC32010845F0571AD6CE3D48AD20813A9873E410FBD12D82434182C7EAAE6EDBB2424CD25871E7B41D6EC30B3FA84F9E67BB2E40B4234DE8DB46F1925E094D7C6ED479AD3AE5951B2113C789FEE
310
6C943839C1488B4C05DF079FE72A69D8C96C13AAD6B8631503449F83828872B949AC57D26200B826A308D316B4064D6E46FCDA41C05550DC9E483A00797BFD207EFB092A45DE9514C1BBD22178396BD39D891265658C238DEA00936C654E5E433CB65A26D9F6EDB5EBC14EBF49A45CB856E66048291F6939A9A81BB5C89177
310
38143CA680F4AA299D66A042CEB3354A2684DC9D8D178FE0D9B8B41CAAD720F880EE7EF93C0C18769E099ECC04D5A102C8049A8A05632F4DDF376CF1DE0F6BB65C2F8627B65A33C6BB62177CEBBDAD973006829F89F22E814B54F4BC2BE347F8AA8F681390B50FA73F804400B5F542E796F19FF974E7F78DB802FE05E20750
310
4B0304140006080800CC70623B8D05915C650500003B100000340000006662782F36394639363044362D344446342D343946362D394244322D3234314243333846323333332F6F626A656374732E786D6CAD575B6FA33814FE2B887D06429276DA1565D4266D158D3A339A6846FB502932E050B66023DB74D2FDF5FB190C01
310
9276B2973C046C8ECFF53B17071F77456EBD502133CEAE6CDF9DD81665314F32965ED995DA3A17B6F5310C04E7AA47665B8C14F4CAD6DB7618A48257A5D94AE89654B91AEDDEDDFC61C998326A5B714EA4BCB265FC440BE2924AF184CA6737218AB8E976E7FA6E4338649B0A523E8D98964450A6A029F619B8588D52FE7039
310
B1BD30F0F4F730D0FF866AF6369557DB33949F31A9088B0F848DD8CCFCF9F2767A76E99CCDE733677E3EF59D9BBB9BA5E37F984D16E78BC5E5F5ED25044B25C0C96822E8D60EEFE11B91C581D77CEA34368A1F5329E68CD1B8B61F16D63A1B8E092D294B10C78C4A48EB593D192E7DED9BDEE7995E1B91FDEDD3ACEA9FE831
310
6A756F9F7D4D79F4274C90A7A04248AA51D5F8C718DAE06FB2F75AC4796EBE65D22A88A22223B995679120E2D50E41AA49C260C046A35368846B0BECD0DFF3EBEB8AD4F835768F69B9ADF25C43D30E6B646F807FAA64AD59F61715C7A54127C4AACA98BA3006A9D792DAE165E0D59B61A01FB3A9F9D838D2DAE62445C86166
310
F37564E842E7DE6A69879FEEA2DD5AE7E371E1A5E025154AC307D06A03D73EB5978C58FFA4C8E9033066E0F3BD53BEC1F39F91BE7B55103791EDE6BBB991A2046172CB4581D8B893FA674DDA17A77B3B7C413D1B511FD2743BFF8A38F03A658705E3ADF8015C3A3417FF3D7E439FF591DA0B5F18BC20C1B8981957AE6392A3
310
F43C640C01D1A0B4728E2DD4F26DB4B3C3152A252A3B4E913CEC1C72F012782FF88EFF8637AA552DBEF76408E8A8DE9E50F9E1CB3A2DA0DB1B6039A893B56063DC5B3E3FFB5F72E67AB9FEB4AEC496C4F4C1149625DD662C53E89D7BF0F6151A046260D1337DFDC94502430F83B0EE07A130A224BCAD7DAE1D9FB6CD422FF6
310
920702629C4BB9AE79C12F243C6432A6794E18E5552BA56B431AAB5D91317302B2B071E86C3A42B1A02F999E24061403B5D0EB639195DA655DD3EBEAB4FB862DDF579F014AD0E73C22F99E28DA57FB98E75C6CA2D74D53086D600F4786E0FE3144B771A8A7B900F03594DB8A633CBC49B2EDB69228BB479CF863B5E807AAAB
310
23872F6DFEB4129B949CA33823F58830E86D65621E10047D9DB34D862E8EAC3C2ABC2F7B2C40D67CDFE01F5545B92105AF983AC54D93D69E56FB8E797F88913F898A9FEC705D3F9D1B54EC8426FB500D40A03BD0119B06E1B95DDC7EB8F6975367793EBD70E66733DFB9BC982F9CE564727731999F5D4ECFCE3B8D6A4DC2A0
310
6D50FD148437D110834A64C6CDDF57FBACB5C307A2A477DFE4939736CFEF2B175371E0E10CF0DD1D5C15654E0BCA14D1E87DD02FF93782A162C0A3D95F1524A52770F972BF1EE9809D13CE7DD599467F8ECE9ADD85CE85A34CD45355448C64F9E8A031DC2D596ACC6E5DD93D9B82DE2EF5CAF81363A8E47996A0DE24564A79
310
4115AACE09C55E14540231FDA13C319787134EBF34E3A022514E5B4D9E0826E25C02D5805B15ABE1BEF51B26383D445DD9E875EE33FE4C22DA16427D65A3BCA92CA6D28DD01DF5DC53330704308475351050232CCD31583787BA75774AFB06E5070DD0C8EF484E19968C5D83BA5B90B244D31E54D55A372320FE4786B7EA58
310
44E135AA5467CB7EA333A61683CC6A8C3257034C10CF46F40EF9F5BE59BE5BD30C3C72D235E95D10345C1D45445A5F0BB47E46A5EBE5570F9380B5FA629579952296A773720405982B9DE04011506178964401AA8BDF1FBF0A8EAB6861DD6580C0E38217056766716DAEB2D6FA0917D3E4116581EADB879C4E7CFFB11EFACD
310
3D641311495D92C8676CB409A72D18610D803CE8A626049E8EC1887CB5B44CC39883690DDA8399B4B9855B481E7D71D4A9D22F96E5BB73BF5793020C02137BF837504B0304140006080000CC70623B000000000000000000000000350000006662782F36394639363044362D344446342D343946362D394244322D32343142
310
43333846323333332F76657274696365732E62696E504B0304140006080800CC70623BF270F1330600000004000000360000006662782F36394639363044362D344446342D343946362D394244322D3234314243333846323333332F747269616E676C65732E62696E636660600000504B0304140006080000CC70623B0000
310
00000000000000000000370000006662782F36394639363044362D344446342D343946362D394244322D3234314243333846323333332F617474726962757465732E62696E504B0304140006080800CC70623B08DA0BD19000000041010000360000006662782F36394639363044362D344446342D343946362D394244322D
310
3234314243333846323333332F6469726563746F72792E786D6C858F410AC3201045AF22B36F53E9A60B35CBEEBAE80D244E44489C6234F4F835464A48035D0DF398FF9F8AF63D0E6CC63039F212F8F9020C7D47C6792B21C5FE7403D62A1188E2E60C98D7234A5830286103A55745067B9D86B8A3CF9C7F90C11DE607FB14
310
4396D7B6A82D282E9A152AD114D5EF2CB866EEE831B8EEA07A7BB5A8D7D61A2BAAEB7FD5F70921FF497D00504B0304140006080800CC70623BCA768048FE000000A00100003B0000006662782F36394639363044362D344446342D343946362D394244322D3234314243333846323333332F7265736F75726365732F636F72
310
652E786D6C8D50596E833010BD0A9ADFCA60D600328E9AA639412F609909B1126CE4A5EAF16B0295DABFFECC8CDEA2797AECF8353F924FB44E193D409E5248504B332A3D0D10FC95B4901C39B3C6F85F3248B49871801506CE266BC2B243D2688FDA47549B11775038871E12F988C7004EDE7016A9083E2ADC3D5D84BC8B09
310
D33C8D74D471E6BC8D0192EDC93A815B742658898E651BCB59086ADC356A8C3FD555A1055ED7E7E254D615792D0F075295F585746FF53B694EE78A565DD736979A65AB9933AFE69F8CD2A2F038022F28ED489E135A7CE4554F9BBEA85E68DB53CAB255FEC71496F19FA6A0B42F8B3DEE6673C0F318E4497096AD7DC5F52C33
310
EEB55BFE0D504B010214000A0000080000CC70623B3DEE336E79000000790000001B00000000000000000000000000000000006175746F6465736B2D64657369676E2D7061636B6167652E786D6C504B01021400140006080800CC70623BD486FD9CA0000000F40000001300000000000000000000000000B20000005B436F
310
6E74656E745F54797065735D2E786D6C504B01021400140006080800CC70623BD9DDAED0EC0000007C010000080000000000000000000000000083010000636F72652E786D6C504B01021400140006080800CC70623B55019EA25F0000007C000000070000000000000000000000000095020000636E782E786D6C504B0102
310
1400140006080800CC70623BA24EB22D72010000D40300000C00000000000000000000000000190300006662782F636F72652E786D6C504B01021400140006080800CC70623B408A7D3B7C0000009D0000000B00000000000000000000000000B50400006662782F636E782E786D6C504B01021400140006080800CC70623B
310
449FB9BD290100001202000031000000000000000000000000005A0500006662782F36394639363044362D344446342D343946362D394244322D3234314243333846323333332F636F72652E786D6C504B01021400140006080800CC70623BAD7543B64E010000330300003000000000000000000000000000D20600006662
310
782F36394639363044362D344446342D343946362D394244322D3234314243333846323333332F636E782E786D6C504B01021400140006080800CC70623B8D05915C650500003B10000034000000000000000000000000006E0800006662782F36394639363044362D344446342D343946362D394244322D32343142433338
310
46323333332F6F626A656374732E786D6C504B01021400140006080000CC70623B0000000000000000000000003500000000000000000000000000250E00006662782F36394639363044362D344446342D343946362D394244322D3234314243333846323333332F76657274696365732E62696E504B010214001400060808
310
00CC70623BF270F13306000000040000003600000000000000000000000000780E00006662782F36394639363044362D344446342D343946362D394244322D3234314243333846323333332F747269616E676C65732E62696E504B01021400140006080000CC70623B00000000000000000000000037000000000000000000
310
00000000D20E00006662782F36394639363044362D344446342D343946362D394244322D3234314243333846323333332F617474726962757465732E62696E504B01021400140006080800CC70623B08DA0BD190000000410100003600000000000000000000000000270F00006662782F36394639363044362D344446342D
310
343946362D394244322D3234314243333846323333332F6469726563746F72792E786D6C504B01021400140006080800CC70623BCA768048FE000000A00100003B000000000000000000000000000B1000006662782F36394639363044362D344446342D343946362D394244322D3234314243333846323333332F7265736F
310
75726365732F636F72652E786D6C504B0506000000000E000E0080040000621100000000
  0
XRECORD
  5
176
102
{ACAD_REACTORS
330
173
102
}
330
173
100
AcDbXrecord
280
     1
270
     1
271
     1
  0
XRECORD
  5
177
102
{ACAD_REACTORS
330
173
102
}
330
173
100
AcDbXrecord
280
     1
270
     1
271
     1
  0
CELLSTYLEMAP
  5
58C
102
{ACAD_REACTORS
330
162
102
}
330
162
100
AcDbCellStyleMap
 90
        3
300
CELLSTYLE
  1
TABLEFORMAT_BEGIN
 90
        5
170
     1
 91
        0
 92
    32768
 62
   257
 93
        1
300
CONTENTFORMAT
  1
CONTENTFORMAT_BEGIN
 90
        0
 91
        0
 92
      512
 93
        0
300

 40
0.0
140
1.0
 94
        5
 62
     0
340
11
144
6.0
309
CONTENTFORMAT_END
171
     1
301
MARGIN
  1
CELLMARGIN_BEGIN
 40
1.5
 40
1.5
 40
1.5
 40
1.5
 40
4.5
 40
4.5
309
CELLMARGIN_END
 94
        6
 95
        1
302
GRIDFORMAT
  1
GRIDFORMAT_BEGIN
 90
        0
 91
        1
 62
     0
 92
       -2
340
14
 93
        0
 40
1.125
309
GRIDFORMAT_END
 95
        2
302
GRIDFORMAT
  1
GRIDFORMAT_BEGIN
 90
        0
 91
        1
 62
     0
 92
       -2
340
14
 93
        0
 40
1.125
309
GRIDFORMAT_END
 95
        4
302
GRIDFORMAT
  1
GRIDFORMAT_BEGIN
 90
        0
 91
        1
 62
     0
 92
       -2
340
14
 93
        0
 40
1.125
309
GRIDFORMAT_END
 95
        8
302
GRIDFORMAT
  1
GRIDFORMAT_BEGIN
 90
        0
 91
        1
 62
     0
 92
       -2
340
14
 93
        0
 40
1.125
309
GRIDFORMAT_END
 95
       16
302
GRIDFORMAT
  1
GRIDFORMAT_BEGIN
 90
        0
 91
        1
 62
     0
 92
       -2
340
14
 93
        0
 40
1.125
309
GRIDFORMAT_END
 95
       32
302
GRIDFORMAT
  1
GRIDFORMAT_BEGIN
 90
        0
 91
        1
 62
     0
 92
       -2
340
14
 93
        0
 40
1.125
309
GRIDFORMAT_END
309
TABLEFORMAT_END
  1
CELLSTYLE_BEGIN
 90
        1
 91
        1
300
_TITLE
309
CELLSTYLE_END
300
CELLSTYLE
  1
TABLEFORMAT_BEGIN
 90
        5
170
     1
 91
        0
 92
        0
 62
   257
 93
        1
300
CONTENTFORMAT
  1
CONTENTFORMAT_BEGIN
 90
        0
 91
        0
 92
      512
 93
        0
300

 40
0.0
140
1.0
 94
        5
 62
     0
340
11
144
4.5
309
CONTENTFORMAT_END
171
     1
301
MARGIN
  1
CELLMARGIN_BEGIN
 40
1.5
 40
1.5
 40
1.5
 40
1.5
 40
4.5
 40
4.5
309
CELLMARGIN_END
 94
        6
 95
        1
302
GRIDFORMAT
  1
GRIDFORMAT_BEGIN
 90
        0
 91
        1
 62
     0
 92
       -2
340
14
 93
        0
 40
1.125
309
GRIDFORMAT_END
 95
        2
302
GRIDFORMAT
  1
GRIDFORMAT_BEGIN
 90
        0
 91
        1
 62
     0
 92
       -2
340
14
 93
        0
 40
1.125
309
GRIDFORMAT_END
 95
        4
302
GRIDFORMAT
  1
GRIDFORMAT_BEGIN
 90
        0
 91
        1
 62
     0
 92
       -2
340
14
 93
        0
 40
1.125
309
GRIDFORMAT_END
 95
        8
302
GRIDFORMAT
  1
GRIDFORMAT_BEGIN
 90
        0
 91
        1
 62
     0
 92
       -2
340
14
 93
        0
 40
1.125
309
GRIDFORMAT_END
 95
       16
302
GRIDFORMAT
  1
GRIDFORMAT_BEGIN
 90
        0
 91
        1
 62
     0
 92
       -2
340
14
 93
        0
 40
1.125
309
GRIDFORMAT_END
 95
       32
302
GRIDFORMAT
  1
GRIDFORMAT_BEGIN
 90
        0
 91
        1
 62
     0
 92
       -2
340
14
 93
        0
 40
1.125
309
GRIDFORMAT_END
309
TABLEFORMAT_END
  1
CELLSTYLE_BEGIN
 90
        2
 91
        1
300
_HEADER
309
CELLSTYLE_END
300
CELLSTYLE
  1
TABLEFORMAT_BEGIN
 90
        5
170
     1
 91
        0
 92
        0
 62
   257
 93
        1
300
CONTENTFORMAT
  1
CONTENTFORMAT_BEGIN
 90
        0
 91
        0
 92
      512
 93
        0
300

 40
0.0
140
1.0
 94
        2
 62
     0
340
11
144
4.5
309
CONTENTFORMAT_END
171
     1
301
MARGIN
  1
CELLMARGIN_BEGIN
 40
1.5
 40
1.5
 40
1.5
 40
1.5
 40
4.5
 40
4.5
309
CELLMARGIN_END
 94
        6
 95
        1
302
GRIDFORMAT
  1
GRIDFORMAT_BEGIN
 90
        0
 91
        1
 62
     0
 92
       -2
340
14
 93
        0
 40
1.125
309
GRIDFORMAT_END
 95
        2
302
GRIDFORMAT
  1
GRIDFORMAT_BEGIN
 90
        0
 91
        1
 62
     0
 92
       -2
340
14
 93
        0
 40
1.125
309
GRIDFORMAT_END
 95
        4
302
GRIDFORMAT
  1
GRIDFORMAT_BEGIN
 90
        0
 91
        1
 62
     0
 92
       -2
340
14
 93
        0
 40
1.125
309
GRIDFORMAT_END
 95
        8
302
GRIDFORMAT
  1
GRIDFORMAT_BEGIN
 90
        0
 91
        1
 62
     0
 92
       -2
340
14
 93
        0
 40
1.125
309
GRIDFORMAT_END
 95
       16
302
GRIDFORMAT
  1
GRIDFORMAT_BEGIN
 90
        0
 91
        1
 62
     0
 92
       -2
340
14
 93
        0
 40
1.125
309
GRIDFORMAT_END
 95
       32
302
GRIDFORMAT
  1
GRIDFORMAT_BEGIN
 90
        0
 91
        1
 62
     0
 92
       -2
340
14
 93
        0
 40
1.125
309
GRIDFORMAT_END
309
TABLEFORMAT_END
  1
CELLSTYLE_BEGIN
 90
        3
 91
        2
300
_DATA
309
CELLSTYLE_END
  0
ACDBASSOCVALUEDEPENDENCY
  5
3C1
330
33D
100
AcDbAssocDependency
 90
        2
 90
        0
290
     1
290
     0
290
     1
290
     1
 90
        0
330
327
290
     0
330
0
330
3C2
360
0
 90
        1
100
AcDbAssocValueDependency
 90
        0
  1

 40
8.5
  0
ACDBASSOCVALUEDEPENDENCY
  5
34D
330
341
100
AcDbAssocDependency
 90
        2
 90
        0
290
     1
290
     0
290
     1
290
     1
 90
        0
330
34C
290
     0
330
0
330
0
360
0
 90
       11
100
AcDbAssocValueDependency
 90
        0
  1

 40
8.5
  0
ACDBASSOCVALUEDEPENDENCY
  5
3BE
330
341
100
AcDbAssocDependency
 90
        2
 90
        0
290
     1
290
     0
290
     1
290
     1
 90
        0
330
3BD
290
     0
330
0
330
0
360
0
 90
       66
100
AcDbAssocValueDependency
 90
        0
  1

 40
8.5
  0
ACDBASSOCDEPENDENCY
  5
43E
330
341
100
AcDbAssocDependency
 90
        2
 90
        0
290
     0
290
     1
290
     1
290
     1
 90
        0
330
43B
290
     0
330
0
330
0
360
43F
 90
      113
  0
ACDBASSOCVALUEDEPENDENCY
  5
3B8
330
341
100
AcDbAssocDependency
 90
        2
 90
        0
290
     1
290
     0
290
     1
290
     1
 90
        0
330
3B7
290
     0
330
0
330
0
360
0
 90
       64
100
AcDbAssocValueDependency
 90
        0
  1

 40
8.5
  0
ACDBASSOCGEOMDEPENDENCY
  5
343
330
341
100
AcDbAssocDependency
 90
        2
 90
        0
290
     1
290
     1
290
     1
290
     1
 90
   -10000
330
31E
290
     0
330
0
330
34A
360
0
 90
        2
100
AcDbAssocGeomDependency
 90
        0
290
     1
  1
AcDbAssocEdgePersSubentId
 90
        0
 90
        3
 90
        1
290
     0
  0
ACDBASSOCVALUEDEPENDENCY
  5
444
330
341
100
AcDbAssocDependency
 90
        2
 90
        0
290
     1
290
     0
290
     1
290
     1
 90
        0
330
443
290
     0
330
0
330
0
360
0
 90
      115
100
AcDbAssocValueDependency
 90
        0
  1

 40
4.7
  0
ACDBASSOCDEPENDENCY
  5
347
330
341
100
AcDbAssocDependency
 90
        2
 90
        0
290
     0
290
     1
290
     1
290
     1
 90
        0
330
344
290
     0
330
0
330
0
360
348
 90
        8
  0
ACDBASSOCDEPENDENCY
  5
34E
330
341
100
AcDbAssocDependency
 90
        2
 90
        0
290
     0
290
     1
290
     1
290
     1
 90
        0
330
34B
290
     0
330
0
330
0
360
34F
 90
       12
  0
ACDBASSOCGEOMDEPENDENCY
  5
34A
330
341
100
AcDbAssocDependency
 90
        2
 90
        0
290
     1
290
     1
290
     1
290
     1
 90
   -10000
330
31E
290
     0
330
343
330
350
360
0
 90
        6
100
AcDbAssocGeomDependency
 90
        0
290
     1
  1
AcDbAssocEdgePersSubentId
 90
        0
 90
        6
 90
        4
290
     0
  0
ACDBASSOCVALUEDEPENDENCY
  5
346
330
341
100
AcDbAssocDependency
 90
        2
 90
        0
290
     1
290
     0
290
     1
290
     1
 90
        0
330
345
290
     0
330
0
330
0
360
0
 90
        7
100
AcDbAssocValueDependency
 90
        0
  1

 40
8.5
  0
ACDBASSOCGEOMDEPENDENCY
  5
441
330
341
100
AcDbAssocDependency
 90
        2
 90
        0
290
     1
290
     1
290
     1
290
     1
 90
   -10000
330
321
290
     0
330
43A
330
447
360
0
 90
      111
100
AcDbAssocGeomDependency
 90
        0
290
     1
  1
AcDbAssocEdgePersSubentId
 90
        0
 90
       27
 90
       28
290
     0
  0
ACDBASSOCDEPENDENCY
  5
40D
330
341
100
AcDbAssocDependency
 90
        2
 90
        0
290
     0
290
     1
290
     1
290
     1
 90
        0
330
40A
290
     0
330
0
330
0
360
40E
 90
       85
  0
ACDBASSOCVALUEDEPENDENCY
  5
386
330
341
100
AcDbAssocDependency
 90
        2
 90
        0
290
     1
290
     0
290
     1
290
     1
 90
        0
330
385
290
     0
330
0
330
0
360
0
 90
       38
100
AcDbAssocValueDependency
 90
        0
  1

 40
4.7
  0
ACDBASSOCVALUEDEPENDENCY
  5
33E
330
341
100
AcDbAssocDependency
 90
        2
 90
        0
290
     1
290
     0
290
     1
290
     1
 90
        0
330
33D
290
     0
330
0
330
0
360
0
 90
        3
100
AcDbAssocValueDependency
 90
        0
  1

 40
8.5
  0
ACDBASSOCDEPENDENCY
  5
33F
330
341
100
AcDbAssocDependency
 90
        2
 90
        0
290
     0
290
     1
290
     1
290
     1
 90
        0
330
339
290
     0
330
0
330
0
360
340
 90
        4
  0
ACDBASSOCDEPENDENCY
  5
3B2
330
341
100
AcDbAssocDependency
 90
        2
 90
        0
290
     0
290
     1
290
     1
290
     1
 90
        0
330
3AF
290
     0
330
0
330
0
360
3B3
 90
       62
  0
ACDBASSOCVALUEDEPENDENCY
  5
3B1
330
341
100
AcDbAssocDependency
 90
        2
 90
        0
290
     1
290
     0
290
     1
290
     1
 90
        0
330
3B0
290
     0
330
0
330
0
360
0
 90
       61
100
AcDbAssocValueDependency
 90
        0
  1

 40
4.7
  0
ACDBASSOCDEPENDENCY
  5
44B
330
341
100
AcDbAssocDependency
 90
        2
 90
        0
290
     0
290
     1
290
     1
290
     1
 90
        0
330
448
290
     0
330
0
330
0
360
44C
 90
      119
  0
ACDBASSOCVALUEDEPENDENCY
  5
35C
330
341
100
AcDbAssocDependency
 90
        2
 90
        0
290
     1
290
     0
290
     1
290
     1
 90
        0
330
35B
290
     0
330
0
330
0
360
0
 90
       15
100
AcDbAssocValueDependency
 90
        0
  1

 40
8.5
  0
ACDBASSOCGEOMDEPENDENCY
  5
350
330
341
100
AcDbAssocDependency
 90
        2
 90
        0
290
     1
290
     1
290
     1
290
     1
 90
   -10000
330
31E
290
     0
330
34A
330
35F
360
0
 90
        9
100
AcDbAssocGeomDependency
 90
        0
290
     1
  1
AcDbAssocEdgePersSubentId
 90
        0
 90
        1
 90
        2
290
     0
  0
ACDBASSOCDEPENDENCY
  5
532
330
341
100
AcDbAssocDependency
 90
        2
 90
        0
290
     0
290
     1
290
     1
290
     1
 90
        0
330
52F
290
     0
330
0
330
0
360
533
 90
      214
  0
ACDBASSOCVALUEDEPENDENCY
  5
38C
330
341
100
AcDbAssocDependency
 90
        2
 90
        0
290
     1
290
     0
290
     1
290
     1
 90
        0
330
38B
290
     0
330
0
330
0
360
0
 90
       41
100
AcDbAssocValueDependency
 90
        0
  1

 40
4.7
  0
ACDBASSOCDEPENDENCY
  5
380
330
341
100
AcDbAssocDependency
 90
        2
 90
        0
290
     0
290
     1
290
     1
290
     1
 90
        0
330
37D
290
     0
330
0
330
0
360
381
 90
       36
  0
ACDBASSOCGEOMDEPENDENCY
  5
41E
330
341
100
AcDbAssocDependency
 90
        2
 90
        0
290
     1
290
     1
290
     1
290
     1
 90
   -10000
330
321
290
     0
330
417
330
425
360
0
 90
       91
100
AcDbAssocGeomDependency
 90
        0
290
     1
  1
AcDbAssocEdgePersSubentId
 90
        0
 90
       35
 90
       33
290
     0
  0
ACDBASSOCGEOMDEPENDENCY
  5
395
330
341
100
AcDbAssocDependency
 90
        2
 90
        0
290
     1
290
     1
290
     1
290
     1
 90
   -10000
330
31E
290
     0
330
38F
330
39B
360
0
 90
       43
100
AcDbAssocGeomDependency
 90
        0
290
     1
  1
AcDbAssocEdgePersSubentId
 90
        0
 90
        2
 90
        7
290
     0
  0
ACDBASSOCVALUEDEPENDENCY
  5
41A
330
341
100
AcDbAssocDependency
 90
        2
 90
        0
290
     1
290
     0
290
     1
290
     1
 90
        0
330
419
290
     0
330
0
330
0
360
0
 90
       92
100
AcDbAssocValueDependency
 90
        0
  1

 40
10.325
  0
ACDBASSOCDEPENDENCY
  5
399
330
341
100
AcDbAssocDependency
 90
        2
 90
        0
290
     0
290
     1
290
     1
290
     1
 90
        0
330
396
290
     0
330
0
330
0
360
39A
 90
       48
  0
ACDBASSOCGEOMDEPENDENCY
  5
425
330
341
100
AcDbAssocDependency
 90
        2
 90
        0
290
     1
290
     1
290
     1
290
     1
 90
   -10000
330
321
290
     0
330
41E
330
42C
360
0
 90
       95
100
AcDbAssocGeomDependency
 90
        0
290
     1
  1
AcDbAssocEdgePersSubentId
 90
        0
 90
       38
 90
       36
290
     0
  0
ACDBASSOCGEOMDEPENDENCY
  5
3AE
330
341
100
AcDbAssocDependency
 90
        2
 90
        0
290
     1
290
     1
290
     1
290
     1
 90
   -10000
330
31E
290
     0
330
3A8
330
3B4
360
0
 90
       56
100
AcDbAssocGeomDependency
 90
        0
290
     1
  1
AcDbAssocEdgePersSubentId
 90
        0
 90
       10
 90
       16
290
     0
  0
ACDBASSOCGEOMDEPENDENCY
  5
4E1
330
341
100
AcDbAssocDependency
 90
        2
 90
        0
290
     1
290
     1
290
     1
290
     1
 90
   -10000
330
321
290
     0
330
4DA
330
4E8
360
0
 90
      191
100
AcDbAssocGeomDependency
 90
        0
290
     1
  1
AcDbAssocEdgePersSubentId
 90
        0
 90
       62
 90
       63
290
     0
  0
ACDBASSOCDEPENDENCY
  5
3A6
330
341
100
AcDbAssocDependency
 90
        2
 90
        0
290
     0
290
     1
290
     1
290
     1
 90
        0
330
3A3
290
     0
330
0
330
0
360
3A7
 90
       55
  0
ACDBASSOCGEOMDEPENDENCY
  5
35F
330
341
100
AcDbAssocDependency
 90
        2
 90
        0
290
     1
290
     1
290
     1
290
     1
 90
   -10000
330
31E
290
     0
330
350
330
367
360
0
 90
       13
100
AcDbAssocGeomDependency
 90
        0
290
     1
  1
AcDbAssocEdgePersSubentId
 90
        0
 90
        8
 90
        9
290
     0
  0
ACDBASSOCVALUEDEPENDENCY
  5
4D7
330
341
100
AcDbAssocDependency
 90
        2
 90
        0
290
     1
290
     0
290
     1
290
     1
 90
        0
330
4D6
290
     0
330
0
330
0
360
0
 90
      189
100
AcDbAssocValueDependency
 90
        0
  1

 40
4.7
  0
ACDBASSOCDEPENDENCY
  5
41B
330
341
100
AcDbAssocDependency
 90
        2
 90
        0
290
     0
290
     1
290
     1
290
     1
 90
        0
330
418
290
     0
330
0
330
0
360
41C
 90
       93
  0
ACDBASSOCGEOMDEPENDENCY
  5
417
330
341
100
AcDbAssocDependency
 90
        2
 90
        0
290
     1
290
     1
290
     1
290
     1
 90
   -10000
330
321
290
     0
330
410
330
41E
360
0
 90
       87
100
AcDbAssocGeomDependency
 90
        0
290
     1
  1
AcDbAssocEdgePersSubentId
 90
        0
 90
       32
 90
       30
290
     0
  0
ACDBASSOCVALUEDEPENDENCY
  5
398
330
341
100
AcDbAssocDependency
 90
        2
 90
        0
290
     1
290
     0
290
     1
290
     1
 90
        0
330
397
290
     0
330
0
330
0
360
0
 90
       47
100
AcDbAssocValueDependency
 90
        0
  1

 40
4.7
  0
ACDBASSOCGEOMDEPENDENCY
  5
3B4
330
341
100
AcDbAssocDependency
 90
        2
 90
        0
290
     1
290
     1
290
     1
290
     1
 90
   -10000
330
31E
290
     0
330
3AE
330
3BB
360
0
 90
       59
100
AcDbAssocGeomDependency
 90
        0
290
     1
  1
AcDbAssocEdgePersSubentId
 90
        0
 90
       21
 90
       13
290
     0
  0
ACDBASSOCDEPENDENCY
  5
3AC
330
341
100
AcDbAssocDependency
 90
        2
 90
        0
290
     0
290
     1
290
     1
290
     1
 90
        0
330
3A9
290
     0
330
0
330
0
360
3AD
 90
       58
  0
ACDBASSOCGEOMDEPENDENCY
  5
3A8
330
341
100
AcDbAssocDependency
 90
        2
 90
        0
290
     1
290
     1
290
     1
290
     1
 90
   -10000
330
31E
290
     0
330
3A1
330
3AE
360
0
 90
       53
100
AcDbAssocGeomDependency
 90
        0
290
     1
  1
AcDbAssocEdgePersSubentId
 90
        0
 90
       11
 90
       12
290
     0
  0
ACDBASSOCDEPENDENCY
  5
35D
330
341
100
AcDbAssocDependency
 90
        2
 90
        0
290
     0
290
     1
290
     1
290
     1
 90
        0
330
35A
290
     0
330
0
330
0
360
35E
 90
       16
  0
ACDBASSOCDEPENDENCY
  5
3BF
330
341
100
AcDbAssocDependency
 90
        2
 90
        0
290
     0
290
     1
290
     1
290
     1
 90
        0
330
3BC
290
     0
330
0
330
0
360
3C0
 90
       67
  0
ACDBASSOCGEOMDEPENDENCY
  5
3BB
330
341
100
AcDbAssocDependency
 90
        2
 90
        0
290
     1
290
     1
290
     1
290
     1
 90
   -10000
330
31E
290
     0
330
3B4
330
3D4
360
0
 90
       63
100
AcDbAssocGeomDependency
 90
        0
290
     1
  1
AcDbAssocEdgePersSubentId
 90
        0
 90
        9
 90
       10
290
     0
  0
ACDBASSOCGEOMDEPENDENCY
  5
480
330
341
100
AcDbAssocDependency
 90
        2
 90
        0
290
     1
290
     1
290
     1
290
     1
 90
   -10000
330
321
290
     0
330
478
330
486
360
0
 90
      144
100
AcDbAssocGeomDependency
 90
        0
290
     1
  1
AcDbAssocEdgePersSubentId
 90
        0
 90
       44
 90
       45
290
     0
  0
ACDBASSOCGEOMDEPENDENCY
  5
38F
330
341
100
AcDbAssocDependency
 90
        2
 90
        0
290
     1
290
     1
290
     1
290
     1
 90
   -10000
330
31E
290
     0
330
389
330
395
360
0
 90
       40
100
AcDbAssocGeomDependency
 90
        0
290
     1
  1
AcDbAssocEdgePersSubentId
 90
        0
 90
        4
 90
        5
290
     0
  0
ACDBASSOCVALUEDEPENDENCY
  5
53D
330
341
100
AcDbAssocDependency
 90
        2
 90
        0
290
     1
290
     0
290
     1
290
     1
 90
        0
330
53C
290
     0
330
0
330
0
360
0
 90
      219
100
AcDbAssocValueDependency
 90
        0
  1

 40
4.7
  0
ACDBASSOCGEOMDEPENDENCY
  5
478
330
341
100
AcDbAssocDependency
 90
        2
 90
        0
290
     1
290
     1
290
     1
290
     1
 90
   -10000
330
321
290
     0
330
471
330
480
360
0
 90
      139
100
AcDbAssocGeomDependency
 90
        0
290
     1
  1
AcDbAssocEdgePersSubentId
 90
        0
 90
       42
 90
       44
290
     0
  0
ACDBASSOCDEPENDENCY
  5
387
330
341
100
AcDbAssocDependency
 90
        2
 90
        0
290
     0
290
     1
290
     1
290
     1
 90
        0
330
384
290
     0
330
0
330
0
360
388
 90
       39
  0
ACDBASSOCDEPENDENCY
  5
484
330
341
100
AcDbAssocDependency
 90
        2
 90
        0
290
     0
290
     1
290
     1
290
     1
 90
        0
330
481
290
     0
330
0
330
0
360
485
 90
      150
  0
ACDBASSOCGEOMDEPENDENCY
  5
383
330
341
100
AcDbAssocDependency
 90
        2
 90
        0
290
     1
290
     1
290
     1
290
     1
 90
   -10000
330
31E
290
     0
330
37B
330
389
360
0
 90
       34
100
AcDbAssocGeomDependency
 90
        0
290
     1
  1
AcDbAssocEdgePersSubentId
 90
        0
 90
       12
 90
       19
290
     0
  0
ACDBASSOCVALUEDEPENDENCY
  5
45C
330
341
100
AcDbAssocDependency
 90
        2
 90
        0
290
     1
290
     0
290
     1
290
     1
 90
        0
330
45B
290
     0
330
0
330
0
360
0
 90
      127
100
AcDbAssocValueDependency
 90
        0
  1

 40
4.7
  0
ACDBASSOCDEPENDENCY
  5
36B
330
341
100
AcDbAssocDependency
 90
        2
 90
        0
290
     0
290
     1
290
     1
290
     1
 90
        0
330
368
290
     0
330
0
330
0
360
36C
 90
       24
  0
ACDBASSOCGEOMDEPENDENCY
  5
519
330
341
100
AcDbAssocDependency
 90
        2
 90
        0
290
     1
290
     1
290
     1
290
     1
 90
   -10000
330
321
290
     0
330
516
330
0
360
0
 90
      202
100
AcDbAssocGeomDependency
 90
        0
290
     1
  1
AcDbAssocEdgePersSubentId
 90
        0
 90
       66
 90
       60
290
     0
  0
ACDBASSOCVALUEDEPENDENCY
  5
363
330
341
100
AcDbAssocDependency
 90
        2
 90
        0
290
     1
290
     0
290
     1
290
     1
 90
        0
330
362
290
     0
330
0
330
0
360
0
 90
       19
100
AcDbAssocValueDependency
 90
        0
  1

 40
8.5
  0
ACDBASSOCGEOMDEPENDENCY
  5
367
330
341
100
AcDbAssocDependency
 90
        2
 90
        0
290
     1
290
     1
290
     1
290
     1
 90
   -10000
330
31E
290
     0
330
35F
330
36E
360
0
 90
       18
100
AcDbAssocGeomDependency
 90
        0
290
     1
  1
AcDbAssocEdgePersSubentId
 90
        0
 90
       13
 90
       11
290
     0
  0
ACDBASSOCDEPENDENCY
  5
463
330
341
100
AcDbAssocDependency
 90
        2
 90
        0
290
     0
290
     1
290
     1
290
     1
 90
        0
330
460
290
     0
330
0
330
0
360
464
 90
      131
  0
ACDBASSOCDEPENDENCY
  5
3E7
330
341
100
AcDbAssocDependency
 90
        2
 90
        0
290
     0
290
     1
290
     1
290
     1
 90
        0
330
3E4
290
     0
330
0
330
0
360
3E8
 90
       75
  0
ACDBASSOCDEPENDENCY
  5
364
330
341
100
AcDbAssocDependency
 90
        2
 90
        0
290
     0
290
     1
290
     1
290
     1
 90
        0
330
361
290
     0
330
0
330
0
360
365
 90
       20
  0
ACDBASSOCGEOMDEPENDENCY
  5
45F
330
341
100
AcDbAssocDependency
 90
        2
 90
        0
290
     1
290
     1
290
     1
290
     1
 90
   -10000
330
321
290
     0
330
459
330
465
360
0
 90
      126
100
AcDbAssocGeomDependency
 90
        0
290
     1
  1
AcDbAssocEdgePersSubentId
 90
        0
 90
       41
 90
       35
290
     0
  0
ACDBASSOCVALUEDEPENDENCY
  5
36A
330
341
100
AcDbAssocDependency
 90
        2
 90
        0
290
     1
290
     0
290
     1
290
     1
 90
        0
330
369
290
     0
330
0
330
0
360
0
 90
       23
100
AcDbAssocValueDependency
 90
        0
  1

 40
2.9
  0
ACDBASSOCDEPENDENCY
  5
3E1
330
341
100
AcDbAssocDependency
 90
        2
 90
        0
290
     0
290
     1
290
     1
290
     1
 90
        0
330
3DE
290
     0
330
0
330
0
360
3E2
 90
       72
  0
ACDBASSOCGEOMDEPENDENCY
  5
459
330
341
100
AcDbAssocDependency
 90
        2
 90
        0
290
     1
290
     1
290
     1
290
     1
 90
   -10000
330
321
290
     0
330
453
330
45F
360
0
 90
      123
100
AcDbAssocGeomDependency
 90
        0
290
     1
  1
AcDbAssocEdgePersSubentId
 90
        0
 90
       33
 90
       34
290
     0
  0
ACDBASSOCGEOMDEPENDENCY
  5
36E
330
341
100
AcDbAssocDependency
 90
        2
 90
        0
290
     1
290
     1
290
     1
290
     1
 90
   -10000
330
31E
290
     0
330
367
330
374
360
0
 90
       22
100
AcDbAssocGeomDependency
 90
        0
290
     1
  1
AcDbAssocEdgePersSubentId
 90
        0
 90
        5
 90
       14
290
     0
  0
ACDBASSOCGEOMDEPENDENCY
  5
3EF
330
341
100
AcDbAssocDependency
 90
        2
 90
        0
290
     1
290
     1
290
     1
290
     1
 90
   -10000
330
31F
290
     0
330
3E9
330
3F5
360
0
 90
       76
100
AcDbAssocGeomDependency
 90
        0
290
     1
  1
AcDbAssocEdgePersSubentId
 90
        0
 90
       25
 90
       24
290
     0
  0
ACDBASSOCGEOMDEPENDENCY
  5
374
330
341
100
AcDbAssocDependency
 90
        2
 90
        0
290
     1
290
     1
290
     1
290
     1
 90
   -10000
330
31E
290
     0
330
36E
330
37B
360
0
 90
       25
100
AcDbAssocGeomDependency
 90
        0
290
     1
  1
AcDbAssocEdgePersSubentId
 90
        0
 90
        7
 90
       15
290
     0
  0
ACDBASSOCVALUEDEPENDENCY
  5
378
330
341
100
AcDbAssocDependency
 90
        2
 90
        0
290
     1
290
     0
290
     1
290
     1
 90
        0
330
377
290
     0
330
0
330
0
360
0
 90
       31
100
AcDbAssocValueDependency
 90
        0
  1

 40
2.9
  0
ACDBASSOCVALUEDEPENDENCY
  5
522
330
341
100
AcDbAssocDependency
 90
        2
 90
        0
290
     1
290
     0
290
     1
290
     1
 90
        0
330
521
290
     0
330
0
330
0
360
0
 90
      206
100
AcDbAssocValueDependency
 90
        0
  1

 40
10.325
  0
ACDBASSOCVALUEDEPENDENCY
  5
371
330
341
100
AcDbAssocDependency
 90
        2
 90
        0
290
     1
290
     0
290
     1
290
     1
 90
        0
330
370
290
     0
330
0
330
0
360
0
 90
       27
100
AcDbAssocValueDependency
 90
        0
  1

 40
2.9
  0
ACDBASSOCDEPENDENCY
  5
476
330
341
100
AcDbAssocDependency
 90
        2
 90
        0
290
     0
290
     1
290
     1
290
     1
 90
        0
330
473
290
     0
330
0
330
0
360
477
 90
      142
  0
ACDBASSOCDEPENDENCY
  5
379
330
341
100
AcDbAssocDependency
 90
        2
 90
        0
290
     0
290
     1
290
     1
290
     1
 90
        0
330
376
290
     0
330
0
330
0
360
37A
 90
       32
  0
ACDBASSOCVALUEDEPENDENCY
  5
3F2
330
341
100
AcDbAssocDependency
 90
        2
 90
        0
290
     1
290
     0
290
     1
290
     1
 90
        0
330
3F1
290
     0
330
0
330
0
360
0
 90
       80
100
AcDbAssocValueDependency
 90
        0
  1

 90
       20
  0
ACDBASSOCVALUEDEPENDENCY
  5
46E
330
341
100
AcDbAssocDependency
 90
        2
 90
        0
290
     1
290
     0
290
     1
290
     1
 90
        0
330
46D
290
     0
330
0
330
0
360
0
 90
      137
100
AcDbAssocValueDependency
 90
        0
  1

 40
4.7
  0
ACDBASSOCDEPENDENCY
  5
523
330
341
100
AcDbAssocDependency
 90
        2
 90
        0
290
     0
290
     1
290
     1
290
     1
 90
        0
330
520
290
     0
330
0
330
0
360
524
 90
      207
  0
ACDBASSOCDEPENDENCY
  5
372
330
341
100
AcDbAssocDependency
 90
        2
 90
        0
290
     0
290
     1
290
     1
290
     1
 90
        0
330
36F
290
     0
330
0
330
0
360
373
 90
       28
  0
ACDBASSOCGEOMDEPENDENCY
  5
3E9
330
341
100
AcDbAssocDependency
 90
        2
 90
        0
290
     1
290
     1
290
     1
290
     1
 90
   -10000
330
31F
290
     0
330
3E3
330
3EF
360
0
 90
       73
100
AcDbAssocGeomDependency
 90
        0
290
     1
  1
AcDbAssocEdgePersSubentId
 90
        0
 90
       24
 90
       22
290
     0
  0
ACDBASSOCGEOMDEPENDENCY
  5
37B
330
341
100
AcDbAssocDependency
 90
        2
 90
        0
290
     1
290
     1
290
     1
290
     1
 90
   -10000
330
31E
290
     0
330
374
330
383
360
0
 90
       29
100
AcDbAssocGeomDependency
 90
        0
290
     1
  1
AcDbAssocEdgePersSubentId
 90
        0
 90
       16
 90
       17
290
     0
  0
ACDBASSOCVALUEDEPENDENCY
  5
37F
330
341
100
AcDbAssocDependency
 90
        2
 90
        0
290
     1
290
     0
290
     1
290
     1
 90
        0
330
37E
290
     0
330
0
330
0
360
0
 90
       35
100
AcDbAssocValueDependency
 90
        0
  1

 40
2.9
  0
ACDBASSOCVALUEDEPENDENCY
  5
3EC
330
341
100
AcDbAssocDependency
 90
        2
 90
        0
290
     1
290
     0
290
     1
290
     1
 90
        0
330
3EB
290
     0
330
0
330
0
360
0
 90
       77
100
AcDbAssocValueDependency
 90
        0
  1

 90
       40
  0
ACDBASSOCGEOMDEPENDENCY
  5
389
330
341
100
AcDbAssocDependency
 90
        2
 90
        0
290
     1
290
     1
290
     1
290
     1
 90
   -10000
330
31E
290
     0
330
383
330
38F
360
0
 90
       37
100
AcDbAssocGeomDependency
 90
        0
290
     1
  1
AcDbAssocEdgePersSubentId
 90
        0
 90
       14
 90
        3
290
     0
  0
ACDBASSOCDEPENDENCY
  5
38D
330
341
100
AcDbAssocDependency
 90
        2
 90
        0
290
     0
290
     1
290
     1
290
     1
 90
        0
330
38A
290
     0
330
0
330
0
360
38E
 90
       42
  0
ACDBASSOCVALUEDEPENDENCY
  5
392
330
341
100
AcDbAssocDependency
 90
        2
 90
        0
290
     1
290
     0
290
     1
290
     1
 90
        0
330
391
290
     0
330
0
330
0
360
0
 90
       44
100
AcDbAssocValueDependency
 90
        0
  1

 40
4.7
  0
ACDBASSOCGEOMDEPENDENCY
  5
39B
330
341
100
AcDbAssocDependency
 90
        2
 90
        0
290
     1
290
     1
290
     1
290
     1
 90
   -10000
330
31E
290
     0
330
395
330
3A1
360
0
 90
       46
100
AcDbAssocGeomDependency
 90
        0
290
     1
  1
AcDbAssocEdgePersSubentId
 90
        0
 90
       15
 90
        8
290
     0
  0
ACDBASSOCDEPENDENCY
  5
39F
330
341
100
AcDbAssocDependency
 90
        2
 90
        0
290
     0
290
     1
290
     1
290
     1
 90
        0
330
39C
290
     0
330
0
330
0
360
3A0
 90
       52
  0
ACDBASSOCDEPENDENCY
  5
414
330
341
100
AcDbAssocDependency
 90
        2
 90
        0
290
     0
290
     1
290
     1
290
     1
 90
        0
330
411
290
     0
330
0
330
0
360
415
 90
       89
  0
ACDBASSOCDEPENDENCY
  5
393
330
341
100
AcDbAssocDependency
 90
        2
 90
        0
290
     0
290
     1
290
     1
290
     1
 90
        0
330
390
290
     0
330
0
330
0
360
394
 90
       45
  0
ACDBASSOCGEOMDEPENDENCY
  5
3A1
330
341
100
AcDbAssocDependency
 90
        2
 90
        0
290
     1
290
     1
290
     1
290
     1
 90
   -10000
330
31E
290
     0
330
39B
330
3A8
360
0
 90
       49
100
AcDbAssocGeomDependency
 90
        0
290
     1
  1
AcDbAssocEdgePersSubentId
 90
        0
 90
       19
 90
       20
290
     0
  0
ACDBASSOCDEPENDENCY
  5
422
330
341
100
AcDbAssocDependency
 90
        2
 90
        0
290
     0
290
     1
290
     1
290
     1
 90
        0
330
41F
290
     0
330
0
330
0
360
423
 90
       97
  0
ACDBASSOCDEPENDENCY
  5
4E6
330
341
100
AcDbAssocDependency
 90
        2
 90
        0
290
     0
290
     1
290
     1
290
     1
 90
        0
330
4E3
290
     0
330
0
330
0
360
4E7
 90
      197
  0
ACDBASSOCVALUEDEPENDENCY
  5
3A5
330
341
100
AcDbAssocDependency
 90
        2
 90
        0
290
     1
290
     0
290
     1
290
     1
 90
        0
330
3A4
290
     0
330
0
330
0
360
0
 90
       54
100
AcDbAssocValueDependency
 90
        0
  1

 40
4.7
  0
ACDBASSOCGEOMDEPENDENCY
  5
4DA
330
341
100
AcDbAssocDependency
 90
        2
 90
        0
290
     1
290
     1
290
     1
290
     1
 90
   -10000
330
321
290
     0
330
4D3
330
4E1
360
0
 90
      187
100
AcDbAssocGeomDependency
 90
        0
290
     1
  1
AcDbAssocEdgePersSubentId
 90
        0
 90
       61
 90
       62
290
     0
  0
ACDBASSOCVALUEDEPENDENCY
  5
39E
330
341
100
AcDbAssocDependency
 90
        2
 90
        0
290
     1
290
     0
290
     1
290
     1
 90
        0
330
39D
290
     0
330
0
330
0
360
0
 90
       51
100
AcDbAssocValueDependency
 90
        0
  1

 40
4.7
  0
ACDBASSOCGEOMDEPENDENCY
  5
410
330
341
100
AcDbAssocDependency
 90
        2
 90
        0
290
     1
290
     1
290
     1
290
     1
 90
   -10000
330
321
290
     0
330
0
330
417
360
0
 90
       83
100
AcDbAssocGeomDependency
 90
        0
290
     1
  1
AcDbAssocEdgePersSubentId
 90
        0
 90
       29
 90
       27
290
     0
  0
ACDBASSOCVALUEDEPENDENCY
  5
3AB
330
341
100
AcDbAssocDependency
 90
        2
 90
        0
290
     1
290
     0
290
     1
290
     1
 90
        0
330
3AA
290
     0
330
0
330
0
360
0
 90
       57
100
AcDbAssocValueDependency
 90
        0
  1

 40
4.7
  0
ACDBASSOCDEPENDENCY
  5
3B9
330
341
100
AcDbAssocDependency
 90
        2
 90
        0
290
     0
290
     1
290
     1
290
     1
 90
        0
330
3B6
290
     0
330
0
330
0
360
3BA
 90
       65
  0
ACDBASSOCVALUEDEPENDENCY
  5
43D
330
341
100
AcDbAssocDependency
 90
        2
 90
        0
290
     1
290
     0
290
     1
290
     1
 90
        0
330
43C
290
     0
330
0
330
0
360
0
 90
      112
100
AcDbAssocValueDependency
 90
        0
  1

 40
8.5
  0
ACDBASSOCGEOMDEPENDENCY
  5
3D4
330
341
100
AcDbAssocDependency
 90
        2
 90
        0
290
     1
290
     1
290
     1
290
     1
 90
   -10000
330
31E
290
     0
330
3BB
330
3D5
360
0
 90
       68
100
AcDbAssocGeomDependency
 90
        0
290
     1
  1
AcDbAssocEdgePersSubentId
 90
        0
 90
       20
 90
        6
290
     0
  0
ACDBASSOCGEOMDEPENDENCY
  5
3D5
330
341
100
AcDbAssocDependency
 90
        2
 90
        0
290
     1
290
     1
290
     1
290
     1
 90
   -10000
330
31E
290
     0
330
3D4
330
0
360
0
 90
       69
100
AcDbAssocGeomDependency
 90
        0
290
     1
  1
AcDbAssocEdgePersSubentId
 90
        0
 90
       17
 90
       18
290
     0
  0
ACDBASSOCVALUEDEPENDENCY
  5
428
330
341
100
AcDbAssocDependency
 90
        2
 90
        0
290
     1
290
     0
290
     1
290
     1
 90
        0
330
427
290
     0
330
0
330
0
360
0
 90
      100
100
AcDbAssocValueDependency
 90
        0
  1

 40
2.9
  0
ACDBASSOCGEOMDEPENDENCY
  5
3E3
330
341
100
AcDbAssocDependency
 90
        2
 90
        0
290
     1
290
     1
290
     1
290
     1
 90
   -10000
330
31F
290
     0
330
0
330
3E9
360
0
 90
       70
100
AcDbAssocGeomDependency
 90
        0
290
     1
  1
AcDbAssocEdgePersSubentId
 90
        0
 90
       22
 90
       23
290
     0
  0
ACDBASSOCVALUEDEPENDENCY
  5
3E0
330
341
100
AcDbAssocDependency
 90
        2
 90
        0
290
     1
290
     0
290
     1
290
     1
 90
        0
330
3DF
290
     0
330
0
330
0
360
0
 90
       71
100
AcDbAssocValueDependency
 90
        0
  1

 90
       40
  0
ACDBASSOCVALUEDEPENDENCY
  5
3E6
330
341
100
AcDbAssocDependency
 90
        2
 90
        0
290
     1
290
     0
290
     1
290
     1
 90
        0
330
3E5
290
     0
330
0
330
0
360
0
 90
       74
100
AcDbAssocValueDependency
 90
        0
  1

 90
       20
  0
ACDBASSOCGEOMDEPENDENCY
  5
453
330
341
100
AcDbAssocDependency
 90
        2
 90
        0
290
     1
290
     1
290
     1
290
     1
 90
   -10000
330
321
290
     0
330
44D
330
459
360
0
 90
      120
100
AcDbAssocGeomDependency
 90
        0
290
     1
  1
AcDbAssocEdgePersSubentId
 90
        0
 90
       40
 90
       32
290
     0
  0
ACDBASSOCDEPENDENCY
  5
3ED
330
341
100
AcDbAssocDependency
 90
        2
 90
        0
290
     0
290
     1
290
     1
290
     1
 90
        0
330
3EA
290
     0
330
0
330
0
360
3EE
 90
       78
  0
ACDBASSOCDEPENDENCY
  5
469
330
341
100
AcDbAssocDependency
 90
        2
 90
        0
290
     0
290
     1
290
     1
290
     1
 90
        0
330
466
290
     0
330
0
330
0
360
46A
 90
      134
  0
ACDBASSOCGEOMDEPENDENCY
  5
3F5
330
341
100
AcDbAssocDependency
 90
        2
 90
        0
290
     1
290
     1
290
     1
290
     1
 90
   -10000
330
31F
290
     0
330
3EF
330
0
360
0
 90
       79
100
AcDbAssocGeomDependency
 90
        0
290
     1
  1
AcDbAssocEdgePersSubentId
 90
        0
 90
       26
 90
       25
290
     0
  0
ACDBASSOCDEPENDENCY
  5
3F3
330
341
100
AcDbAssocDependency
 90
        2
 90
        0
290
     0
290
     1
290
     1
290
     1
 90
        0
330
3F0
290
     0
330
0
330
0
360
3F4
 90
       81
  0
ACDBASSOCVALUEDEPENDENCY
  5
40C
330
341
100
AcDbAssocDependency
 90
        2
 90
        0
290
     1
290
     0
290
     1
290
     1
 90
        0
330
40B
290
     0
330
0
330
0
360
0
 90
       84
100
AcDbAssocValueDependency
 90
        0
  1

 40
10.325
  0
ACDBASSOCVALUEDEPENDENCY
  5
413
330
341
100
AcDbAssocDependency
 90
        2
 90
        0
290
     1
290
     0
290
     1
290
     1
 90
        0
330
412
290
     0
330
0
330
0
360
0
 90
       88
100
AcDbAssocValueDependency
 90
        0
  1

 40
10.325
  0
ACDBASSOCVALUEDEPENDENCY
  5
421
330
341
100
AcDbAssocDependency
 90
        2
 90
        0
290
     1
290
     0
290
     1
290
     1
 90
        0
330
420
290
     0
330
0
330
0
360
0
 90
       96
100
AcDbAssocValueDependency
 90
        0
  1

 40
10.325
  0
ACDBASSOCGEOMDEPENDENCY
  5
42C
330
341
100
AcDbAssocDependency
 90
        2
 90
        0
290
     1
290
     1
290
     1
290
     1
 90
   -10000
330
321
290
     0
330
425
330
433
360
0
 90
       99
100
AcDbAssocGeomDependency
 90
        0
290
     1
  1
AcDbAssocEdgePersSubentId
 90
        0
 90
       31
 90
       39
290
     0
  0
ACDBASSOCDEPENDENCY
  5
429
330
341
100
AcDbAssocDependency
 90
        2
 90
        0
290
     0
290
     1
290
     1
290
     1
 90
        0
330
426
290
     0
330
0
330
0
360
42A
 90
      101
  0
ACDBASSOCGEOMDEPENDENCY
  5
433
330
341
100
AcDbAssocDependency
 90
        2
 90
        0
290
     1
290
     1
290
     1
290
     1
 90
   -10000
330
321
290
     0
330
42C
330
43A
360
0
 90
      103
100
AcDbAssocGeomDependency
 90
        0
290
     1
  1
AcDbAssocEdgePersSubentId
 90
        0
 90
       34
 90
       40
290
     0
  0
ACDBASSOCVALUEDEPENDENCY
  5
42F
330
341
100
AcDbAssocDependency
 90
        2
 90
        0
290
     1
290
     0
290
     1
290
     1
 90
        0
330
42E
290
     0
330
0
330
0
360
0
 90
      104
100
AcDbAssocValueDependency
 90
        0
  1

 40
2.9
  0
ACDBASSOCDEPENDENCY
  5
430
330
341
100
AcDbAssocDependency
 90
        2
 90
        0
290
     0
290
     1
290
     1
290
     1
 90
        0
330
42D
290
     0
330
0
330
0
360
431
 90
      105
  0
ACDBASSOCGEOMDEPENDENCY
  5
43A
330
341
100
AcDbAssocDependency
 90
        2
 90
        0
290
     1
290
     1
290
     1
290
     1
 90
   -10000
330
321
290
     0
330
433
330
441
360
0
 90
      107
100
AcDbAssocGeomDependency
 90
        0
290
     1
  1
AcDbAssocEdgePersSubentId
 90
        0
 90
       37
 90
       41
290
     0
  0
ACDBASSOCVALUEDEPENDENCY
  5
436
330
341
100
AcDbAssocDependency
 90
        2
 90
        0
290
     1
290
     0
290
     1
290
     1
 90
        0
330
435
290
     0
330
0
330
0
360
0
 90
      108
100
AcDbAssocValueDependency
 90
        0
  1

 40
2.9
  0
ACDBASSOCDEPENDENCY
  5
437
330
341
100
AcDbAssocDependency
 90
        2
 90
        0
290
     0
290
     1
290
     1
290
     1
 90
        0
330
434
290
     0
330
0
330
0
360
438
 90
      109
  0
ACDBASSOCGEOMDEPENDENCY
  5
447
330
341
100
AcDbAssocDependency
 90
        2
 90
        0
290
     1
290
     1
290
     1
290
     1
 90
   -10000
330
321
290
     0
330
441
330
44D
360
0
 90
      114
100
AcDbAssocGeomDependency
 90
        0
290
     1
  1
AcDbAssocEdgePersSubentId
 90
        0
 90
       39
 90
       29
290
     0
  0
ACDBASSOCDEPENDENCY
  5
445
330
341
100
AcDbAssocDependency
 90
        2
 90
        0
290
     0
290
     1
290
     1
290
     1
 90
        0
330
442
290
     0
330
0
330
0
360
446
 90
      116
  0
ACDBASSOCGEOMDEPENDENCY
  5
44D
330
341
100
AcDbAssocDependency
 90
        2
 90
        0
290
     1
290
     1
290
     1
290
     1
 90
   -10000
330
321
290
     0
330
447
330
453
360
0
 90
      117
100
AcDbAssocGeomDependency
 90
        0
290
     1
  1
AcDbAssocEdgePersSubentId
 90
        0
 90
       30
 90
       31
290
     0
  0
ACDBASSOCVALUEDEPENDENCY
  5
44A
330
341
100
AcDbAssocDependency
 90
        2
 90
        0
290
     1
290
     0
290
     1
290
     1
 90
        0
330
449
290
     0
330
0
330
0
360
0
 90
      118
100
AcDbAssocValueDependency
 90
        0
  1

 40
4.7
  0
ACDBASSOCVALUEDEPENDENCY
  5
450
330
341
100
AcDbAssocDependency
 90
        2
 90
        0
290
     1
290
     0
290
     1
290
     1
 90
        0
330
44F
290
     0
330
0
330
0
360
0
 90
      121
100
AcDbAssocValueDependency
 90
        0
  1

 40
4.7
  0
ACDBASSOCDEPENDENCY
  5
451
330
341
100
AcDbAssocDependency
 90
        2
 90
        0
290
     0
290
     1
290
     1
290
     1
 90
        0
330
44E
290
     0
330
0
330
0
360
452
 90
      122
  0
ACDBASSOCVALUEDEPENDENCY
  5
456
330
341
100
AcDbAssocDependency
 90
        2
 90
        0
290
     1
290
     0
290
     1
290
     1
 90
        0
330
455
290
     0
330
0
330
0
360
0
 90
      124
100
AcDbAssocValueDependency
 90
        0
  1

 40
4.7
  0
ACDBASSOCDEPENDENCY
  5
457
330
341
100
AcDbAssocDependency
 90
        2
 90
        0
290
     0
290
     1
290
     1
290
     1
 90
        0
330
454
290
     0
330
0
330
0
360
458
 90
      125
  0
ACDBASSOCGEOMDEPENDENCY
  5
4E8
330
341
100
AcDbAssocDependency
 90
        2
 90
        0
290
     1
290
     1
290
     1
290
     1
 90
   -10000
330
321
290
     0
330
4E1
330
515
360
0
 90
      195
100
AcDbAssocGeomDependency
 90
        0
290
     1
  1
AcDbAssocEdgePersSubentId
 90
        0
 90
       63
 90
       43
290
     0
  0
ACDBASSOCDEPENDENCY
  5
45D
330
341
100
AcDbAssocDependency
 90
        2
 90
        0
290
     0
290
     1
290
     1
290
     1
 90
        0
330
45A
290
     0
330
0
330
0
360
45E
 90
      128
  0
ACDBASSOCGEOMDEPENDENCY
  5
465
330
341
100
AcDbAssocDependency
 90
        2
 90
        0
290
     1
290
     1
290
     1
290
     1
 90
   -10000
330
321
290
     0
330
45F
330
46B
360
0
 90
      129
100
AcDbAssocGeomDependency
 90
        0
290
     1
  1
AcDbAssocEdgePersSubentId
 90
        0
 90
       36
 90
       37
290
     0
  0
ACDBASSOCVALUEDEPENDENCY
  5
462
330
341
100
AcDbAssocDependency
 90
        2
 90
        0
290
     1
290
     0
290
     1
290
     1
 90
        0
330
461
290
     0
330
0
330
0
360
0
 90
      130
100
AcDbAssocValueDependency
 90
        0
  1

 40
4.7
  0
ACDBASSOCGEOMDEPENDENCY
  5
46B
330
341
100
AcDbAssocDependency
 90
        2
 90
        0
290
     1
290
     1
290
     1
290
     1
 90
   -10000
330
321
290
     0
330
465
330
471
360
0
 90
      132
100
AcDbAssocGeomDependency
 90
        0
290
     1
  1
AcDbAssocEdgePersSubentId
 90
        0
 90
       43
 90
       38
290
     0
  0
ACDBASSOCVALUEDEPENDENCY
  5
468
330
341
100
AcDbAssocDependency
 90
        2
 90
        0
290
     1
290
     0
290
     1
290
     1
 90
        0
330
467
290
     0
330
0
330
0
360
0
 90
      133
100
AcDbAssocValueDependency
 90
        0
  1

 40
8.5
  0
ACDBASSOCDEPENDENCY
  5
52D
330
341
100
AcDbAssocDependency
 90
        2
 90
        0
290
     0
290
     1
290
     1
290
     1
 90
        0
330
52A
290
     0
330
0
330
0
360
52E
 90
      211
  0
ACDBASSOCGEOMDEPENDENCY
  5
471
330
341
100
AcDbAssocDependency
 90
        2
 90
        0
290
     1
290
     1
290
     1
290
     1
 90
   -10000
330
321
290
     0
330
46B
330
478
360
0
 90
      135
100
AcDbAssocGeomDependency
 90
        0
290
     1
  1
AcDbAssocEdgePersSubentId
 90
        0
 90
       28
 90
       42
290
     0
  0
ACDBASSOCVALUEDEPENDENCY
  5
52C
330
341
100
AcDbAssocDependency
 90
        2
 90
        0
290
     1
290
     0
290
     1
290
     1
 90
        0
330
52B
290
     0
330
0
330
0
360
0
 90
      210
100
AcDbAssocValueDependency
 90
        0
  1

 40
4.7
  0
ACDBASSOCDEPENDENCY
  5
46F
330
341
100
AcDbAssocDependency
 90
        2
 90
        0
290
     0
290
     1
290
     1
290
     1
 90
        0
330
46C
290
     0
330
0
330
0
360
470
 90
      138
  0
ACDBASSOCDEPENDENCY
  5
4D1
330
341
100
AcDbAssocDependency
 90
        2
 90
        0
290
     0
290
     1
290
     1
290
     1
 90
        0
330
4CE
290
     0
330
0
330
0
360
4D2
 90
      186
  0
ACDBASSOCVALUEDEPENDENCY
  5
475
330
341
100
AcDbAssocDependency
 90
        2
 90
        0
290
     1
290
     0
290
     1
290
     1
 90
        0
330
474
290
     0
330
0
330
0
360
0
 90
      141
100
AcDbAssocValueDependency
 90
        0
  1

 40
2.9
  0
ACDBASSOCVALUEDEPENDENCY
  5
47C
330
341
100
AcDbAssocDependency
 90
        2
 90
        0
290
     1
290
     0
290
     1
290
     1
 90
        0
330
47B
290
     0
330
0
330
0
360
0
 90
      145
100
AcDbAssocValueDependency
 90
        0
  1

 40
4.7
  0
ACDBASSOCDEPENDENCY
  5
47D
330
341
100
AcDbAssocDependency
 90
        2
 90
        0
290
     0
290
     1
290
     1
290
     1
 90
        0
330
47A
290
     0
330
0
330
0
360
47E
 90
      146
  0
ACDBASSOCGEOMDEPENDENCY
  5
486
330
341
100
AcDbAssocDependency
 90
        2
 90
        0
290
     1
290
     1
290
     1
290
     1
 90
   -10000
330
321
290
     0
330
480
330
4D3
360
0
 90
      147
100
AcDbAssocGeomDependency
 90
        0
290
     1
  1
AcDbAssocEdgePersSubentId
 90
        0
 90
       45
 90
       46
290
     0
  0
ACDBASSOCGEOMDEPENDENCY
  5
540
330
341
100
AcDbAssocDependency
 90
        2
 90
        0
290
     1
290
     1
290
     1
290
     1
 90
   -10000
330
511
290
     0
330
0
330
0
360
0
 90
      218
100
AcDbAssocGeomDependency
 90
        0
290
     1
  1
AcDbAssocSingleEdgePersSubentId
290
     0
  0
ACDBASSOCVALUEDEPENDENCY
  5
483
330
341
100
AcDbAssocDependency
 90
        2
 90
        0
290
     1
290
     0
290
     1
290
     1
 90
        0
330
482
290
     0
330
0
330
0
360
0
 90
      149
100
AcDbAssocValueDependency
 90
        0
  1

 40
8.5
  0
ACDBASSOCGEOMDEPENDENCY
  5
4D3
330
341
100
AcDbAssocDependency
 90
        2
 90
        0
290
     1
290
     1
290
     1
290
     1
 90
   -10000
330
321
290
     0
330
486
330
4DA
360
0
 90
      183
100
AcDbAssocGeomDependency
 90
        0
290
     1
  1
AcDbAssocEdgePersSubentId
 90
        0
 90
       60
 90
       61
290
     0
  0
ACDBASSOCVALUEDEPENDENCY
  5
4D0
330
341
100
AcDbAssocDependency
 90
        2
 90
        0
290
     1
290
     0
290
     1
290
     1
 90
        0
330
4CF
290
     0
330
0
330
0
360
0
 90
      185
100
AcDbAssocValueDependency
 90
        0
  1

 40
8.5
  0
ACDBASSOCDEPENDENCY
  5
4D8
330
341
100
AcDbAssocDependency
 90
        2
 90
        0
290
     0
290
     1
290
     1
290
     1
 90
        0
330
4D5
290
     0
330
0
330
0
360
4D9
 90
      190
  0
ACDBASSOCVALUEDEPENDENCY
  5
4DE
330
341
100
AcDbAssocDependency
 90
        2
 90
        0
290
     1
290
     0
290
     1
290
     1
 90
        0
330
4DD
290
     0
330
0
330
0
360
0
 90
      193
100
AcDbAssocValueDependency
 90
        0
  1

 40
2.9
  0
ACDBASSOCDEPENDENCY
  5
4DF
330
341
100
AcDbAssocDependency
 90
        2
 90
        0
290
     0
290
     1
290
     1
290
     1
 90
        0
330
4DC
290
     0
330
0
330
0
360
4E0
 90
      194
  0
ACDBASSOCVALUEDEPENDENCY
  5
4E5
330
341
100
AcDbAssocDependency
 90
        2
 90
        0
290
     1
290
     0
290
     1
290
     1
 90
        0
330
4E4
290
     0
330
0
330
0
360
0
 90
      196
100
AcDbAssocValueDependency
 90
        0
  1

 40
4.7
  0
ACDBASSOCGEOMDEPENDENCY
  5
515
330
341
100
AcDbAssocDependency
 90
        2
 90
        0
290
     1
290
     1
290
     1
290
     1
 90
   -10000
330
321
290
     0
330
4E8
330
516
360
0
 90
      198
100
AcDbAssocGeomDependency
 90
        0
290
     1
  1
AcDbAssocEdgePersSubentId
 90
        0
 90
       64
 90
       65
290
     0
  0
ACDBASSOCGEOMDEPENDENCY
  5
516
330
341
100
AcDbAssocDependency
 90
        2
 90
        0
290
     1
290
     1
290
     1
290
     1
 90
   -10000
330
321
290
     0
330
515
330
519
360
0
 90
      199
100
AcDbAssocGeomDependency
 90
        0
290
     1
  1
AcDbAssocEdgePersSubentId
 90
        0
 90
       65
 90
       66
290
     0
  0
ACDBASSOCGEOMDEPENDENCY
  5
534
330
341
100
AcDbAssocDependency
 90
        2
 90
        0
290
     1
290
     1
290
     1
290
     1
 90
   -10000
330
514
290
     0
330
0
330
0
360
0
 90
      212
100
AcDbAssocGeomDependency
 90
        0
290
     1
  1
AcDbAssocSingleEdgePersSubentId
290
     0
  0
ACDBASSOCVALUEDEPENDENCY
  5
531
330
341
100
AcDbAssocDependency
 90
        2
 90
        0
290
     1
290
     0
290
     1
290
     1
 90
        0
330
530
290
     0
330
0
330
0
360
0
 90
      213
100
AcDbAssocValueDependency
 90
        0
  1

 40
10.325
  0
ACDBASSOCDEPENDENCY
  5
53E
330
341
100
AcDbAssocDependency
 90
        2
 90
        0
290
     0
290
     1
290
     1
290
     1
 90
        0
330
53B
290
     0
330
0
330
0
360
53F
 90
      220
  0
ACDBASSOCGEOMDEPENDENCY
  5
584
330
341
100
AcDbAssocDependency
 90
        2
 90
        0
290
     1
290
     1
290
     1
290
     1
 90
   -10000
330
583
290
     0
330
0
330
0
360
0
 90
      225
100
AcDbAssocGeomDependency
 90
        0
290
     1
  1
AcDbAssocSingleEdgePersSubentId
290
     0
  0
ACDBASSOCGEOMDEPENDENCY
  5
588
330
341
100
AcDbAssocDependency
 90
        2
 90
        0
290
     1
290
     1
290
     1
290
     1
 90
   -10000
330
587
290
     0
330
0
330
0
360
0
 90
      226
100
AcDbAssocGeomDependency
 90
        0
290
     1
  1
AcDbAssocSingleEdgePersSubentId
290
     0
  0
ACDBASSOCVALUEDEPENDENCY
  5
3C4
330
345
100
AcDbAssocDependency
 90
        2
 90
        0
290
     1
290
     0
290
     1
290
     1
 90
        0
330
327
290
     0
330
3C3
330
3C5
360
0
 90
        1
100
AcDbAssocValueDependency
 90
        0
  1

 40
8.5
  0
ACDBASSOCVALUEDEPENDENCY
  5
3C5
330
34C
100
AcDbAssocDependency
 90
        2
 90
        0
290
     1
290
     0
290
     1
290
     1
 90
        0
330
327
290
     0
330
3C4
330
3C6
360
0
 90
        1
100
AcDbAssocValueDependency
 90
        0
  1

 40
8.5
  0
ACDBASSOCVALUEDEPENDENCY
  5
3C6
330
35B
100
AcDbAssocDependency
 90
        2
 90
        0
290
     1
290
     0
290
     1
290
     1
 90
        0
330
327
290
     0
330
3C5
330
3C7
360
0
 90
        1
100
AcDbAssocValueDependency
 90
        0
  1

 40
8.5
  0
ACDBASSOCVALUEDEPENDENCY
  5
3C7
330
362
100
AcDbAssocDependency
 90
        2
 90
        0
290
     1
290
     0
290
     1
290
     1
 90
        0
330
327
290
     0
330
3C6
330
505
360
0
 90
        1
100
AcDbAssocValueDependency
 90
        0
  1

 40
8.5
  0
ACDBASSOCVALUEDEPENDENCY
  5
3D0
330
369
100
AcDbAssocDependency
 90
        2
 90
        0
290
     1
290
     0
290
     1
290
     1
 90
        0
330
328
290
     0
330
0
330
3D1
360
0
 90
        1
100
AcDbAssocValueDependency
 90
        0
  1

 40
2.9
  0
ACDBASSOCVALUEDEPENDENCY
  5
3D1
330
370
100
AcDbAssocDependency
 90
        2
 90
        0
290
     1
290
     0
290
     1
290
     1
 90
        0
330
328
290
     0
330
3D0
330
3D2
360
0
 90
        1
100
AcDbAssocValueDependency
 90
        0
  1

 40
2.9
  0
ACDBASSOCVALUEDEPENDENCY
  5
3D2
330
377
100
AcDbAssocDependency
 90
        2
 90
        0
290
     1
290
     0
290
     1
290
     1
 90
        0
330
328
290
     0
330
3D1
330
3D3
360
0
 90
        1
100
AcDbAssocValueDependency
 90
        0
  1

 40
2.9
  0
ACDBASSOCVALUEDEPENDENCY
  5
3D3
330
37E
100
AcDbAssocDependency
 90
        2
 90
        0
290
     1
290
     0
290
     1
290
     1
 90
        0
330
328
290
     0
330
3D2
330
4F7
360
0
 90
        1
100
AcDbAssocValueDependency
 90
        0
  1

 40
2.9
  0
ACDBASSOCVALUEDEPENDENCY
  5
3C8
330
385
100
AcDbAssocDependency
 90
        2
 90
        0
290
     1
290
     0
290
     1
290
     1
 90
        0
330
326
290
     0
330
0
330
3C9
360
0
 90
        1
100
AcDbAssocValueDependency
 90
        0
  1

 40
4.7
  0
ACDBASSOCVALUEDEPENDENCY
  5
3C9
330
38B
100
AcDbAssocDependency
 90
        2
 90
        0
290
     1
290
     0
290
     1
290
     1
 90
        0
330
326
290
     0
330
3C8
330
3CA
360
0
 90
        1
100
AcDbAssocValueDependency
 90
        0
  1

 40
4.7
  0
ACDBASSOCVALUEDEPENDENCY
  5
3CA
330
391
100
AcDbAssocDependency
 90
        2
 90
        0
290
     1
290
     0
290
     1
290
     1
 90
        0
330
326
290
     0
330
3C9
330
3CB
360
0
 90
        1
100
AcDbAssocValueDependency
 90
        0
  1

 40
4.7
  0
ACDBASSOCVALUEDEPENDENCY
  5
3CB
330
397
100
AcDbAssocDependency
 90
        2
 90
        0
290
     1
290
     0
290
     1
290
     1
 90
        0
330
326
290
     0
330
3CA
330
3CC
360
0
 90
        1
100
AcDbAssocValueDependency
 90
        0
  1

 40
4.7
  0
ACDBASSOCVALUEDEPENDENCY
  5
3CC
330
39D
100
AcDbAssocDependency
 90
        2
 90
        0
290
     1
290
     0
290
     1
290
     1
 90
        0
330
326
290
     0
330
3CB
330
3CD
360
0
 90
        1
100
AcDbAssocValueDependency
 90
        0
  1

 40
4.7
  0
ACDBASSOCVALUEDEPENDENCY
  5
3CD
330
3A4
100
AcDbAssocDependency
 90
        2
 90
        0
290
     1
290
     0
290
     1
290
     1
 90
        0
330
326
290
     0
330
3CC
330
3CE
360
0
 90
        1
100
AcDbAssocValueDependency
 90
        0
  1

 40
4.7
  0
ACDBASSOCVALUEDEPENDENCY
  5
3CE
330
3AA
100
AcDbAssocDependency
 90
        2
 90
        0
290
     1
290
     0
290
     1
290
     1
 90
        0
330
326
290
     0
330
3CD
330
3CF
360
0
 90
        1
100
AcDbAssocValueDependency
 90
        0
  1

 40
4.7
  0
ACDBASSOCVALUEDEPENDENCY
  5
3CF
330
3B0
100
AcDbAssocDependency
 90
        2
 90
        0
290
     1
290
     0
290
     1
290
     1
 90
        0
330
326
290
     0
330
3CE
330
4E9
360
0
 90
        1
100
AcDbAssocValueDependency
 90
        0
  1

 40
4.7
  0
ACDBASSOCVALUEDEPENDENCY
  5
3C2
330
3B7
100
AcDbAssocDependency
 90
        2
 90
        0
290
     1
290
     0
290
     1
290
     1
 90
        0
330
327
290
     0
330
3C1
330
3C3
360
0
 90
        1
100
AcDbAssocValueDependency
 90
        0
  1

 40
8.5
  0
ACDBASSOCVALUEDEPENDENCY
  5
3C3
330
3BD
100
AcDbAssocDependency
 90
        2
 90
        0
290
     1
290
     0
290
     1
290
     1
 90
        0
330
327
290
     0
330
3C2
330
3C4
360
0
 90
        1
100
AcDbAssocValueDependency
 90
        0
  1

 40
8.5
  0
ACDBASSOCVALUEDEPENDENCY
  5
3F9
330
3DF
100
AcDbAssocDependency
 90
        2
 90
        0
290
     1
290
     0
290
     1
290
     1
 90
        0
330
329
290
     0
330
3F8
330
0
360
0
 90
        1
100
AcDbAssocValueDependency
 90
        0
  1

 90
       40
  0
ACDBASSOCVALUEDEPENDENCY
  5
3F6
330
3E5
100
AcDbAssocDependency
 90
        2
 90
        0
290
     1
290
     0
290
     1
290
     1
 90
        0
330
32A
290
     0
330
0
330
3F7
360
0
 90
        1
100
AcDbAssocValueDependency
 90
        0
  1

 90
       20
  0
ACDBASSOCVALUEDEPENDENCY
  5
3F8
330
3EB
100
AcDbAssocDependency
 90
        2
 90
        0
290
     1
290
     0
290
     1
290
     1
 90
        0
330
329
290
     0
330
0
330
3F9
360
0
 90
        1
100
AcDbAssocValueDependency
 90
        0
  1

 90
       40
  0
ACDBASSOCVALUEDEPENDENCY
  5
3F7
330
3F1
100
AcDbAssocDependency
 90
        2
 90
        0
290
     1
290
     0
290
     1
290
     1
 90
        0
330
32A
290
     0
330
3F6
330
0
360
0
 90
        1
100
AcDbAssocValueDependency
 90
        0
  1

 90
       20
  0
ACDBASSOCVALUEDEPENDENCY
  5
4FF
330
40B
100
AcDbAssocDependency
 90
        2
 90
        0
290
     1
290
     0
290
     1
290
     1
 90
        0
330
32C
290
     0
330
0
330
500
360
0
 90
        1
100
AcDbAssocValueDependency
 90
        0
  1

 40
10.325
  0
ACDBASSOCVALUEDEPENDENCY
  5
500
330
412
100
AcDbAssocDependency
 90
        2
 90
        0
290
     1
290
     0
290
     1
290
     1
 90
        0
330
32C
290
     0
330
4FF
330
501
360
0
 90
        1
100
AcDbAssocValueDependency
 90
        0
  1

 40
10.325
  0
ACDBASSOCVALUEDEPENDENCY
  5
501
330
419
100
AcDbAssocDependency
 90
        2
 90
        0
290
     1
290
     0
290
     1
290
     1
 90
        0
330
32C
290
     0
330
500
330
502
360
0
 90
        1
100
AcDbAssocValueDependency
 90
        0
  1

 40
10.325
  0
ACDBASSOCVALUEDEPENDENCY
  5
502
330
420
100
AcDbAssocDependency
 90
        2
 90
        0
290
     1
290
     0
290
     1
290
     1
 90
        0
330
32C
290
     0
330
501
330
556
360
0
 90
        1
100
AcDbAssocValueDependency
 90
        0
  1

 40
10.325
  0
ACDBASSOCVALUEDEPENDENCY
  5
4FC
330
427
100
AcDbAssocDependency
 90
        2
 90
        0
290
     1
290
     0
290
     1
290
     1
 90
        0
330
328
290
     0
330
4FB
330
4FD
360
0
 90
        1
100
AcDbAssocValueDependency
 90
        0
  1

 40
2.9
  0
ACDBASSOCVALUEDEPENDENCY
  5
4FD
330
42E
100
AcDbAssocDependency
 90
        2
 90
        0
290
     1
290
     0
290
     1
290
     1
 90
        0
330
328
290
     0
330
4FC
330
0
360
0
 90
        1
100
AcDbAssocValueDependency
 90
        0
  1

 40
2.9
  0
ACDBASSOCVALUEDEPENDENCY
  5
4FB
330
435
100
AcDbAssocDependency
 90
        2
 90
        0
290
     1
290
     0
290
     1
290
     1
 90
        0
330
328
290
     0
330
4FA
330
4FC
360
0
 90
        1
100
AcDbAssocValueDependency
 90
        0
  1

 40
2.9
  0
ACDBASSOCVALUEDEPENDENCY
  5
506
330
43C
100
AcDbAssocDependency
 90
        2
 90
        0
290
     1
290
     0
290
     1
290
     1
 90
        0
330
327
290
     0
330
505
330
507
360
0
 90
        1
100
AcDbAssocValueDependency
 90
        0
  1

 40
8.5
  0
ACDBASSOCVALUEDEPENDENCY
  5
4F6
330
443
100
AcDbAssocDependency
 90
        2
 90
        0
290
     1
290
     0
290
     1
290
     1
 90
        0
330
326
290
     0
330
4F5
330
558
360
0
 90
        1
100
AcDbAssocValueDependency
 90
        0
  1

 40
4.7
  0
ACDBASSOCVALUEDEPENDENCY
  5
4F5
330
449
100
AcDbAssocDependency
 90
        2
 90
        0
290
     1
290
     0
290
     1
290
     1
 90
        0
330
326
290
     0
330
4F4
330
4F6
360
0
 90
        1
100
AcDbAssocValueDependency
 90
        0
  1

 40
4.7
  0
ACDBASSOCVALUEDEPENDENCY
  5
4F4
330
44F
100
AcDbAssocDependency
 90
        2
 90
        0
290
     1
290
     0
290
     1
290
     1
 90
        0
330
326
290
     0
330
4F3
330
4F5
360
0
 90
        1
100
AcDbAssocValueDependency
 90
        0
  1

 40
4.7
  0
ACDBASSOCVALUEDEPENDENCY
  5
4F3
330
455
100
AcDbAssocDependency
 90
        2
 90
        0
290
     1
290
     0
290
     1
290
     1
 90
        0
330
326
290
     0
330
4F2
330
4F4
360
0
 90
        1
100
AcDbAssocValueDependency
 90
        0
  1

 40
4.7
  0
ACDBASSOCVALUEDEPENDENCY
  5
4F2
330
45B
100
AcDbAssocDependency
 90
        2
 90
        0
290
     1
290
     0
290
     1
290
     1
 90
        0
330
326
290
     0
330
4F1
330
4F3
360
0
 90
        1
100
AcDbAssocValueDependency
 90
        0
  1

 40
4.7
  0
ACDBASSOCVALUEDEPENDENCY
  5
4F1
330
461
100
AcDbAssocDependency
 90
        2
 90
        0
290
     1
290
     0
290
     1
290
     1
 90
        0
330
326
290
     0
330
4F0
330
4F2
360
0
 90
        1
100
AcDbAssocValueDependency
 90
        0
  1

 40
4.7
  0
ACDBASSOCVALUEDEPENDENCY
  5
507
330
467
100
AcDbAssocDependency
 90
        2
 90
        0
290
     1
290
     0
290
     1
290
     1
 90
        0
330
327
290
     0
330
506
330
508
360
0
 90
        1
100
AcDbAssocValueDependency
 90
        0
  1

 40
8.5
  0
ACDBASSOCVALUEDEPENDENCY
  5
4F0
330
46D
100
AcDbAssocDependency
 90
        2
 90
        0
290
     1
290
     0
290
     1
290
     1
 90
        0
330
326
290
     0
330
4EF
330
4F1
360
0
 90
        1
100
AcDbAssocValueDependency
 90
        0
  1

 40
4.7
  0
ACDBASSOCVALUEDEPENDENCY
  5
4FA
330
474
100
AcDbAssocDependency
 90
        2
 90
        0
290
     1
290
     0
290
     1
290
     1
 90
        0
330
328
290
     0
330
4F7
330
4FB
360
0
 90
        1
100
AcDbAssocValueDependency
 90
        0
  1

 40
2.9
  0
ACDBASSOCVALUEDEPENDENCY
  5
4EF
330
47B
100
AcDbAssocDependency
 90
        2
 90
        0
290
     1
290
     0
290
     1
290
     1
 90
        0
330
326
290
     0
330
4EA
330
4F0
360
0
 90
        1
100
AcDbAssocValueDependency
 90
        0
  1

 40
4.7
  0
ACDBASSOCVALUEDEPENDENCY
  5
508
330
482
100
AcDbAssocDependency
 90
        2
 90
        0
290
     1
290
     0
290
     1
290
     1
 90
        0
330
327
290
     0
330
507
330
0
360
0
 90
        1
100
AcDbAssocValueDependency
 90
        0
  1

 40
8.5
  0
ACDBASSOCVALUEDEPENDENCY
  5
505
330
4CF
100
AcDbAssocDependency
 90
        2
 90
        0
290
     1
290
     0
290
     1
290
     1
 90
        0
330
327
290
     0
330
3C7
330
506
360
0
 90
        2
100
AcDbAssocValueDependency
 90
        0
  1

 40
8.5
  0
ACDBASSOCVALUEDEPENDENCY
  5
4EA
330
4D6
100
AcDbAssocDependency
 90
        2
 90
        0
290
     1
290
     0
290
     1
290
     1
 90
        0
330
326
290
     0
330
4E9
330
4EF
360
0
 90
        1
100
AcDbAssocValueDependency
 90
        0
  1

 40
4.7
  0
ACDBASSOCVALUEDEPENDENCY
  5
4F7
330
4DD
100
AcDbAssocDependency
 90
        2
 90
        0
290
     1
290
     0
290
     1
290
     1
 90
        0
330
328
290
     0
330
3D3
330
4FA
360
0
 90
        1
100
AcDbAssocValueDependency
 90
        0
  1

 40
2.9
  0
ACDBASSOCVALUEDEPENDENCY
  5
4E9
330
4E4
100
AcDbAssocDependency
 90
        2
 90
        0
290
     1
290
     0
290
     1
290
     1
 90
        0
330
326
290
     0
330
3CF
330
4EA
360
0
 90
        1
100
AcDbAssocValueDependency
 90
        0
  1

 40
4.7
  0
ACDBASSOCVALUEDEPENDENCY
  5
557
330
521
100
AcDbAssocDependency
 90
        2
 90
        0
290
     1
290
     0
290
     1
290
     1
 90
        0
330
32C
290
     0
330
556
330
0
360
0
 90
        1
100
AcDbAssocValueDependency
 90
        0
  1

 40
10.325
  0
ACDBASSOCVALUEDEPENDENCY
  5
55A
330
52B
100
AcDbAssocDependency
 90
        2
 90
        0
290
     1
290
     0
290
     1
290
     1
 90
        0
330
326
290
     0
330
558
330
0
360
0
 90
        1
100
AcDbAssocValueDependency
 90
        0
  1

 40
4.7
  0
ACDBASSOCVALUEDEPENDENCY
  5
556
330
530
100
AcDbAssocDependency
 90
        2
 90
        0
290
     1
290
     0
290
     1
290
     1
 90
        0
330
32C
290
     0
330
502
330
557
360
0
 90
        1
100
AcDbAssocValueDependency
 90
        0
  1

 40
10.325
  0
ACDBASSOCVALUEDEPENDENCY
  5
558
330
53C
100
AcDbAssocDependency
 90
        2
 90
        0
290
     1
290
     0
290
     1
290
     1
 90
        0
330
326
290
     0
330
4F6
330
55A
360
0
 90
        1
100
AcDbAssocValueDependency
 90
        0
  1

 40
4.7
  0
ASSOCDIMDEPENDENCYBODY
  5
43F
330
43E
100
AcDbAssocDependencyBody
 90
        1
100
AcDbImpAssocDimDependencyBodyBase
 90
        1
  1
d31=cuadrado_largo
100
AcDbAssocDimDependencyBody
 90
        1
  0
ASSOCDIMDEPENDENCYBODY
  5
348
330
347
100
AcDbAssocDependencyBody
 90
        1
100
AcDbImpAssocDimDependencyBodyBase
 90
        1
  1
d2=cuadrado_largo
100
AcDbAssocDimDependencyBody
 90
        1
  0
ASSOCDIMDEPENDENCYBODY
  5
34F
330
34E
100
AcDbAssocDependencyBody
 90
        1
100
AcDbImpAssocDimDependencyBodyBase
 90
        1
  1
d3=cuadrado_largo
100
AcDbAssocDimDependencyBody
 90
        1
  0
ASSOCDIMDEPENDENCYBODY
  5
40E
330
40D
100
AcDbAssocDependencyBody
 90
        1
100
AcDbImpAssocDimDependencyBodyBase
 90
        1
  1
d24=arco_largo
100
AcDbAssocDimDependencyBody
 90
        1
  0
ASSOCDIMDEPENDENCYBODY
  5
340
330
33F
100
AcDbAssocDependencyBody
 90
        1
100
AcDbImpAssocDimDependencyBodyBase
 90
        1
  1
d1=cuadrado_largo
100
AcDbAssocDimDependencyBody
 90
        1
  0
ASSOCDIMDEPENDENCYBODY
  5
3B3
330
3B2
100
AcDbAssocDependencyBody
 90
        1
100
AcDbImpAssocDimDependencyBodyBase
 90
        1
  1
d17=entrada_alto
100
AcDbAssocDimDependencyBody
 90
        1
  0
ASSOCDIMDEPENDENCYBODY
  5
44C
330
44B
100
AcDbAssocDependencyBody
 90
        1
100
AcDbImpAssocDimDependencyBodyBase
 90
        1
  1
d33=entrada_alto
100
AcDbAssocDimDependencyBody
 90
        1
  0
ASSOCDIMDEPENDENCYBODY
  5
533
330
532
100
AcDbAssocDependencyBody
 90
        1
100
AcDbImpAssocDimDependencyBodyBase
 90
        1
  1
d47=arco_largo
100
AcDbAssocDimDependencyBody
 90
        1
  0
ASSOCDIMDEPENDENCYBODY
  5
381
330
380
100
AcDbAssocDependencyBody
 90
        1
100
AcDbImpAssocDimDependencyBodyBase
 90
        1
  1
d9=entrada_corto
100
AcDbAssocDimDependencyBody
 90
        1
  0
ASSOCDIMDEPENDENCYBODY
  5
39A
330
399
100
AcDbAssocDependencyBody
 90
        1
100
AcDbImpAssocDimDependencyBodyBase
 90
        1
  1
d13=entrada_alto
100
AcDbAssocDimDependencyBody
 90
        1
  0
ASSOCDIMDEPENDENCYBODY
  5
3A7
330
3A6
100
AcDbAssocDependencyBody
 90
        1
100
AcDbImpAssocDimDependencyBodyBase
 90
        1
  1
d15=entrada_alto
100
AcDbAssocDimDependencyBody
 90
        1
  0
ASSOCDIMDEPENDENCYBODY
  5
41C
330
41B
100
AcDbAssocDependencyBody
 90
        1
100
AcDbImpAssocDimDependencyBodyBase
 90
        1
  1
d26=arco_largo
100
AcDbAssocDimDependencyBody
 90
        1
  0
ASSOCDIMDEPENDENCYBODY
  5
3AD
330
3AC
100
AcDbAssocDependencyBody
 90
        1
100
AcDbImpAssocDimDependencyBodyBase
 90
        1
  1
d16=entrada_alto
100
AcDbAssocDimDependencyBody
 90
        1
  0
ASSOCDIMDEPENDENCYBODY
  5
35E
330
35D
100
AcDbAssocDependencyBody
 90
        1
100
AcDbImpAssocDimDependencyBodyBase
 90
        1
  1
d4=cuadrado_largo
100
AcDbAssocDimDependencyBody
 90
        1
  0
ASSOCDIMDEPENDENCYBODY
  5
3C0
330
3BF
100
AcDbAssocDependencyBody
 90
        1
100
AcDbImpAssocDimDependencyBodyBase
 90
        1
  1
d19=cuadrado_largo
100
AcDbAssocDimDependencyBody
 90
        1
  0
ASSOCDIMDEPENDENCYBODY
  5
388
330
387
100
AcDbAssocDependencyBody
 90
        1
100
AcDbImpAssocDimDependencyBodyBase
 90
        1
  1
d10=entrada_alto
100
AcDbAssocDimDependencyBody
 90
        1
  0
ASSOCDIMDEPENDENCYBODY
  5
485
330
484
100
AcDbAssocDependencyBody
 90
        1
100
AcDbImpAssocDimDependencyBodyBase
 90
        1
  1
d42=cuadrado_largo
100
AcDbAssocDimDependencyBody
 90
        1
  0
ASSOCDIMDEPENDENCYBODY
  5
36C
330
36B
100
AcDbAssocDependencyBody
 90
        1
100
AcDbImpAssocDimDependencyBodyBase
 90
        1
  1
d6=entrada_corto
100
AcDbAssocDimDependencyBody
 90
        1
  0
ASSOCDIMDEPENDENCYBODY
  5
464
330
463
100
AcDbAssocDependencyBody
 90
        1
100
AcDbImpAssocDimDependencyBodyBase
 90
        1
  1
d37=entrada_alto
100
AcDbAssocDimDependencyBody
 90
        1
  0
ASSOCDIMDEPENDENCYBODY
  5
3E8
330
3E7
100
AcDbAssocDependencyBody
 90
        1
100
AcDbImpAssocDimDependencyBodyBase
 90
        1
  1
d21=rectangulo_corto
100
AcDbAssocDimDependencyBody
 90
        1
  0
ASSOCDIMDEPENDENCYBODY
  5
365
330
364
100
AcDbAssocDependencyBody
 90
        1
100
AcDbImpAssocDimDependencyBodyBase
 90
        1
  1
d5=cuadrado_largo
100
AcDbAssocDimDependencyBody
 90
        1
  0
ASSOCDIMDEPENDENCYBODY
  5
3E2
330
3E1
100
AcDbAssocDependencyBody
 90
        1
100
AcDbImpAssocDimDependencyBodyBase
 90
        1
  1
d20=rectangulo_largo
100
AcDbAssocDimDependencyBody
 90
        1
  0
ASSOCDIMDEPENDENCYBODY
  5
477
330
476
100
AcDbAssocDependencyBody
 90
        1
100
AcDbImpAssocDimDependencyBodyBase
 90
        1
  1
d40=entrada_corto
100
AcDbAssocDimDependencyBody
 90
        1
  0
ASSOCDIMDEPENDENCYBODY
  5
37A
330
379
100
AcDbAssocDependencyBody
 90
        1
100
AcDbImpAssocDimDependencyBodyBase
 90
        1
  1
d8=entrada_corto
100
AcDbAssocDimDependencyBody
 90
        1
  0
ASSOCDIMDEPENDENCYBODY
  5
524
330
523
100
AcDbAssocDependencyBody
 90
        1
100
AcDbImpAssocDimDependencyBodyBase
 90
        1
  1
d44=arco_largo
100
AcDbAssocDimDependencyBody
 90
        1
  0
ASSOCDIMDEPENDENCYBODY
  5
373
330
372
100
AcDbAssocDependencyBody
 90
        1
100
AcDbImpAssocDimDependencyBodyBase
 90
        1
  1
d7=entrada_corto
100
AcDbAssocDimDependencyBody
 90
        1
  0
ASSOCDIMDEPENDENCYBODY
  5
38E
330
38D
100
AcDbAssocDependencyBody
 90
        1
100
AcDbImpAssocDimDependencyBodyBase
 90
        1
  1
d11=entrada_alto
100
AcDbAssocDimDependencyBody
 90
        1
  0
ASSOCDIMDEPENDENCYBODY
  5
3A0
330
39F
100
AcDbAssocDependencyBody
 90
        1
100
AcDbImpAssocDimDependencyBodyBase
 90
        1
  1
d14=entrada_alto
100
AcDbAssocDimDependencyBody
 90
        1
  0
ASSOCDIMDEPENDENCYBODY
  5
415
330
414
100
AcDbAssocDependencyBody
 90
        1
100
AcDbImpAssocDimDependencyBodyBase
 90
        1
  1
d25=arco_largo
100
AcDbAssocDimDependencyBody
 90
        1
  0
ASSOCDIMDEPENDENCYBODY
  5
394
330
393
100
AcDbAssocDependencyBody
 90
        1
100
AcDbImpAssocDimDependencyBodyBase
 90
        1
  1
d12=entrada_alto
100
AcDbAssocDimDependencyBody
 90
        1
  0
ASSOCDIMDEPENDENCYBODY
  5
423
330
422
100
AcDbAssocDependencyBody
 90
        1
100
AcDbImpAssocDimDependencyBodyBase
 90
        1
  1
d27=arco_largo
100
AcDbAssocDimDependencyBody
 90
        1
  0
ASSOCDIMDEPENDENCYBODY
  5
4E7
330
4E6
100
AcDbAssocDependencyBody
 90
        1
100
AcDbImpAssocDimDependencyBodyBase
 90
        1
  1
d56=entrada_alto
100
AcDbAssocDimDependencyBody
 90
        1
  0
ASSOCDIMDEPENDENCYBODY
  5
3BA
330
3B9
100
AcDbAssocDependencyBody
 90
        1
100
AcDbImpAssocDimDependencyBodyBase
 90
        1
  1
d18=cuadrado_largo
100
AcDbAssocDimDependencyBody
 90
        1
  0
ASSOCDIMDEPENDENCYBODY
  5
3EE
330
3ED
100
AcDbAssocDependencyBody
 90
        1
100
AcDbImpAssocDimDependencyBodyBase
 90
        1
  1
d22=rectangulo_largo
100
AcDbAssocDimDependencyBody
 90
        1
  0
ASSOCDIMDEPENDENCYBODY
  5
46A
330
469
100
AcDbAssocDependencyBody
 90
        1
100
AcDbImpAssocDimDependencyBodyBase
 90
        1
  1
d38=cuadrado_largo
100
AcDbAssocDimDependencyBody
 90
        1
  0
ASSOCDIMDEPENDENCYBODY
  5
3F4
330
3F3
100
AcDbAssocDependencyBody
 90
        1
100
AcDbImpAssocDimDependencyBodyBase
 90
        1
  1
d23=rectangulo_corto
100
AcDbAssocDimDependencyBody
 90
        1
  0
ASSOCDIMDEPENDENCYBODY
  5
42A
330
429
100
AcDbAssocDependencyBody
 90
        1
100
AcDbImpAssocDimDependencyBodyBase
 90
        1
  1
d28=entrada_corto
100
AcDbAssocDimDependencyBody
 90
        1
  0
ASSOCDIMDEPENDENCYBODY
  5
431
330
430
100
AcDbAssocDependencyBody
 90
        1
100
AcDbImpAssocDimDependencyBodyBase
 90
        1
  1
d29=entrada_corto
100
AcDbAssocDimDependencyBody
 90
        1
  0
ASSOCDIMDEPENDENCYBODY
  5
438
330
437
100
AcDbAssocDependencyBody
 90
        1
100
AcDbImpAssocDimDependencyBodyBase
 90
        1
  1
d30=entrada_corto
100
AcDbAssocDimDependencyBody
 90
        1
  0
ASSOCDIMDEPENDENCYBODY
  5
446
330
445
100
AcDbAssocDependencyBody
 90
        1
100
AcDbImpAssocDimDependencyBodyBase
 90
        1
  1
d32=entrada_alto
100
AcDbAssocDimDependencyBody
 90
        1
  0
ASSOCDIMDEPENDENCYBODY
  5
452
330
451
100
AcDbAssocDependencyBody
 90
        1
100
AcDbImpAssocDimDependencyBodyBase
 90
        1
  1
d34=entrada_alto
100
AcDbAssocDimDependencyBody
 90
        1
  0
ASSOCDIMDEPENDENCYBODY
  5
458
330
457
100
AcDbAssocDependencyBody
 90
        1
100
AcDbImpAssocDimDependencyBodyBase
 90
        1
  1
d35=entrada_alto
100
AcDbAssocDimDependencyBody
 90
        1
  0
ASSOCDIMDEPENDENCYBODY
  5
45E
330
45D
100
AcDbAssocDependencyBody
 90
        1
100
AcDbImpAssocDimDependencyBodyBase
 90
        1
  1
d36=entrada_alto
100
AcDbAssocDimDependencyBody
 90
        1
  0
ASSOCDIMDEPENDENCYBODY
  5
52E
330
52D
100
AcDbAssocDependencyBody
 90
        1
100
AcDbImpAssocDimDependencyBodyBase
 90
        1
  1
d46=entrada_alto
100
AcDbAssocDimDependencyBody
 90
        1
  0
ASSOCDIMDEPENDENCYBODY
  5
470
330
46F
100
AcDbAssocDependencyBody
 90
        1
100
AcDbImpAssocDimDependencyBodyBase
 90
        1
  1
d39=entrada_alto
100
AcDbAssocDimDependencyBody
 90
        1
  0
ASSOCDIMDEPENDENCYBODY
  5
4D2
330
4D1
100
AcDbAssocDependencyBody
 90
        1
100
AcDbImpAssocDimDependencyBodyBase
 90
        1
  1
d53=cuadrado_largo
100
AcDbAssocDimDependencyBody
 90
        1
  0
ASSOCDIMDEPENDENCYBODY
  5
47E
330
47D
100
AcDbAssocDependencyBody
 90
        1
100
AcDbImpAssocDimDependencyBodyBase
 90
        1
  1
d41=entrada_alto
100
AcDbAssocDimDependencyBody
 90
        1
  0
ASSOCDIMDEPENDENCYBODY
  5
4D9
330
4D8
100
AcDbAssocDependencyBody
 90
        1
100
AcDbImpAssocDimDependencyBodyBase
 90
        1
  1
d54=entrada_alto
100
AcDbAssocDimDependencyBody
 90
        1
  0
ASSOCDIMDEPENDENCYBODY
  5
4E0
330
4DF
100
AcDbAssocDependencyBody
 90
        1
100
AcDbImpAssocDimDependencyBodyBase
 90
        1
  1
d55=entrada_corto
100
AcDbAssocDimDependencyBody
 90
        1
  0
ASSOCDIMDEPENDENCYBODY
  5
53F
330
53E
100
AcDbAssocDependencyBody
 90
        1
100
AcDbImpAssocDimDependencyBodyBase
 90
        1
  1
d49=entrada_alto
100
AcDbAssocDimDependencyBody
 90
        1
  0
ENDSEC
  0
SECTION
  2
ACDSDATA
 70
     2
 71
     8
  0
ACDSSCHEMA
 90
        0
  1
AcDb_Thumbnail_Schema
  2
AcDbDs::ID
280
    10
 91
        8
  2
Thumbnail_Data
280
    15
 91
        0
101
ACDSRECORD
 95
        0
 90
        1
  2
AcDbDs::TreatedAsObjectData
280
     1
291
     1
101
ACDSRECORD
 95
        0
 90
        2
  2
AcDbDs::Legacy
280
     1
291
     1
101
ACDSRECORD
  1
AcDbDs::ID
 90
        3
  2
AcDs:Indexable
280
     1
291
     1
101
ACDSRECORD
  1
AcDbDs::ID
 90
        4
  2
AcDbDs::HandleAttribute
280
     7
282
     1
  0
ACDSSCHEMA
 90
        1
  1
AcDbDs::TreatedAsObjectDataSchema
  2
AcDbDs::TreatedAsObjectData
280
     1
 91
        0
  0
ACDSSCHEMA
 90
        2
  1
AcDbDs::LegacySchema
  2
AcDbDs::Legacy
280
     1
 91
        0
  0
ACDSSCHEMA
 90
        3
  1
AcDbDs::IndexedPropertySchema
  2
AcDs:Indexable
280
     1
 91
        0
  0
ACDSSCHEMA
 90
        4
  1
AcDbDs::HandleAttributeSchema
  2
AcDbDs::HandleAttribute
280
     7
 91
        1
284
     1
  0
ACDSRECORD
 90
        0
  2
AcDbDs::ID
280
    10
320
22
  2
Thumbnail_Data
280
    15
 94
     1613
310
89504E470D0A1A0A0000000D494844520000010000000063080300000043BB2E1400000300504C5445212830FFFFFF2128300000000000000000000000000000000000000000000000000000330000660000990000CC0000FF0033000033330033660033990033CC0033FF0066000066330066660066990066CC0066FF0099
310
000099330099660099990099CC0099FF00CC0000CC3300CC6600CC9900CCCC00CCFF00FF0000FF3300FF6600FF9900FFCC00FFFF3300003300333300663300993300CC3300FF3333003333333333663333993333CC3333FF3366003366333366663366993366CC3366FF3399003399333399663399993399CC3399FF33CC00
310
33CC3333CC6633CC9933CCCC33CCFF33FF0033FF3333FF6633FF9933FFCC33FFFF6600006600336600666600996600CC6600FF6633006633336633666633996633CC6633FF6666006666336666666666996666CC6666FF6699006699336699666699996699CC6699FF66CC0066CC3366CC6666CC9966CCCC66CCFF66FF0066
310
FF3366FF6666FF9966FFCC66FFFF9900009900339900669900999900CC9900FF9933009933339933669933999933CC9933FF9966009966339966669966999966CC9966FF9999009999339999669999999999CC9999FF99CC0099CC3399CC6699CC9999CCCC99CCFF99FF0099FF3399FF6699FF9999FFCC99FFFFCC0000CC00
310
33CC0066CC0099CC00CCCC00FFCC3300CC3333CC3366CC3399CC33CCCC33FFCC6600CC6633CC6666CC6699CC66CCCC66FFCC9900CC9933CC9966CC9999CC99CCCC99FFCCCC00CCCC33CCCC66CCCC99CCCCCCCCCCFFCCFF00CCFF33CCFF66CCFF99CCFFCCCCFFFFFF0000FF0033FF0066FF0099FF00CCFF00FFFF3300FF3333
310
FF3366FF3399FF33CCFF33FFFF6600FF6633FF6666FF6699FF66CCFF66FFFF9900FF9933FF9966FF9999FF99CCFF99FFFFCC00FFCC33FFCC66FFCC99FFCCCCFFCCFFFFFF00FFFF33FFFF66FFFF99FFFFCCFFFFFF0000000D0D0D1A1A1A2828283535354343435050505D5D5D6B6B6B787878868686939393A1A1A1AEAEAEBB
310
BBBBC9C9C9D6D6D6E4E4E4F1F1F1FFFFFF0000000000000000000000000000000000000000000000000000000000002E4550F1000000D34944415478DAEDD9CB0E8320100550FFFF7F67DF55D34086AA2960C573563EC0C0D520E8B6010000000000009C101FE55EE4850EBB4D00C5566427CAEDD3D7ADF34B0EEC16B87B00
310
F589FAC06E010108400002181F4039E00E0BA01ED7B3FD4B0238DA831F03E8D8440108A0DF543899B7759F09F668DC8CE720BADC831873110108C018B0DC5B60B78F4B07F0EEFBB70C560E20CEB664B1B54064552E5B0BCC5F0D465AE739CBE1C69B520002784800D1A8353B80093F461A9FFD5B8DD9A6FE17F82F4FEA2B00
310
000000000000000000907901598221A133DDFCBE0000000049454E44AE4260820000000000000000C0B307B4189B2C4A09FE0B0000000049454E44AE4260820BC07C1051D8FE4F7700B0DAB0992967E301044D2B009F67446D8FCD749F1820952BEDC54B0C60F267617DF4F35340FC5ACFEF0C8242C3054115B532B98BA397
310
C182810BA357A547246E9BCA00D82FD3014008A32E35602E04901EEF8D694C81C865FC02A9A640EC535900BECAD9228E9F64CC50314085778A52420A00EB034D941023A34F5A69AECC668B6E12041747C8C9140D96D12C97600606E0F363BFE8CB5CD18800A2E42D1157F31D6D03AE1A8C06201D783B53CF4C190D01409F60
310
E215C24DE51700E897B41D710A5CAABE003249D1ABD3F5BD3D206F74728B46CA0AF701405D04000000000050DDB3CF69ECF383F22000FC66EFF27D40E32DDBEBB88713E9F2A99585CA34D6C43CA92AD600769D000E18C8413C60D75920EAF55E04F705B0EAF13E04B705200775660C001C52213B877FB7130C0140E7BACD6F
310
AD969B0250D9EADDC3BFCF097A00080EEFBEA5B80066D738D9D2A5E632D90140FC91E5E5FDC9694693BB641B80C8405A1775019048D45B836D00427707507DE10800DA646C00FC654C978D0D7E3D0065F43800420000008F01C000B019806CADEB6953A02380E3EF18093BC197784051DC62B63DF5B7E196991100EC78E551
310
020000000000783900F669C22861F62600E9FF4F207DFBFCCB3C60FD61F0C70318FAE6FE6B3C20CF05ABC04B004010044110044110044110044110044110044110348EFE001708CA90E9413F720000000049454E44AE426082
  0
ENDSEC
  0
EOF
